#TITLE:Speed Ace;
#SUBTITLE:;
#ARTIST:K@me;
#TITLETRANSLIT:;
#SUBTITLETRANSLIT:;
#ARTISTTRANSLIT:;
#CREDIT:;
#BANNER:SpeedAce-bn.png;
#BACKGROUND:SpeedAce-bg.png;
#LYRICSPATH:;
#CDTITLE:!danceguyTitle.png;
#MUSIC:Speed Ace.mp3;
#OFFSET:-0.089;
#SAMPLESTART:31.374;
#SAMPLELENGTH:12.000;
#SELECTABLE:YES;
#BPMS:0.000=191.000;
#STOPS:;
#BGCHANGES:;
// cache tags:
#FIRSTBEAT:4.000;
#LASTBEAT:395.500;
#SONGFILENAME:Songs/Fresh Flock of Fantastic Files F4/(DAnceguy117) Speed Ace/Speed Ace.sm;
#HASMUSIC:1;
#HASBANNER:1;
#MUSICLENGTH:125.126;
// end cache tags

//---------------dance-single - heavy----------------
#NOTES:
     dance-single:
     heavy:
     Hard:
     11:
     1.000,1.000,1.000,0.088,0.947,977.000,156.000,11.000,0.000,0.000:
0000
0000
0000
0000
,
1001
0100
0010
1000
0100
0010
0001
1000
,
0010
0100
0010
0000
1000
0000
0100
0000
0010
0000
0001
0000
1000
0000
0010
0000
,
0100
0001
0100
0000
0010
0000
1000
0000
0001
0000
0010
0000
0100
0000
1000
0000
,
0001
1000
0001
0000
1000
0000
0100
0000
0010
0000
0001
0000
1000
0100
1000
0001
,
0020
0031
1000
0010
0100
0000
0001
0000
0010
0000
0100
0000
1000
0000
0001
0000
,
1000
0010
1000
0001
0100
0000
0010
0000
1000
0000
0001
0000
0100
0000
0001
0000
,
0010
0001
1000
0010
0100
0000
0001
0000
0010
0000
0100
0000
1000
0000
0001
0000
,
1000
0100
1000
0100
0010
0000
0001
0100
0001
0100
0010
0000
1000
0001
0010
0100
,
1001
0000
0110
1000
0010
0100
0001
0010
,
0100
1000
0001
0000
0100
0000
0010
0000
0110
0000
1001
0000
1001
0000
1001
0000
,
1001
0000
0110
0001
1000
0100
0010
0001
,
0100
0010
1000
0000
0001
0000
0010
0000
0110
0000
1001
0000
1001
0000
1001
0000
,
2001
3000
0000
0000
0110
0000
0010
0000
1000
0000
0001
0000
0010
0000
0100
0000
,
1000
0100
0010
0001
1000
0000
0010
0000
0110
0000
1001
0000
1001
0000
1001
0000
,
1001
0100
1000
0001
0110
0000
0010
0000
1000
0000
0100
0000
0010
0000
0001
0000
,
1000
0010
0100
0000
0001
0000
0100
0010
1000
0100
0010
0001
1000
0010
0100
0001
,
1000
0000
0000
0000
0110
0000
0000
0000
0001
0000
0001
0000
0110
0000
0001
1000
,
0100
0000
0100
0000
0110
0000
0001
0000
1000
0000
0100
0000
0110
0000
0001
1000
,
0100
0000
0000
0000
0110
0000
0001
0000
0010
0000
0001
0000
0110
0000
1000
0001
,
0100
0000
0100
0000
0110
0000
0100
0001
1000
0100
0010
0000
0110
0000
0010
0001
,
2000
3000
0001
0000
0110
0000
0100
0010
1000
0000
0001
0000
0110
0000
1000
0001
,
0100
0000
0010
0000
0110
0000
0001
0000
1000
0000
0100
0000
0110
0000
0010
0001
,
1000
0000
0000
0000
0110
0000
0001
0000
0010
0000
1000
0000
0110
0000
0100
0001
,
1000
0100
1000
0000
0010
0000
0100
0001
0000
0010
0001
0000
1000
0100
0010
0001
,
0110
0000
0001
0000
1001
0000
1000
0000
0011
0000
0010
0000
0110
0000
0010
0100
,
1010
0000
1000
0000
1001
0000
0010
0000
1100
0000
0001
0000
0011
0000
0010
0001
,
1100
0000
0001
0000
1010
0000
0100
0000
0110
0000
0010
0000
1001
0000
1000
0010
,
0101
0000
0001
0000
1001
0000
1000
0100
0011
0100
0010
0000
1001
0000
0010
0001
,
2100
3000
0010
0000
1010
0000
1000
0000
0011
0000
0001
0000
0110
0000
0100
0010
,
0101
0000
0010
0000
1001
0000
0001
0000
1010
0000
0010
0000
0110
0000
0010
0100
,
1001
0000
0100
0000
1010
0000
1000
0000
1001
0000
0010
0000
0011
0000
0010
0001
,
1000
0100
1000
0000
0010
0000
0100
0001
0000
0100
0010
0000
1000
0010
0100
0001
,
1000
0000
1000
0000
1000
0100
1000
0100
1000
0000
1000
0000
1000
0100
1000
0100
,
1000
0010
0100
0000
0001
0000
1000
0100
0000
0100
0010
0000
0001
0010
0100
1000
,
0001
0000
0100
0000
0010
1000
0100
0010
0001
0000
0100
0000
0010
0000
0010
0000
,
1000
0000
0100
0000
0010
0000
0001
1000
0010
0100
0001
0000
1001
0000
1001
0000
,
0100
0000
0010
0000
0001
1000
0010
0100
0001
0000
0010
0000
0100
0000
0100
0000
,
1000
0010
0100
0001
1000
0000
0100
0010
0001
0100
0010
0000
1001
0000
1001
0000
,
0020
0030
0100
0000
0001
0010
0100
1000
0010
0000
0100
0000
0001
0000
0001
0000
,
0010
0000
0100
0000
1000
0000
0010
0100
0001
1000
0100
0000
1001
0000
1001
0000
,
0010
0000
0100
0000
0010
1000
0001
0010
0100
0000
1000
0000
0001
0000
0001
0000
,
1000
0100
0010
0000
0001
0000
1000
0010
0000
0100
0001
0000
0010
0100
1000
0001
,
0010
0000
0100
0000
1000
0010
0100
0001
0010
0100
0010
0100
1000
0100
1000
0100
,
1000
0000
0010
0000
0100
0000
0001
0010
0100
1000
0010
1000
0010
1000
0001
0100
,
0010
0000
1000
0000
0001
0010
0100
1000
0010
0100
0010
0100
0001
0100
0001
0100
,
0010
1000
0001
0010
0100
0000
1000
0010
0100
0001
0010
0100
1000
0001
0100
0001
,
0020
0030
0001
0000
1000
0010
0100
0001
1000
0100
1000
0100
0010
0100
0010
0100
,
0010
0000
0001
0000
1000
0000
0010
0100
0010
1000
0100
0010
0001
0010
0001
1000
,
0010
0010
0110
0010
0001
0001
1001
0001
,
1000
0100
0010
0001
1000
0000
0001
0100
0010
1000
0001
0000
1001
0000
1001
0000
,
1000
0000
0001
0000
0100
0010
1000
0100
0010
0000
0001
0000
1000
0000
1000
0000
,
0001
0100
0001
0000
0100
0000
0010
1000
0000
0010
1000
0000
0110
0000
0110
0000
,
1000
0000
0010
0000
0100
0001
0010
0100
1000
0000
0001
0000
1000
0000
1000
0000
,
0001
0010
0001
0000
0010
0000
0100
1000
0000
0010
1000
0000
0110
0000
0110
0000
,
0020
0030
1000
0000
0011
0000
0011
0100
1000
0001
1000
0000
0010
0000
0100
0000
,
0010
1000
0010
0000
1000
0000
0001
0010
0000
0010
0100
0000
0110
0000
0110
0000
,
0001
0001
0011
0011
0001
0001
0001
0001
,
1000
0100
1000
0000
0001
0000
0010
0001
0010
0100
0010
0000
0100
1000
0100
0000
,
1000
0000
0001
0000
1000
0010
0100
0001
1000
0000
0001
0000
0100
0000
0010
0000
,
1000
0100
1000
0000
0100
0000
0010
0001
0000
0100
0010
0000
1001
0000
0110
0000
,
1000
0000
0001
0000
0100
0010
1000
0001
0010
0000
0001
0000
1000
0000
0010
0000
,
0100
0001
1000
0000
0100
0000
0010
0001
0000
0001
1000
0000
0110
0000
1001
0000
,
0020
0030
0100
0000
0001
0010
0100
1000
0001
0000
0100
0000
0010
0000
1000
0000
,
0100
0010
0100
0000
1000
0000
0010
0100
0000
0001
0010
0000
0011
0000
1010
0000
,
1000
1000
1010
1000
1000
1000
1001
1000
,
0010
0100
0010
0000
1000
0000
0001
0010
0100
1000
0001
0100
0010
1000
0001
0010
,
0001
0000
1000
0000
0010
0100
0010
1000
0001
0000
0001
0000
1000
0000
1000
0000
,
0001
0100
0001
0000
0100
0000
0010
1000
0000
0010
1000
0000
0001
0010
0001
0010
,
0100
0000
1000
0000
0010
1000
0001
0010
0100
0000
0100
0000
0010
0000
0010
0000
,
0001
0010
0001
0000
1000
0000
0010
0100
0000
0010
0100
0000
0010
1000
0010
1000
,
0020
0030
0100
0000
0001
0010
0100
1000
0001
0000
0001
0000
0100
0000
0100
0000
,
0010
1000
0001
0000
0010
0000
0100
1000
0000
0001
1000
0000
0010
0100
0001
0100
,
0010
0010
1010
0010
0010
0010
0110
0010
,
1000
0001
1000
0000
0010
0000
0100
0001
0000
0010
0100
0000
1000
0010
0100
0001
,
1010
0000
1001
0000
0011
0100
1001
1000
,
0001
0010
0001
0000
0010
0000
0100
1000
0000
0001
1000
0000
0010
0100
0001
1000
,
0011
0000
0101
0000
1010
0010
1100
0100
,
1000
0100
0010
0000
0001
0000
1000
0010
0000
0100
0001
0000
0100
0010
1000
0001
,
0120
0030
0000
0000
1010
0000
0000
0000
0011
0000
0010
0000
1100
0000
0100
0000
,
1000
0001
0100
0000
0010
0000
1000
0001
0000
0010
0001
0000
0010
0100
0010
0001
,
1000
1000
1010
1000
1000
1000
1001
1000
,
0001
1000
0100
1000
0010
0000
1000
0001
0100
0001
0010
0000
1000
0001
0010
0000
,
1001
0000
0110
0010
0100
0001
1000
0100
,
0010
0100
0010
0000
0001
0000
1000
0010
1001
0000
1001
0000
0110
0000
1001
0000
,
1001
0000
0110
0010
0100
0001
0010
0100
,
1000
0001
0100
0000
0010
0000
1001
1001
0000
1001
1001
0000
0110
0000
1001
0000
,
1020
0030
0000
0000
0110
0000
0010
0000
0100
0000
0001
0000
1000
0000
0100
0000
,
0010
0001
1000
0000
0100
0000
0010
0100
1001
0000
1001
0000
0110
0000
1001
0000
,
1001
0000
0110
0010
1000
0001
0010
0100
,
1000
0100
1000
0000
0001
0000
0100
0001
0000
1000
0010
0000
1000
0010
0100
0010
,
1001
0000
0110
0000
0010
0010
0010
0010
,
1000
0010
1000
0000
1000
0000
0100
0010
1001
0000
1001
0000
0110
0000
1001
0000
,
1001
0000
0110
0010
0010
0010
0010
0010
,
1000
0010
1000
0000
1000
0000
1001
1001
0000
1001
1001
0000
0110
0000
1001
0000
,
1001
0000
0000
0000
0110
0000
0000
1000
1000
0000
1000
0000
1000
0000
1000
0000
,
0001
0100
0001
0000
0100
0000
0010
0100
1001
0000
1001
0000
0110
0000
1001
0000
,
1001
0000
0000
0000
0110
0001
0001
0000
0001
0000
0001
0000
0001
0000
0001
0000
,
1000
0100
1000
0000
1000
0000
1001
1001
0000
1001
1001
0000
0110
0000
0010
0000
;
