#TITLE:Concerto;
#SUBTITLE:;
#ARTIST:Sanxion7;
#TITLETRANSLIT:;
#SUBTITLETRANSLIT:;
#ARTISTTRANSLIT:;
#CREDIT:J. DeGarmo;
#BANNER:Concerto-banner.PNG;
#BACKGROUND:Concerto-bg.PNG;
#LYRICSPATH:;
#CDTITLE:;
#MUSIC:Concerto.ogg;
#OFFSET:0.000;
#SAMPLESTART:49.715;
#SAMPLELENGTH:13.285;
#SELECTABLE:YES;
#BPMS:0.000=140.000;
#STOPS:84.000=1.286
,89.000=1.286
,94.000=1.286
,105.000=0.214
,105.500=0.214
;
#BGCHANGES:;
// cache tags:
#FIRSTBEAT:8.000;
#LASTBEAT:238.000;
#SONGFILENAME:Songs/lvsb tourney pack/Concerto/Concerto.sm;
#HASMUSIC:1;
#HASBANNER:1;
#MUSICLENGTH:109.714;
// end cache tags

//---------------dance-single - J. DeGarmo----------------
#NOTES:
     dance-single:
     J. DeGarmo:
     Challenge:
     10:
     0.682,0.786,0.182,0.146,0.702,487.000,20.000,16.000,18.000,4.000:


















0000
0000
0000
0000
,
0000
0000
0000
0000
,
0000
0000
0000
0000
,
0000
0000
0000
0000
,
0001
0010
0100
1000
0100
0000
1000
0100
0010
0100
0010
0001
0100
0010
0100
0000
,
0001
0010
0001
0100
0001
0000
1000
0100
0010
0001
0010
0000
0010
0001
0010
0000
,
0100
1000
0010
1000
0001
0000
0100
0010
0100
0001
0100
0010
1000
0100
1000
0000
,
0100
0010
0001
0010
0001
0000
0010
0100
1000
0100
1000
0000
1000
0100
1000
0000
,
0100
0010
0100
1000
0100
0000
0010
0001
0010
0100
1000
0100
0010
0001
0010
0000
,
0100
1000
0100
0010
0100
0000
1000
0010
1000
0100
1000
0000
1000
0100
1000
0000
,
0010
1000
0100
0010
0100
0000
1000
0100
0010
0001
0010
0100
0010
0001
0010
0000
,
0001
1000
0100
0010
0100
0000
0100
1000
0100
0010
0001
0100
0001
1000
0001
0000
,
0200
0000
0010
0010
0000
1000
0000
0001
,
0000
0000
1000
1000
0000
0010
0001
0320
,
0000
0000
1000
1000
0000
0001
0000
0100
,
0000
0000
0001
0001
0000
1000
0100
1030
,
0001
0010
0000
0100
0010
0000
0000
0000
0100
1000
0000
0100
0010
0000
0000
0000
,
0001
0100
0000
0010
1000
0000
0000
0000
0100
1000
0000
0001
0100
0000
0000
0000
,
0001
0010
0001
0000
0100
0000
1000
0000
0100
0010
0100
0000
0001
0000
1000
0000
,
0100
1000
0001
0000
0010
0000
0100
0000
0001
0000
0100
0000
1000
0000
0010
0000
,
1010
0101
0011
2200
,
0001
3300
0000
0000
0000
0000
0000
0000
0000
0000
0000
0000
0000
0000
0000
0000
1010
0000
0000
0000
0000
0000
0000
0000
0000
0000
0000
0000
0000
0000
0000
0000
0011
0000
0000
0000
0000
0000
0000
0000
0000
0000
0000
0000
0000
0000
0000
0000
1100
0000
0000
0000
0000
0000
0000
0000
0000
0000
0000
0000
0000
0000
0000
0000
,
0202
0000
0000
0000
0000
0000
0000
0000
0000
0000
0000
0000
0000
0000
0000
0000
1000
0303
0000
0000
0000
0000
0000
0000
0000
0000
0000
0000
0000
0000
0000
0000
1001
0000
0000
0000
0000
0000
0000
0000
0000
0000
0000
0000
0000
0000
0000
0000
0110
0000
0000
0000
0000
0000
0000
0000
0000
0000
0000
0000
0000
0000
0000
0000
,
1001
0000
0000
0000
0000
0000
0000
0000
0000
0000
0000
0000
0000
0000
0000
0000
0220
0000
0000
0000
0000
0000
0000
0000
0000
0000
0000
0000
0000
0000
0000
0000
0001
0330
0000
0000
0000
0000
0000
0000
0000
0000
0000
0000
0000
0000
0000
0000
1000
0000
0000
0000
0000
0000
0000
0000
0010
0000
0000
0000
0000
0000
0000
0000
,
0001
0010
1000
0100
0001
0100
2002
0040
,
0000
0000
0000
0000
0000
0000
0000
0000
0000
0000
0000
0000
0030
0000
0000
3003
0000
0001
1000
0000
0010
0000
0100
0000
,
0001
0000
0000
0000
0000
0000
0000
0000
0000
0000
0000
0000
0000
0000
0000
0000
0100
0000
0000
0000
0000
0000
0000
0000
0000
0000
0000
0000
0000
0000
0000
0000
0010
0000
0000
0000
0000
0000
0000
0000
0000
0000
0000
0000
0000
0000
0000
0000
2200
0000
0000
0000
0000
0000
0000
0000
0000
0000
0000
0000
0000
0000
0000
0000
0000
0000
0000
0000
0000
0000
0000
0000
00M1
0000
0000
3300
0000
0000
0000
0000
0000
0000
0000
0000
0000
0000
0000
0000
0000
0000
0000
0000
0000
0000
0000
0000
1000
0000
0000
0000
0000
0000
0000
0000
0000
0000
0000
0000
0000
0000
0000
0000
0000
0000
0000
0000
0000
0000
0000
0000
0010
0000
0000
0000
0000
0000
0000
0000
0000
0000
0000
0000
0000
0000
0000
0000
0000
0000
0000
0000
0000
0000
0000
0000
0001
0000
0000
0000
0000
0000
0000
0000
0000
0000
0000
0000
0000
0000
0000
0000
0000
0000
0000
0000
0000
0000
0000
0000
0010
0000
0000
0000
0000
0000
0000
0000
0000
0000
0000
0000
0000
0000
0000
0000
0000
0000
0000
0000
0000
0000
0000
0000
,
0100
0000
1000
0000
0100
0000
0010
0000
1000
0100
0000
0100
1000
0000
0000
0000
,
0100
0010
0000
0010
0100
0000
0000
0000
1000
0000
0100
0000
0001
0000
0100
0000
,
0010
0000
1000
0000
0010
0000
0100
0000
1000
0010
0000
0010
0001
0000
0000
0000
,
0010
1000
0000
1000
0001
0000
0000
0000
1000
0100
1000
0100
1000
0000
0001
0000
,
0100
0010
0100
0010
0100
0000
0001
0000
1000
0100
0010
0000
0001
1000
0100
0000
,
0010
0001
0100
0010
1000
0010
1000
0000
0102
0000
0100
0000
0100
0000
1000
0000
,
MM00
0100
0100
0100
0010
0010
M0M0
1000
,
1000
0000
1000
0000
0100
0000
0103
0000
1000
0001
1000
0000
1000
0100
1000
0000
,
1000
0010
1000
0100
1000
0001
0010
0000
0001
1000
0001
0000
0001
0010
0001
0000
,
0001
0100
0001
0010
0001
0100
0010
0000
1000
0100
0000
1000
0000
0100
0010
0000
,
0001
1000
0000
0010
0000
0100
0010
0000
1000
0001
0000
0001
0000
1000
0100
0000
,
2000
0000
0001
0000
0001
0000
0001
0000
3001
1000
0000
0010
0100
0000
0010
1000
,
0000
0001
0010
0000
0100
1000
0001
0000
0100
0010
0000
1000
0100
0000
0010
0001
,
0000
1000
0010
0000
0100
0000
0001
0000
0100
0010
0100
0000
0001
0000
1000
0000
,
0001
0010
0001
0000
1000
0000
1000
0000
0001
0100
0010
0000
1000
0010
0100
0000
,
0001
0010
0100
1000
0010
0000
0010
0000
0000
0000
1000
0100
0000
0100
1000
0000
,
M000
0000
0010
0100
0000
0100
0010
0000
00M0
0000
0100
0001
0000
0001
0100
0000
,
0M00
0000
0001
0010
0000
0010
0001
0000
000M
0000
0100
0010
0000
0010
1000
0000
,
M000
0000
0001
0100
0000
0100
0010
0000
00M0
0000
1000
0100
0000
0100
0001
0000
,
000M
0000
0100
1000
0000
1000
0010
0000
1000
0100
1000
0100
1000
0000
0000
0000
,
0001
1000
0001
1000
0001
0000
0000
0000
0100
0010
0100
0000
0100
0010
0100
0000
,
0001
0000
0000
0010
0000
0000
0001
0000
0000
0010
0000
0000
0001
0000
0000
0000
0000
0000
0000
0000
0000
0000
0000
0000
1000
0000
0000
0000
0000
0000
0000
0000
0000
0000
0001
0000
0010
0000
0000
0000
0000
0000
0000
0000
0000
0000
0000
0000
,
0001
0000
0000
0000
0000
1000
0100
0000
0000
0000
0000
0000
1010
0000
0000
0000
0000
0000
1100
0000
0000
0000
0000
0000
,
0011
0000
0101
0000
0010
0100
1000
0100
,
0001
0000
0010
0000
0100
0000
0010
0000
0001
0100
0000
0100
0001
0000
000M
0000
,
1000
0010
0000
0010
1000
0000
M000
0000
0001
0000
0100
0000
1000
0000
0100
0000
,
0010
0000
0001
0000
0010
0000
1000
0000
0001
0010
0000
0010
0001
0000
000M
0000
,
0100
0010
0000
0010
0100
0000
0M00
0000
0010
0000
1000
0000
0010
0000
0001
0000
,
0010
0000
0100
0000
0001
0000
1000
0000
0001
0100
0000
0010
1000
0000
M000
0000
,
0001
0010
0000
0100
1000
0000
M000
0000
0001
0000
0001
0000
0100
0000
0010
0000
,
0100
1000
0100
0010
1000
1000
0001
0010
,
0100
0010
0100
1000
0001
0100
0010
1000
2002
0000
0000
0000
0000
0000
0000
0000
,
0000
0000
3003
0000
;

//---------------dance-single - J. DeGarmo----------------
#NOTES:
     dance-single:
     J. DeGarmo:
     Hard:
     8:
     0.448,0.488,0.109,0.109,0.100,320.000,12.000,12.000,16.000,0.000:























0000
0000
0000
0000
,
0000
0000
0000
0000
,
0000
0000
0000
0000
,
0000
0000
0000
0000
,
1000
0010
1000
0100
1000
0001
1000
0100
,
0010
0001
0100
0010
1000
0001
0100
0010
,
1000
0001
0100
0010
0100
1000
0100
0001
,
0010
0000
0001
0000
0100
0000
1000
0000
0100
0000
0010
0000
1000
0001
1000
0000
,
0001
0100
0001
0010
0001
1000
0001
0010
,
0100
1000
0010
0100
0001
1000
0010
0100
,
0001
1000
0010
0100
0010
0001
0010
1000
,
0100
1000
0010
0001
0010
0100
0001
0000
,
2001
000M
0001
0001
000M
0001
000M
0001
,
0000
000M
0000
0000
0001
0000
0001
0000
000M
0000
0001
0000
0001
0000
3001
0000
,
1002
M000
1000
1000
M000
1000
M000
1000
,
0000
M000
0000
0000
1000
0000
1000
0000
M000
0000
1000
0000
1000
0000
1003
0000
,
0001
0100
0000
0010
0000
0000
0000
0000
1000
0010
0000
0100
0000
0000
0000
0000
,
0001
0100
0010
1000
,
0001
0010
1000
0010
0001
0100
1000
0100
,
0110
0000
1001
0000
0001
1000
0100
0000
,
1000
0010
1000
0010
0100
0000
0110
0000
,
0MM0
0000
0001
0010
0100
1000
0100
0000
,
1100
0000
MM00
0000
1000
0010
0001
0010
,
1000
0000
0011
0000
00MM
0000
1000
0100
,
0010
0001
0001
0010
0100
1000
1000
0010
,
0100
0000
0000
0001
0000
0000
0001
0000
0000
0100
0000
0000
0010
0000
0000
1000
0000
0000
1000
0000
0001
0000
1000
0000
,
0001
0000
1000
0000
0001
0000
1000
0000
0000
1001
0000
0000
0001
0000
0000
0100
0000
0000
0010
0000
0000
1000
0000
0000
,
1100
0000
0101
0000
0001
0000
0100
1000
,
0000
0100
0010
1000
0010
0000
0001
0000
,
0010
1000
0000
0100
0000
0001
0100
0000
,
1000
0010
0100
1000
0100
0000
0010
0001
,
0000
0010
0000
0100
0000
0001
0000
1000
,
0001
0000
0100
1000
0100
0000
0001
0010
,
0000
1000
0000
0010
0000
0100
0000
1000
,
0001
0000
0000
0000
0100
0000
0000
0000
0001
0010
0000
0001
0010
0000
0100
0000
,
1000
0010
0001
0010
0100
1000
0100
0010
,
1000
0000
0001
0000
0001
0000
0000
0000
1000
0100
0000
1000
0100
0000
0010
0000
,
0001
0100
1000
0100
0010
0001
0010
1000
,
0010
0000
1000
0000
1000
0000
0000
0000
0010
0100
0000
0010
0100
0000
0001
0000
,
1000
0010
0001
0010
0100
0010
1000
0100
,
0010
0000
0100
0000
1000
0000
0000
0000
0100
0010
0000
0100
0000
0000
0000
0000
,
0001
0010
0000
0001
0000
0000
0000
0000
0001
0000
0010
0000
1000
0000
0010
0000
,
0011
0000
1100
0000
0000
0001
0100
0010
,
2000
0002
0000
3003
,
0000
0000
0000
0000
0010
0010
0100
0000
,
0001
2000
0000
0200
0000
0000
3300
0000
,
0000
0000
0000
0000
1000
0010
0100
0100
,
0000
0002
0000
0020
0000
0000
0033
0000
,
0000
0000
1000
0100
,
0001
0010
1000
0100
,
0001
0000
0010
0000
1000
0100
1000
0010
,
1000
0100
0020
0001
,
0100
0000
0031
0000
0100
0010
0001
0000
,
0010
0000
1000
0000
0000
0000
0100
0010
0200
0000
0000
0000
1000
0000
0000
0000
,
0010
0000
1300
0000
0001
0010
1000
0010
,
0000
0100
0000
1000
0020
0000
0100
0000
,
0001
0000
0130
0000
0010
0100
0010
0001
,
0000
0010
0000
1000
0000
0100
0001
0100
,
1000
0010
0001
0000
0020
0000
0000
0000
,
0000
0000
0030
0000
;

//---------------dance-single - J. DeGarmo----------------
#NOTES:
     dance-single:
     J. DeGarmo:
     Medium:
     6:
     0.366,0.488,0.082,0.091,0.018,262.000,9.000,10.000,0.000,0.000:



































0000
0000
0000
0000
,
0000
0000
0000
0000
,
0000
0000
0000
0000
,
0000
0000
0000
0000
,
0010
0000
0100
0000
0001
1000
0010
0000
,
0100
0000
0010
0000
1000
0100
0010
0000
,
0100
0000
0010
0000
0001
0100
0010
0000
,
1000
0010
0100
0001
,
1000
0000
0100
0000
0010
0002
0000
0103
,
0100
0000
0010
0000
1000
0200
0000
0310
,
0010
0001
0100
0010
,
1000
1000
0010
0000
0100
0001
0001
0000
,
1000
0000
0010
0100
0000
0100
0000
0100
,
0000
0000
0001
0010
0000
0010
0100
0010
,
0000
0000
0100
1000
0000
1000
0000
1000
,
0000
0000
1000
0001
0000
0001
0010
0100
,
1000
1010
0001
0101
,
0010
0110
1000
1001
,
0001
0100
0010
0000
1000
0001
0100
0000
,
0010
1000
0100
0000
0010
0001
1000
0001
,
2000
0001
0001
0001
,
3000
0002
1000
1000
,
1000
0003
0200
0010
,
0010
0000
0010
0000
0300
0000
0001
0010
,
0001
0010
0001
0010
0001
0010
0100
0010
,
0100
0000
0000
0010
0000
0000
0100
0000
0000
0010
0000
0000
0100
0000
0000
0010
0000
0000
0100
0000
1000
0000
0100
0000
,
1000
0000
0100
0000
1000
0000
0100
0000
0000
0000
0000
0000
0010
0000
0000
0000
0000
0000
0001
0000
0000
0100
0000
0000
,
0010
0000
1000
0000
0020
0000
0100
0130
,
0000
0100
0001
1000
0002
0000
0100
0000
,
0013
0010
0000
0100
0000
1000
0100
0000
,
1000
0100
0010
0001
0010
0000
0001
0100
,
0000
1000
0000
0100
0000
0010
0000
1000
,
1000
0000
0001
0010
1000
0000
0010
0100
,
0000
0010
0000
0001
0000
1000
0000
0010
,
0100
0000
0110
0000
0001
0100
0010
1000
,
0010
0100
0001
0101
,
0010
0000
1010
0000
0100
0010
0100
1000
,
0100
1000
0001
0100
,
0010
0000
1000
0000
0100
0010
0100
0000
,
0001
0100
0001
0000
0100
1000
0100
0000
,
1000
0001
1000
0001
1000
0000
0010
0000
,
0001
0000
0100
0000
1000
0100
0010
0001
,
0010
0100
1000
0000
0001
0100
0010
0000
,
1000
0100
0000
0000
,
0000
0000
0000
0000
0010
0001
0100
0000
,
0000
0010
0000
0010
0000
0000
0000
0000
,
0000
0000
0000
0000
0100
0000
0001
1000
,
0000
0010
0000
0100
0000
0000
0000
0000
,
0000
0000
0000
0000
0001
0000
0010
0001
,
0000
0100
0000
0010
0000
0000
0000
0000
,
2000
0000
3100
0010
,
0001
0000
0100
0000
0010
1000
0010
0000
,
0100
0001
0100
0000
0010
0000
1000
0000
,
0100
0000
0010
0000
0001
0010
0001
0000
,
0100
1000
0100
0000
0010
0000
1000
0000
,
0100
0000
1000
0000
0001
0100
0010
1000
,
0100
0000
0110
0000
0001
0001
0100
0000
,
0010
1000
1000
0000
0001
0100
0010
0000
,
1000
0010
0202
0000
,
0000
0000
0303
0000
;

//---------------dance-single - J. DeGarmo----------------
#NOTES:
     dance-single:
     J. DeGarmo:
     Easy:
     4:
     0.263,0.298,0.036,0.055,0.000,192.000,4.000,6.000,0.000,0.000:



































0000
0000
0000
0000
,
0000
0000
0000
0000
,
0000
0000
0000
0000
,
0000
0000
0000
0000
,
0001
0010
0001
0100
,
0010
1000
0100
1000
,
0010
0100
0001
0100
,
0010
1000
0010
0100
,
0001
1000
0001
0010
,
0001
0100
0010
1000
,
0100
1000
0001
1000
,
0010
0100
0010
1000
,
0001
0010
0001
0010
,
0100
1000
0100
1000
,
0001
0100
0001
0100
,
0010
1000
0010
1000
,
0001
0100
0010
1000
,
1000
0010
0100
0001
,
0001
0010
0100
1000
,
0010
0100
0001
1000
,
0001
0001
0001
0001
,
0000
1000
1000
1000
,
1000
0000
0100
0100
,
0100
0100
0000
0010
,
0001
0010
0100
0010
,
1000
0010
0100
1001
,
0110
1001
0000
0001
,
0100
0010
1000
1000
,
0000
0001
0100
0000
0010
0000
1000
0000
,
0100
1000
0010
0100
,
0000
0010
1000
0000
0001
0000
0010
0000
,
0001
1000
0010
0100
,
0001
0001
2000
3000
,
0020
0030
0100
0001
,
0010
0000
0001
0000
1000
0100
1000
0000
,
0010
0100
0001
0001
,
0001
0000
0000
0000
0100
0010
0100
0000
,
0010
1000
0100
0100
,
0100
0000
0000
0000
0010
0001
0010
0000
,
0001
0100
0010
1000
,
0100
0000
1000
0010
,
1000
0001
0100
0010
,
1000
0001
1000
0000
,
0010
0000
1000
0100
,
0010
0000
0001
0000
,
1000
0000
0010
0100
,
0001
0000
0100
0000
,
0010
0000
1000
0001
,
0100
0010
1000
0000
,
0001
0000
1000
0100
,
0010
0001
1000
0000
,
0010
0000
0200
0001
,
0310
0000
1000
0000
,
0001
0000
0020
0001
,
0130
0000
1000
0000
,
1000
0000
0001
0000
,
0001
0000
0100
0010
,
0100
0010
1000
0001
,
1000
0000
2002
0000
,
0000
0000
3003
0000
;

//---------------dance-single - J. DeGarmo----------------
#NOTES:
     dance-single:
     J. DeGarmo:
     Beginner:
     1:
     0.087,0.160,0.036,0.000,0.000,63.000,4.000,0.000,0.000,0.000:



































0000
0000
0000
0000
,
0000
0000
0000
0000
,
0000
0000
0000
0000
,
0000
0000
0000
0000
,
1000
0000
0000
0000
,
0100
0000
0000
0000
,
1000
0000
0000
0000
,
0001
0000
0000
0000
,
0010
0000
0000
0000
,
0001
0000
0000
0000
,
0100
0000
0000
0000
,
0010
0000
0000
0000
,
1000
0000
0000
0000
,
0010
0000
0010
0000
,
0010
0000
0000
0000
,
0100
0000
0000
0000
,
0001
0000
0000
0000
,
0010
0000
0010
0000
,
0010
0000
0000
0000
,
0100
0000
0100
0000
,
0100
0000
0000
0000
,
1001
0000
0000
0000
,
0000
0110
0000
0000
,
0000
0000
1001
0000
,
0000
0001
0000
0010
,
0010
0010
0010
0010
,
0000
0000
0000
0000
,
0001
0000
0100
0000
,
0000
0000
0010
0000
,
1000
0000
0001
0000
,
0000
0000
0100
0000
,
0000
0000
0010
0000
,
0000
0000
1000
0000
,
0100
0000
0010
0000
,
0001
0000
1000
0000
,
0000
0000
0010
0000
,
0000
0000
0100
0000
,
0000
0000
0010
0000
,
0000
0000
1000
0000
,
0000
0000
0001
0000
,
0000
0000
0010
0000
,
0001
0000
0100
0000
,
0010
0000
1000
0000
,
0000
0000
0000
0000
,
0000
0000
0010
0000
,
0000
0000
0000
0000
,
0000
0000
0100
0000
,
0000
0000
0000
0000
,
0000
0000
0001
0000
,
0000
0000
0000
0000
,
0000
0000
0010
0000
,
0000
0000
0001
0000
,
0000
0000
0100
0000
,
0000
0000
0010
0000
,
0000
0000
1000
0000
,
0000
0000
0001
0000
,
0000
0000
0100
0000
,
0000
0000
0010
0000
,
0000
0000
1001
0000
;

//---------------dance-double - J. DeGarmo----------------
#NOTES:
     dance-double:
     J. DeGarmo:
     Easy:
     3:
     0.203,0.244,0.036,0.082,0.000,143.000,4.000,9.000,0.000,0.000:



00000000
00000000
00000000
00000000
,
00000000
00000000
00000000
00000000
,
00000000
00000000
00000000
00000000
,
00000000
00000000
00000000
00000000
,
00000100
00000000
00001000
00000000
,
00000001
00000100
00001010
00000000
,
00010000
00000000
01000000
00000000
,
10000000
00100000
01010000
00000000
,
00100000
10000000
00100000
01000000
,
00001000
00010000
00000100
00000010
,
00000001
00000100
00000010
00001000
,
00000100
00010000
00001000
00000000
,
00000000
01000000
00000000
00100000
,
00000000
10000000
10000000
01000000
,
00000000
00100000
00000000
00001000
,
00000000
00010000
00010000
00000010
,
00000000
00000100
00000110
00000000
,
00000000
00000001
00000011
00000000
,
00000100
00000000
00010000
00000000
,
00001000
00100000
01000000
00000000
,
10000000
10000000
10000000
10000000
,
00000000
00000100
00000100
00000100
,
00000100
00000000
00100000
00100000
,
00100000
00100000
00000000
00000001
,
00000001
00000001
00000001
00001000
,
00000100
00001000
00000100
00020000
,
00000000
00000000
00031000
00000000
,
01000000
00000000
00100000
10000000
,
01000000
10000000
00100000
00000000
,
01000000
00000000
00001000
00010000
,
00000100
00000010
00000002
00000000
,
00000013
00000000
00002000
00000000
,
00003100
00000000
00020000
00000000
,
00031000
00000000
02000000
00100000
,
03100000
00001000
00010000
00000000
,
00000010
00000000
00000100
00000001
,
00000010
00000001
00000100
00000000
,
00000010
00000000
00010000
00001000
,
00100000
01000000
10000000
01000000
,
10000000
00010000
00100000
00001000
,
00010000
00000100
00001000
00000010
,
00000100
00000001
00000010
00000100
,
00001000
00001000
00001000
00000000
,
00000000
00000000
00000000
00000000
,
00000000
00000000
10000000
00000000
,
00000000
00000000
00000000
00000000
,
00000000
00000000
00000100
00000000
,
00000000
00000000
00000000
00000000
,
00000000
00000000
01000000
00000000
,
00000000
00000000
00000001
00000000
,
00001000
00000000
00000001
00000000
,
00000100
00000000
00000020
00000100
,
00000130
00000000
00000001
00000000
,
00001000
00000000
00000200
00010000
,
00010300
00000000
01000000
00000000
,
10000000
00000000
00200000
01000000
,
01300000
00000000
00010000
00000000
,
01000000
00000000
00100000
10000000
,
00010000
00100000
00002000
00000000
,
00000000
00000000
00003000
00000000
;

//---------------dance-double - J. DeGarmo----------------
#NOTES:
     dance-double:
     J. DeGarmo:
     Medium:
     5:
     0.316,0.488,0.182,0.055,0.000,217.000,20.000,6.000,0.000,0.000:



00000000
00000000
00000000
00000000
,
00000000
00000000
00000000
00000000
,
00000000
00000000
00000000
00000000
,
00000000
00000000
00000000
00000000
,
00000001
00001000
00000100
00000010
,
00000100
00000000
00010000
00000000
00001000
00010000
00001000
00000000
,
01000000
00100000
10000000
00010000
,
01000000
10000000
01000000
00000000
,
00001000
00010000
00000100
00000010
,
00000100
00000000
00000001
00000000
00000100
00000010
00000100
00000000
,
00010000
00001000
01000000
00100000
,
10000000
00010000
00100000
00000000
,
00001000
00000000
00100000
00000000
00000000
00001000
00000000
00010000
,
00000010
00000000
00001000
00000000
00000000
00000010
00000000
00000100
,
00000001
00000000
00001000
00000000
00000000
00000100
00000000
00010000
,
00001000
01000000
00100000
00000000
,
10000000
01000000
10000000
00000000
00100000
00000000
01000000
00000000
,
00001000
00100000
01000000
01000000
,
00100000
00010000
00100000
00000000
00001000
00000000
00010000
00000000
,
00000100
00000000
00000010
00000000
00000001
00000000
00001000
00000010
,
00001000
00000100
00001000
00000100
,
00000000
00100000
00010000
00100000
,
00010000
00000000
00001000
00010000
,
00001000
00010000
00000000
00001100
,
00000011
00001010
00011000
10010000
,
01100000
11000000
01010000
00110000
,
00001100
00000000
00110000
00000000
00100000
00010000
00100000
00000000
,
01000000
00000000
10000000
00000000
00100000
00000000
01000000
00010000
,
00000000
00100000
00000000
00001000
00010000
00001000
00010000
00000000
,
00000010
00000100
00000000
00000001
00000000
00001000
00000100
00000000
,
00010000
00000000
00000000
00000000
00000010
00000100
00000010
00000000
,
00001000
00000010
00010000
00001000
,
00100000
00010000
01000000
00000000
00100000
00000000
10000000
00000000
,
01000000
00010000
00100000
10000000
,
01000000
00000000
00000000
00000000
00000100
00001000
00000100
00000000
,
00000010
00000000
00000001
00000000
00000100
00000000
00000010
00001000
,
00000000
00000100
00000000
00010000
00001000
00010000
00001000
00000000
,
01000000
00100000
00000000
10000000
00000000
00010000
00100000
00000000
,
00001000
00000000
00000000
00000000
01000000
00100000
01000000
00000000
,
00010000
01000000
00001000
00010000
,
00000100
00001000
00000010
00000100
00000001
00000000
00000010
00000000
,
00000100
00001000
00000100
00000000
00000010
00000000
00000001
00000010
,
00000100
00010000
00000000
00001100
,
00000000
00101000
00000000
10010000
,
11000000
00000000
00000000
01010000
,
00000000
00011000
00000000
00001010
,
00000110
00000000
00000002
00000000
,
00000103
00000000
00000200
00000000
,
00000310
00000000
00000020
00000000
,
00010030
00000000
00020000
00001000
,
00001000
00001000
00031000
00000000
,
01000000
00000000
00100000
10000000
,
00010000
00100000
00001000
00000000
00010000
00000000
00000000
00000000
,
00000100
00000000
00000010
00000001
,
00000100
00001000
00000100
00000000
00000010
00000000
00010000
00000000
,
00001000
00000000
00100000
00000000
00010000
01000000
10000000
00000000
,
01000000
00100000
10000000
00000000
00010000
00000000
00100000
00000000
,
00001000
00010000
00000100
00001000
,
00000010
00000100
00000001
00000000
00002002
00000000
00000000
00000000
,
00000000
00000000
00003003
00000000
;

//---------------dance-double - J. DeGarmo----------------
#NOTES:
     dance-double:
     J. DeGarmo:
     Hard:
     9:
     0.440,0.515,0.228,0.046,0.082,308.000,25.000,5.000,0.000,0.000:



00000000
00000000
00000000
00000000
,
00000000
00000000
00000000
00000000
,
00000000
00000000
00000000
00000000
,
00000000
00000000
00000000
00000000
,
10000000
00000000
01000000
00000000
10000000
00000000
00100000
00000000
01000000
00000000
00010000
00000000
00100000
01000000
00100000
00000000
,
00001000
00000000
00010000
00000000
00001000
00000000
00100000
00000000
00001000
00000000
00010000
00000000
00001000
00100000
00001000
00000000
,
00010000
00000000
00000100
00000000
00001000
00000000
00000010
00000000
00000100
00000000
00000001
00000000
00000010
00000100
00001000
00000000
,
00000100
00000000
00001000
00000000
00000100
00000000
00000010
00000000
00000100
00000000
00010000
00000000
00001000
00100000
00010000
00000000
,
01000000
00000000
00100000
00000000
01000000
00000000
10000000
00000000
01000000
00000000
00010000
00000000
01000000
00100000
01000000
00000000
,
00001000
00000000
00100000
00000000
00001000
00000000
00010000
00000000
00001000
00000000
00000010
00000000
00001000
00000100
00001000
00000000
,
00000010
00000000
00000001
00000000
00000100
00000000
00000010
00000000
00000100
00000000
00010000
00000000
00000100
00001000
00000100
00000000
,
00000001
00001000
00000100
00000010
00000100
00000001
00000100
00000000
,
00010000
00001000
00000000
00000000
01000000
00000000
00000000
00000000
00100000
10000000
00000000
00000000
00010000
00000000
00000000
00000000
,
10000000
01000000
00000000
00000000
01000000
00100000
00000000
00000000
00100000
00010000
00000000
00000000
01000000
00000000
00000000
00000000
,
00001000
00010000
00000000
00000000
00000100
00000000
00000000
00000000
00000010
00000001
00000000
00000000
00001000
00000000
00000000
00000000
,
00000001
00000100
00000000
00000000
00000100
00000010
00000000
00000000
00000010
00001000
00000000
00000000
00000100
00000000
00000000
00000000
,
00010000
00001000
00010000
00010000
00000100
00000010
00000100
00000100
,
00001000
00000100
00001000
00001000
00000100
00010000
00000100
00000000
,
00010000
01000000
00010000
00000000
01000000
10000000
01000000
00000000
,
00110000
00010100
00001010
00001001
,
00000001
00001000
00000100
00010000
,
00002000
00003000
00000000
00000000
01000000
00000000
00000000
00000000
00100000
00000000
00000000
00000000
10000000
00000000
00000000
00000000
,
00010000
00000000
00000000
00000000
02000000
03000000
00000000
00000000
00001000
00000000
00000000
00000000
00100000
00000000
00000000
00000000
,
00000100
00000000
00000000
00000000
00010000
00000000
00000000
00000000
00000020
00000030
00000000
00000000
00000100
00000000
00000001
00000000
,
00000100
00000001
00000010
00001000
00000010
00001000
00010000
00001000
,
00100000
00001000
00010000
00001000
00100000
00000000
10010000
00000000
,
00011000
00000000
00001001
00000000
00000001
00000001
00001000
00000100
,
00010000
00000000
01000000
00000000
10000000
00000000
00100000
01000000
,
00000000
00010000
01000000
10000000
01000000
00000000
00001000
00000000
,
00010000
00000100
00000000
01000000
00000000
00000100
00000010
00000000
,
00000001
00001000
01000000
10000000
01000000
00000000
00100000
00100000
,
00000000
00000010
00000000
01000000
00000000
00000100
00000000
10000000
,
10010000
00000000
00001000
00001000
00001000
00000000
00010000
00000100
,
00000000
00100000
00000000
00000010
00000000
01000000
00000000
00100000
,
10100000
00000000
10010000
00000000
10000000
10000000
00010000
00100000
,
00001000
00000000
00000010
00000000
00000001
00000000
00000100
00000010
,
00000000
00001000
00000010
00000001
00000010
00000000
00010000
00000000
,
00001000
00100000
00000000
00000010
00000000
00100000
01000000
00000000
,
10000000
00010000
00000010
00000001
00000010
00000000
00000100
00000100
,
00000000
01000000
00000000
00000010
00000000
00100000
00000000
00000001
,
00001001
00000000
00010000
00010000
00010000
00000000
00001000
00100000
,
00000000
00000100
00000000
01000000
00000000
00000010
00000000
00000100
,
00000101
00000000
00001001
00000000
00001000
00000100
00001000
00000100
,
00010100
00100100
00000000
00000000
,
10000000
00000000
00000000
00000000
10000000
00100000
01000000
00010000
,
00000000
00101000
00000000
00100010
00000000
00000000
00000000
00000000
,
00000001
00000000
00000000
00000000
00001000
00000010
00000100
00000001
,
00000000
00001100
00000000
00101000
00000000
00000000
00000000
00000000
,
01000000
00000000
00000000
00000000
00100000
00000000
10000000
01000000
,
00000000
00010000
00000000
00000100
00000000
00000000
00000000
00000000
,
00000001
00000000
00000000
00000000
00010000
10000000
00010000
00100000
,
00011000
00001100
00020000
00000001
,
00000001
00000000
00030001
00000000
00000001
00001000
00000100
00010000
,
00000000
00000000
00001001
00000000
00000000
00000000
10010000
00000000
00000000
00000000
00000000
00000000
00000000
00000000
00100000
00010000
,
00100000
00000000
01000000
00000000
10000000
01000000
00100000
00010000
,
00000000
01100000
00000000
00000110
00000000
00000000
00000000
00000000
,
00000001
00000100
00001000
00000100
00000010
00000000
00001000
00000100
,
00000000
00100000
00000000
00000100
00000000
00010000
01000000
10000000
,
00010000
00100000
10000000
00010000
02000000
00000000
00000000
00000000
,
00000000
00000000
03000000
00000000
;

//---------------dance-double - J. DeGarmo----------------
#NOTES:
     dance-double:
     J. DeGarmo:
     Challenge:
     11:
     0.727,0.813,0.474,0.337,0.469,468.000,52.000,37.000,11.000,13.000:

00000000
00000000
00000000
00000000
,
00000000
00000000
00000000
00000000
,
00000001
00000010
00000001
00000010
00000001
00000000
00000000
00000000
00001000
00000100
00001000
00000100
00001000
00000000
00000000
00000000
,
00011000
01100000
10010000
00011000
,
00000001
00000010
00000100
00001000
00000100
00000000
00010000
00001000
00100000
00010000
00100000
00001000
00010000
01000000
10000000
00000000
,
00100000
01000000
00010000
01000000
10000000
00000000
01000000
00100000
01000000
00010000
00100000
00001000
00010000
00000100
00000001
00000000
,
00000100
00001000
00000010
00000100
00001000
00000000
00000100
00000010
00010000
00001000
00100000
00010000
01000000
10000000
01000000
00000000
,
00100000
10000000
01000000
00010000
01000000
00000000
00100000
00001000
00010000
00000010
00000001
00000010
00000100
00001000
00000100
00000000
,
00000001
00001000
00000001
00000010
00000001
00000000
00000100
00000010
00000100
00001000
00000100
00000010
00010000
00000100
00010000
00000000
,
00001000
00100000
01000000
00100000
01000000
00000000
10000000
00100000
10000000
00100000
00010000
00100000
01000000
00100000
01000000
00000000
,
00010000
00100000
00001000
00010000
00000100
00000000
00000010
00001000
00000010
00001000
00000010
00000100
00000001
00000100
00000010
00000000
,
00000001
00000010
00001000
00000010
00000100
00000000
00010000
00001000
01000000
10000000
01000000
00100000
10000000
01000000
10000000
00000000
,
10010000
00000000
00000000
00000000
01010000
00000000
00220000
00000000
00000000
00330000
00200020
00000000
00000000
00300030
00020002
00000000
,
00000000
00000000
00030003
00000000
00010100
00000000
00022000
00000000
00000000
00033000
10001000
00000000
01000100
00000000
00200020
00000000
,
00000000
00300030
00000000
00000000
00011000
00000000
00200200
00000000
00000000
00300300
20002000
00000000
00000000
30003000
22000000
00000000
,
00000000
00000000
33000000
00000000
10010000
00000000
02020000
00000000
00000000
03030000
01000100
00000000
00010001
00000000
00100010
00000000
,
00010000
00000100
00000000
00001000
00000000
00000000
00001010
00000000
00000100
00010000
00000000
01000000
00000000
00000000
10100000
00000000
,
00010000
00100000
00000000
10000000
00000000
00000000
00010000
00000000
01000000
00100000
00000000
00001000
00000000
00000000
00011000
00000000
,
00000100
00001000
00000100
00000010
00000100
00000000
00000000
00000000
00000010
00000001
00000010
00000100
00001000
00000000
00000000
00000000
,
00000100
00001000
00000100
00001000
00000100
00100000
00000100
00100000
00001000
00100000
00001000
00100000
00001000
10000000
00001000
00000000
,
10100000
01010000
00101000
00200020
,
00011000
00300030
00000000
00000000
00000000
00000000
00000000
00000000
00000000
00000000
00000000
00000000
00000000
00000000
00000000
00000000
00010010
00000000
00000000
00000000
00000000
00000000
00000000
00000000
00000000
00000000
00000000
00000000
00000000
00000000
00000000
00000000
00000011
00000000
00000000
00000000
00000000
00000000
00000000
00000000
00000000
00000000
00000000
00000000
00000000
00000000
00000000
00000000
00001100
00000000
00000000
00000000
00000000
00000000
00000000
00000000
00000000
00000000
00000000
00000000
00000000
00000000
00000000
00000000
,
02000200
00000000
00000000
00000000
00000000
00000000
00000000
00000000
00000000
00000000
00000000
00000000
00000000
00000000
00000000
00000000
00101000
03000300
00000000
00000000
00000000
00000000
00000000
00000000
00000000
00000000
00000000
00000000
00000000
00000000
00000000
00000000
01001000
00000000
00000000
00000000
00000000
00000000
00000000
00000000
00000000
00000000
00000000
00000000
00000000
00000000
00000000
00000000
10001000
00000000
00000000
00000000
00000000
00000000
00000000
00000000
00000000
00000000
00000000
00000000
00000000
00000000
00000000
00000000
,
01001000
00000000
00000000
00000000
00000000
00000000
00000000
00000000
00000000
00000000
00000000
00000000
00000000
00000000
00000000
00000000
00020002
00000000
00000000
00000000
00000000
00000000
00000000
00000000
00000000
00000000
00000000
00000000
00000000
00000000
00000000
00000000
00001110
00030003
00000000
00000000
00000000
00000000
00000000
00000000
00000000
00000000
00000000
00000000
00000000
00000000
00000000
00000000
00000001
00000000
00000000
00000000
00000000
00000000
00000000
00000000
00000100
00000000
00000000
00000000
00000000
00000000
00000000
00000000
,
00000010
00000000
00010000
00000000
00000001
00000000
00001000
00000000
00000100
00000000
00100000
00000000
00010000
01000000
00100000
10000000
,
00010000
00000000
00000000
00100000
00000000
00000000
00001000
00000000
00000000
00010000
00000000
00000000
00000100
00000000
00000000
00000010
00000000
00000000
00000001
00000000
00000000
00000100
00000000
00000000
00000010
00000000
00000000
00001000
00000000
00000000
00000100
00000000
00000000
00000000
00010000
00000000
00001000
00000000
00000000
00000000
00100000
00000000
00000000
00000000
00010000
00000000
00000000
00000000
,
01100000
00000000
00000000
00000000
00000000
00000000
00000000
00000000
00000000
00000000
00000000
00000000
00000000
00000000
00000000
00000000
00001000
00000000
00000000
00000000
00000000
00000000
00000000
00000000
00000000
00000000
00000000
00000000
00000000
00000000
00000000
00000000
00010000
00000000
00000000
00000000
00000000
00000000
00000000
00000000
00000000
00000000
00000000
00000000
00000000
00000000
00000000
00000000
00022000
00000000
00000000
00000000
00000000
00000000
00000000
00000000
00000000
00000000
00000000
00000000
00000000
00000000
00000000
00000000
00000000
00000000
00000000
00000000
00000000
00000000
00000000
00000000
00100100
00000000
00000000
00033000
00000000
00000000
00000000
00000000
00000000
00000000
00000000
00000000
00000000
00000000
00000000
00000000
00000000
00000000
00000000
00000000
00000000
00000000
00000000
00000000
00001000
00000000
00000000
00000000
00000000
00000000
00000000
00000000
00000000
00000000
00000000
00000000
00000000
00000000
00000000
00000000
00000000
00000000
00000000
00000000
00000000
00000000
00000000
00000000
01000000
00000000
00000000
00000000
00000000
00000000
00000000
00000000
00000000
00000000
00000000
00000000
00000000
00000000
00000000
00000000
00000000
00000000
00000000
00000000
00000000
00000000
00000000
00000000
00010000
00000000
00000000
00000000
00000000
00000000
00000000
00000000
00000000
00000000
00000000
00000000
00000000
00000000
00000000
00000000
00000000
00000000
00000000
00000000
00000000
00000000
00000000
00000000
01000000
00000000
00000000
00000000
00000000
00000000
00000000
00000000
00000000
00000000
00000000
00000000
00000000
00000000
00000000
00000000
00000000
00000000
00000000
00000000
00000000
00000000
00000000
00000000
,
10000000
00010000
00100000
01000000
00000100
00010000
00001000
00000010
,
00000100
00000001
00001000
00000010
00010000
00100000
01000000
10000000
,
00001000
00100000
10000000
00100000
00001000
00010000
00000010
00000001
,
00001000
00000100
00000010
00100000
00010000
01000000
00100000
10000000
,
01000000
00010000
00000010
00000100
00001000
00000100
00000001
00000010
,
00001000
01000000
00010000
00100000
00000010
00000100
00001000
01000000
,
10000000
00001000
00010000
01000000
00000100
00001000
00000010
00000100
,
00000001
00001000
00001100
00000000
00001000
01000000
00010000
01000000
,
10000000
00010000
00100000
01000000
00000100
00010000
00001000
00000010
,
00000100
00000001
00001000
00000010
00010000
00100000
01000000
10000000
,
00001000
00100000
10000000
00100000
00001000
00010000
00000010
00000001
,
00001000
00000100
00000010
00100000
00010000
01000000
00100000
10000000
,
01000000
00010000
00000010
00000100
00001000
00000100
00000001
00000010
,
00001000
01000000
00010000
00100000
00000010
00000100
00001000
01000000
,
10000000
00001000
00010000
01000000
00000100
00001000
00000010
00000100
,
00000001
00001000
00001100
00000000
00010000
00001000
01000000
00100000
,
10000000
20002000
00100000
00100000
,
30103000
00000000
00000000
00000000
01000000
00000100
00010000
00000000
,
00000002
00020000
00000000
00000020
00000000
00000000
00000000
00000000
,
00131033
00000000
00000000
00000000
00000010
00100000
00001000
20000000
,
00000000
00002000
00000000
00200000
00000000
00000000
00000000
00000000
,
30303110
00000000
00000000
00000000
10000000
00100000
00010000
00100000
,
00000000
02200000
00000000
00000110
00000000
00000000
00000000
00000000
,
03311000
00000000
00000000
00000000
00010000
00100000
00000100
00001000
,
00000010
00000000
00000100
00000000
00000001
00000000
00000100
00000000
00000010
00001000
00000010
00000100
00000010
00000000
00000000
00000000
,
00010000
00001000
00010000
01000000
00010000
00000000
00000000
00000000
01000000
00000000
10000000
00000000
00100000
00000000
00001000
00000000
,
00010000
00000000
01000000
00000000
00000100
00000000
00010000
00000000
00000100
00000010
00000100
00000001
00000100
00000000
00000000
00000000
,
00000010
00001000
00000010
00000100
00010000
00000000
00000000
00000000
00001000
00000000
00000100
00000000
00100000
00000000
00010000
00000000
,
01000000
00000000
10000000
00000000
01000000
00000000
00100000
00000000
10000000
00010000
00100000
01000000
10000000
00000000
00000000
00000000
,
00100000
01000000
00001000
00010000
00000100
00000000
00000000
00000000
00000010
00000000
00000001
00000000
00000100
00000000
00001000
00000000
,
00000100
00000000
00010000
00000000
01000000
00000000
00100000
00000000
10000000
00010000
0100000M
00001000
M0100000
00010M00
00000010
00000001
,
0M000100
000M1000
00M00100
00000010
0001M000
0100000M
100000M0
00100M00
2M000000
00000000
00000000
00000000
00000000
00000000
00000000
00000000
,
00000000
00000000
30000000
00000000
;
