#TITLE:Hero Nation;
#SUBTITLE:The Circle of Life (2005);
#ARTIST:Freedom Call;
#TITLETRANSLIT:;
#SUBTITLETRANSLIT:;
#ARTISTTRANSLIT:;
#CREDIT:SulferDragon;
#BANNER:Hero Nation-banner.png;
#BACKGROUND:Hero Nation-bg.png;
#LYRICSPATH:;
#CDTITLE:!SulferDragon.png;
#MUSIC:Hero Nation.mp3;
#OFFSET:-0.093;
#SAMPLESTART:8.820;
#SAMPLELENGTH:11.800;
#SELECTABLE:YES;
#BPMS:0.000=117.020;
#STOPS:;
#BGCHANGES:;
// cache tags:
#FIRSTBEAT:0.500;
#LASTBEAT:568.500;
#SONGFILENAME:Songs/Astronomic Metal Collection/Hero Nation (SulferDragon)/Hero Nation.sm;
#HASMUSIC:1;
#HASBANNER:1;
#MUSICLENGTH:296.341;
// end cache tags

//---------------dance-single - ----------------
#NOTES:
     dance-single:
     :
     Hard:
     11:
     0.891,1.000,1.000,0.169,1.000,1236.000,562.000,50.000,0.000,1.000:
0000
0000
0000
1000
1000
0010
0000
0100
0001
0010
0100
0010
,
0001
0010
0100
1000
1000
0010
0000
0100
0001
0010
0100
1000
,
0020
0000
0030
1000
1000
0010
0000
0100
0001
0010
0100
0010
,
0001
0010
0100
1000
0001
0010
0100
1000
0001
0100
0010
0001
,
1000
0010
0001
1100
1000
0010
1001
0100
0010
1000
0100
0010
,
0101
0010
0001
1000
1000
0010
1001
0100
0010
1000
0100
0010
,
0102
0103
0100
1010
1000
0010
1001
0100
0010
1000
0100
0010
,
0101
0010
0001
1000
1000
0010
1100
0010
0001
1100
1010
0101
,
1100
1010
0101
1001
1000
0010
1001
0100
0010
1000
0100
0010
,
0101
0010
0001
1000
1000
0010
1001
0100
0010
1000
0100
0010
,
0102
0103
0100
1010
1000
0010
1001
0100
0010
1000
0100
0010
,
0101
0010
0001
0110
0110
0110
0101
0110
1100
1001
1001
1001
,
0101
0000
0110
0000
1100
0000
0011
0000
0010
0000
0010
0000
1100
0000
0010
0000
0010
0000
0100
0000
0000
0001
1000
0000
,
0101
0000
0000
1000
1000
1000
0011
1000
1000
0100
0100
0010
,
0022
0000
0000
0000
0033
0000
1100
0000
0100
0000
0100
0000
1001
0000
0100
0000
0100
0000
0010
0000
0000
1000
0001
0000
,
1100
0000
0000
1000
1000
0001
0110
1000
0101
0010
1100
0010
,
0100
0000
0010
0000
0001
0000
1010
0000
0010
0000
0010
0000
0101
0000
0010
0000
0010
0000
0100
0000
0000
0001
1000
0000
,
0011
0000
0000
0001
0001
0001
1100
0010
0010
0100
0100
1000
,
2200
0000
0000
0000
3300
0000
0011
0000
0011
0000
0022
0000
0000
0033
1001
0000
1001
0000
2002
0000
0000
3003
1010
0000
,
1010
0000
2020
0000
0000
3030
1100
0000
1100
0000
2200
0000
0000
3300
0110
0000
0110
0000
0110
0000
0110
0000
0110
0000
,
0220
0000
0330
1010
0000
0000
0011
0000
0000
0100
0000
0001
,
1100
0000
0000
0010
0000
0000
0101
0000
0000
1000
0000
0010
,
1001
0000
0000
0100
0000
0000
0011
0000
0000
1000
0000
0001
,
0110
0000
0000
1000
0000
0000
0101
0000
0000
0010
0000
0001
,
1100
0000
0000
0110
0000
0000
0011
0000
0000
0100
0000
0010
,
1001
0000
0000
0100
0000
0000
1010
0000
0000
0001
0000
1000
,
0011
0000
0000
1000
0000
0000
0101
0000
0000
0010
0000
0100
,
1001
0000
0000
0010
0000
0000
0101
0000
0000
1010
1001
0101
,
1010
1001
0101
1010
1000
0010
1001
0100
0010
1000
0100
0010
,
0101
0010
0001
1000
1000
0010
1001
0100
0010
1000
0100
0010
,
0102
0103
0100
1010
1000
0010
1001
0100
0010
1000
0100
0010
,
0101
0010
0001
1000
1000
0010
1100
0010
0001
1100
1010
0101
,
1100
1010
0101
1001
1000
0010
1001
0100
0010
1000
0100
0010
,
0101
0010
0001
1000
1000
0010
1001
0100
0010
1000
0100
0010
,
0102
0103
0100
1010
1000
0010
1001
0100
0010
1000
0100
0010
,
0101
0010
0001
0110
0110
0110
0101
0110
1100
1001
1001
1001
,
0101
0000
0110
0000
1100
0000
0011
0000
0001
0000
0001
0000
1010
0000
0001
0000
0001
0000
0100
0000
0000
0010
1000
0000
,
0110
0000
0000
0000
0000
0000
0100
0000
0100
0000
0100
0000
1001
0000
0100
0000
0100
0000
0010
0000
0000
1000
0001
0000
,
1010
0000
0000
0000
0000
0000
1000
0000
1000
0000
1000
0000
0101
0000
1000
0000
1000
0000
0010
0000
0000
0100
0001
0000
,
0110
0000
0000
0010
0010
0010
0101
0010
0010
1000
1000
0001
,
1010
0000
0001
0000
0100
0000
0011
0000
0001
0000
0001
0000
1010
0000
0001
0000
0001
0000
0100
0000
0000
0010
0100
0000
,
1010
0000
0000
0000
0000
0000
0010
0000
0010
0000
0010
0000
1001
0000
0010
0000
0010
0000
0100
0000
0000
1000
0001
0000
,
1100
0000
0000
0000
0000
0000
1000
0000
1000
0000
1000
0000
0110
0000
1000
0000
1000
0000
0001
0000
0000
0100
0001
0000
,
0110
0000
0000
0000
0000
0000
0000
0000
0000
0000
0000
0000
0000
0000
0000
0000
0000
0000
0000
0000
0000
0000
0000
0000
0000
0000
0000
0000
0000
0000
0000
0000
0000
0000
0000
0000
0000
0000
0000
0000
0000
0000
0000
0000
0000
0000
0000
0000
0120
0000
0000
0000
0000
0000
0000
0000
0000
0000
0000
0000
0000
0000
0000
0000
0000
0000
0000
0000
0000
0000
0000
0000
0000
0000
0000
0000
0000
0000
0000
0000
1000
0000
0000
0000
0000
0000
0000
0000
0000
0000
0030
0000
0000
0000
0000
0000
0101
0000
0000
0000
0000
0000
0000
0000
0000
0000
0000
0000
0000
0000
0000
0000
0101
0000
0000
0000
0000
0000
0000
0000
0000
0000
0000
0000
0000
0000
0000
0000
0101
0000
0000
0000
0000
0000
0000
0000
0000
0000
0000
0000
0000
0000
0000
0000
2020
0000
0000
0000
0000
0000
0000
0000
0000
0000
0000
0000
0000
0000
0000
0000
0000
0000
0000
0000
0000
0000
0000
0000
0000
0000
0000
0000
0000
0000
0000
0000
0000
0000
0000
0000
0000
0000
0000
0000
3030
0000
0000
0000
0000
0000
0000
0000
,
2002
0000
0000
0000
0000
3003
0010
0000
0010
0000
0010
0000
0110
0000
0000
0000
1010
0000
1001
0000
0000
0000
0000
0000
,
0011
0100
0010
1000
1000
1000
1001
0000
0101
0110
0001
0100
,
1010
0001
1000
0010
0010
0010
1010
1100
0110
0011
0000
0000
,
1001
0100
0001
1100
0000
0000
1010
0000
0000
0101
1000
0100
,
0011
0100
0001
1010
0010
0010
0110
0000
1100
1010
0000
0000
,
0101
0010
0001
0100
0100
0100
0110
0000
0101
1010
0100
0010
,
1100
0001
0100
0011
0001
0001
1001
0000
1010
0110
0000
0000
,
0101
0000
0000
0011
1000
0010
0101
1000
0001
1100
0010
0100
,
1010
0001
0100
0011
0001
0001
1001
0001
0011
0101
0100
0100
,
0110
0100
0101
1001
1000
1000
1010
1000
1100
0110
0010
0010
,
1010
0010
0010
0100
0100
0100
0101
0100
0110
1010
1000
1001
,
1100
1000
1010
1001
0001
0001
0011
0001
0001
0101
0110
1100
,
0101
0110
1100
1001
0000
0000
1100
0000
0000
0011
0000
0100
,
1001
0000
1010
0110
0000
0000
0011
0000
0000
1100
0000
0010
,
1001
0000
0000
0100
0000
0000
1010
0000
0000
0101
0000
0010
,
1001
0000
0101
1100
0000
0000
0110
0000
0000
0011
0000
1000
,
0101
0101
0101
1001
0000
0000
0101
0000
0000
1010
0000
0001
,
0110
0000
1100
1001
0000
0000
0011
0000
0000
1100
0000
0010
,
0101
0000
0000
0100
0000
0000
1001
0000
0000
0110
0000
0001
,
1010
0000
1100
0101
0000
0000
1001
0000
0000
0110
0000
0001
,
1100
0000
1100
0000
1100
0000
0011
0000
0001
0000
0001
0000
1010
0000
0001
0000
0001
0000
1000
0000
0000
0010
1000
0000
,
0110
0000
0000
0100
0100
0100
1001
0100
0100
0010
0010
0001
,
0022
0000
0000
0000
0033
0000
1000
0000
1000
0000
1000
0000
0101
0000
1000
0000
1000
0000
0010
0000
0000
0100
0001
0000
,
1100
0000
0000
0010
0010
0010
1100
0001
0110
1000
0101
0010
,
1000
0100
0010
1001
0000
0000
1100
0000
0000
0010
0000
0100
,
0011
0000
0000
1000
0000
0000
0101
0000
0000
0010
0000
1000
,
0110
0000
0000
0001
0000
0000
1010
0000
0000
0100
0000
0010
,
1100
0000
0000
0001
0000
0000
0110
0000
0000
1000
0000
0100
,
0011
0000
0000
1001
0000
0000
1010
0000
0000
0100
0000
0010
,
0101
0000
0000
1000
0000
0000
0110
0000
0000
0001
0000
0010
,
1100
0000
0000
0001
0000
0000
0110
0000
0000
1000
0000
0100
,
0011
0000
0000
0000
0000
0000
1000
0000
0000
0000
0001
0000
0110
0000
0110
0000
0110
0000
2020
0000
0000
0000
0000
3030
,
2002
0000
0000
0000
0000
3003
0100
0000
0100
0000
0100
0000
0101
0000
0000
0000
0110
0000
1010
0000
0000
0000
0000
0000
,
1100
0010
0100
0001
0001
0001
1001
0000
0101
1100
0010
1000
,
0011
0100
0010
1000
1000
1000
1001
0011
0110
1100
0000
0000
,
0101
0010
0100
0011
0000
0000
1010
0000
0000
1100
0010
1000
,
0110
0001
0100
1001
1000
1000
1010
0000
0110
0101
0000
0000
,
1001
0010
1000
0001
0001
0001
0101
0000
0011
1100
0010
0100
,
0011
1000
0001
1010
0010
0010
0110
0000
0101
0011
0000
0000
,
1010
0100
0010
1100
0000
0000
1010
0001
1000
0011
0100
0010
,
0101
1000
0010
1001
1000
1000
1010
1000
1100
1001
0001
0001
,
0011
0001
1001
0101
0100
0100
0110
0100
0101
0011
0010
0010
,
0110
0010
0010
1000
1000
1000
1001
1000
1100
1010
0010
0110
,
1010
0010
0110
0011
0001
0001
1001
0001
0001
0101
0110
1100
,
0101
0110
1100
1001
0000
0000
0101
0000
0000
1010
0000
0100
,
0011
0000
1100
0110
0000
0000
1010
0000
0000
0101
0000
0010
,
1100
0000
0000
1000
0000
0000
0011
0000
0000
1001
0000
0010
,
0101
0000
1010
0110
0000
0000
1100
0000
0000
0011
0000
1000
,
0110
0110
0110
0101
0000
0000
0110
0000
0000
1001
0000
0010
,
1100
0000
1010
0110
0000
0000
0011
0000
0000
1100
0000
0010
,
0101
0000
0000
0100
0000
0000
1001
0000
0000
0110
0000
0001
,
1010
0000
0101
1100
0000
0000
0110
0000
0000
0101
0000
0010
,
1001
1001
1001
0011
0000
0000
1010
0000
0000
0110
0000
0001
,
1100
0000
0110
0011
0000
0000
0101
0000
0000
0011
0000
0100
,
1001
0000
0000
0010
0000
0000
1100
0000
0000
0101
0000
0010
,
1001
0000
0011
1010
0000
0000
0110
0000
0000
1100
0000
0001
,
0110
0110
0110
1010
0000
0000
0011
0000
0000
1001
0000
0100
,
1010
0000
1100
0101
0000
0000
0110
0000
0000
1001
0000
0010
,
1100
0000
0000
0001
0000
0000
1010
0000
0000
0011
0000
0100
,
1001
0000
0110
1010
0000
0100
0011
0100
0000
0101
0000
0001
,
1100
0001
0000
1100
1100
1100
0000
0011
0011
0011
0000
0011
,
0000
0000
0000
0000
,
0000
0000
0000
0101
0101
0101
0000
1010
1010
1010
0000
1010
,
0000
0000
0000
0000
,
0100
1000
0100
1001
1001
1001
0010
1100
1100
1100
0000
1100
,
0010
0010
0010
0010
,
0010
0100
0010
0101
0101
0101
0010
1100
1100
1100
0000
1100
,
0010
0001
0010
1001
1001
1001
0010
0101
0101
0101
0000
0101
,
0010
0000
0000
0000
0000
0000
0000
0000
0010
0000
0000
0000
0000
0000
0000
0000
0010
0000
0000
0000
0000
0000
0000
0000
0010
0000
0000
0000
0000
1000
0100
0010
,
0001
0000
0000
1010
0100
0010
1001
0010
0001
1000
0100
0010
,
1001
0010
0001
1000
0100
0010
1001
0010
0001
1000
0100
0010
,
2002
0000
3003
1200
0300
0200
0300
0200
0300
0200
0300
0200
,
0300
0000
0000
0000
0200
0000
0000
0000
0300
0000
0000
0000
0020
0000
0000
0000
0000
0000
0000
0000
0000
0000
0000
0000
0000
0000
0000
0030
0001
0000
0010
0000
0100
0000
0000
0000
0000
0000
0000
0000
2000
0000
0000
0000
0000
0000
0000
0000
,
3022
0000
0033
0110
0100
0100
1001
0100
0100
0010
0100
0001
,
0110
1000
0100
0010
0010
0010
1001
0010
0010
1000
0100
0010
,
0202
0000
0000
0000
0000
0000
0000
0000
0000
0000
0000
0000
0000
0000
0000
0000
0000
0000
0000
0000
0000
0000
0000
0000
0000
0000
0000
0000
0000
0000
0000
0000
0303
0000
0000
0000
0000
0000
0000
0000
0000
0000
1000
0000
0000
0000
0000
0000
0100
0000
0000
0000
0000
0000
0010
0000
0000
0000
0000
0000
0001
0000
0000
0000
0000
0000
0010
0000
0000
0000
0000
0000
0100
0000
0000
0000
0000
0000
1000
0000
0000
0000
0000
0000
0001
0000
0000
0000
0000
0000
0010
0000
0000
0000
0000
0000
0100
0000
0000
0000
0000
0000
1000
0000
0000
0000
0000
0000
0010
0000
0000
0000
0000
0000
0100
0000
0000
0000
0000
0000
0001
0000
0000
0000
0000
0000
1000
0000
0000
0000
0000
0000
0100
0000
0000
0000
0000
0000
0010
0000
0000
0000
0000
0000
0001
0000
0000
0000
0000
0000
0010
0000
0000
0000
0000
0000
0100
0000
0000
0000
0000
0000
1000
0000
0000
0000
0000
0000
0010
0000
0000
0000
0000
0000
0100
0000
0000
0000
0000
0000
0001
0000
0000
0000
0000
0000
0010
0000
0000
0000
0000
0000
,
0100
0000
0000
0000
0000
0000
0010
0000
0000
0000
0000
0000
0100
0000
0000
0000
0000
0000
1000
0000
0000
0000
0000
0000
0010
0000
0000
0000
0000
0000
0100
0000
0000
0000
0000
0000
0001
0000
0000
0000
0000
0000
1000
0000
0000
0000
0000
0000
0100
0000
0000
0000
0000
0000
0010
0000
0000
0000
0000
0000
0100
0000
0000
0000
0000
0000
0010
0000
0000
0000
0000
0000
0001
0000
0000
0000
0000
0000
0100
0000
0000
0000
0000
0000
0010
0000
0000
0000
0000
0000
1000
0000
0000
0000
0000
0000
0100
0000
0000
0000
0000
0000
0010
0000
0000
0000
0000
0000
0001
0000
0000
0000
0000
0000
0010
0000
0000
0000
0000
0000
0100
0000
0000
0000
0000
0000
1000
0000
0000
0000
0000
0000
0010
0000
0000
0000
0000
0000
0000
0000
0000
0000
0000
0000
0101
0000
0000
0000
0000
0000
0000
0000
0000
0000
0000
0000
0000
0000
0000
0000
0101
0000
0000
0000
0000
0000
0000
0000
0000
0000
0000
0000
0000
0000
0000
0000
0101
0000
0000
0000
0000
0000
0000
0000
0000
0000
0000
0000
0000
0000
0000
0000
,
0101
0101
0101
1001
1000
1000
0101
0010
0001
0010
0010
0010
,
1100
0001
0010
0100
0100
0100
1001
0010
0100
1000
1000
1000
,
1010
1000
1000
0001
0010
0001
1010
0100
0010
0001
0010
0001
,
1010
0000
0100
0000
0010
0000
1000
0000
0010
0000
1000
0000
0011
0100
0001
0000
0100
0000
1010
0000
0101
0000
0011
0000
,
1001
1010
1100
0011
0000
0000
1010
0000
0000
0101
0000
0010
,
1001
0000
1100
1010
0000
0000
0011
0000
0000
1100
0000
0010
,
0101
0000
0000
0001
0000
0000
1010
0000
0000
0110
0000
0001
,
1100
0000
0011
1001
0000
0000
0011
0000
0000
1100
0000
0001
,
0110
0110
0110
1010
0000
0000
0110
0000
0000
1001
0000
0010
,
1100
0000
0101
0110
0000
0000
1010
0000
0000
0011
0000
1000
,
0101
0000
0000
0010
0000
0000
1100
0000
0000
0101
0000
0010
,
1001
0000
0011
1001
0000
0000
0101
0000
0000
1010
0000
0100
,
1001
1001
1001
1100
0000
0000
0101
0000
0000
0110
0000
0001
,
1010
0000
1001
0011
0000
0000
1010
0000
0000
0101
0000
0010
,
1001
0000
0000
0100
0000
0000
0011
0000
0000
1010
0000
0100
,
1001
0000
1100
0101
0000
0000
0110
0000
0000
1010
0000
0100
,
0011
0011
0011
1001
0000
0000
1100
0000
0000
1001
0000
0010
,
0101
0000
1010
0110
0000
0000
0011
0000
0000
1100
0000
0001
,
1010
0000
0000
0110
0110
0110
0110
0000
0000
0100
0000
0000
,
0000
0000
0000
0000
0000
0000
0000
0000
0010
0000
0000
0000
1001
0000
0000
0000
1001
0000
0000
0000
1001
0000
0000
0000
1001
0000
0000
0000
0000
0000
0000
0000
0000
0000
0000
0000
2200
0000
0000
0000
0000
0000
0000
0000
0000
3300
0000
0000
,
0022
0000
0000
0000
0000
0000
0000
0000
0000
0033
0000
0000
1001
0000
0000
0000
1001
0000
0000
0000
1001
0000
0000
0000
0000
0000
0000
0000
1001
0000
0000
0000
1001
0000
0000
0000
1001
0000
0000
0000
0000
0000
0000
0000
0220
0000
0000
0000
,
0000
0330
0000
0000
0000
0000
0000
0000
;

//---------------dance-single - ----------------
#NOTES:
     dance-single:
     :
     Challenge:
     12:
     0.948,1.000,1.000,0.206,1.000,1295.000,611.000,61.000,0.000,2.000:
0000
0000
0000
0000
0000
0000
1000
0010
0100
0001
0010
0100
1000
0000
0000
0000
0000
0000
0000
0000
0010
0000
0000
0000
0100
0000
0000
0000
0000
0000
0000
0000
0001
0000
0000
0000
0010
0000
0000
0000
0100
0000
0000
0000
0010
0000
0000
0000
,
0001
0000
0000
0000
0000
0000
1000
0100
0010
0001
0100
0010
1000
0000
0000
0000
0000
0000
0000
0000
0010
0000
0000
0000
0100
0000
0000
0000
0000
0000
0000
0000
0010
0000
0000
0000
1000
0000
0000
0000
0001
0000
0000
0000
1000
0000
0000
0000
,
0010
0000
0000
0000
0000
0000
0100
0010
1000
0001
0010
0100
1000
0000
0000
0000
0000
0000
0000
0000
0001
0000
0000
0000
1000
0000
0000
0000
0000
0000
0000
0000
0100
0000
0000
0000
0010
0000
0000
0000
0001
0000
0000
0000
0010
0000
0000
0000
,
0100
0000
0000
0000
0000
0000
1000
0100
0010
0001
0100
0010
1000
0000
0000
0000
0001
0000
0000
0000
0010
0000
0000
0000
0100
0000
0000
0000
1000
0000
0000
0000
0001
0000
0000
0000
0100
0000
0000
0000
0010
0000
0000
0000
0001
0000
0000
0000
,
1000
0010
0001
1100
1000
0010
1001
0100
0010
1000
0100
0010
,
0101
0010
0001
1000
1000
0010
1001
0100
0010
1000
0100
0010
,
0102
0103
0100
1010
1000
0010
1001
0100
0010
1000
0100
0010
,
0101
0010
0001
1000
1000
0010
1100
0010
0001
1100
1010
0101
,
1100
1010
0101
1001
1000
0010
1001
0100
0010
1000
0100
0010
,
0101
0010
0001
1000
1000
0010
1001
0100
0010
1000
0100
0010
,
0102
0103
0100
1010
1000
0010
1001
0100
0010
1000
0100
0010
,
0101
0010
0001
0110
0110
0110
0101
0110
1100
1001
1001
1001
,
0101
0000
0110
0000
1100
0000
0011
0000
0010
0000
0010
0000
1100
0000
0010
0000
0010
0000
0100
0000
0000
0001
1000
0000
,
0101
0000
0000
1000
1000
1000
0011
1000
1000
0100
0100
0010
,
0022
0000
0000
0000
0033
0000
1100
0000
0100
0000
0100
0000
1001
0000
0100
0000
0100
0000
0010
0000
0000
1000
0001
0000
,
1100
0000
0000
1000
1000
0001
0110
1000
0101
0010
1100
0010
,
0100
0000
0010
0000
0001
0000
1010
0000
0010
0000
0010
0000
0101
0000
0010
0000
0010
0000
0100
0000
0000
0001
1000
0000
,
0011
0000
0000
0001
0001
0001
1100
0010
0010
0100
0100
1000
,
2200
0000
0000
0000
3300
0000
0011
0000
0011
0000
0022
0000
0000
0033
1001
0000
1001
0000
2002
0000
0000
3003
1010
0000
,
1010
0000
2020
0000
0000
3030
1100
0000
1100
0000
2200
0000
0000
3300
0110
0000
0110
0000
0110
0000
0110
0000
0110
0000
,
0220
0000
1330
0110
0000
1000
0011
0000
0001
1100
0000
1010
,
0101
0000
0000
0010
0000
0000
1100
0000
0000
0001
0000
0100
,
1001
0000
0010
1100
0000
0001
1010
0000
0000
0011
0000
0110
,
1001
0000
0000
0010
0000
0000
0101
0000
0000
1000
0000
0010
,
1100
0000
0001
0110
0000
1000
0011
0000
0010
1001
0000
0101
,
1010
0000
0000
0100
0000
0000
1001
0000
0000
0010
0000
0100
,
0011
0000
1000
0110
0000
0001
1010
0000
0000
1100
0000
1001
,
0110
0000
0000
1000
0000
0000
0101
0000
0000
1010
1001
0101
,
1010
1001
0101
1010
1000
0010
1001
0100
0010
1000
0100
0010
,
0101
0010
0001
1000
1000
0010
1001
0100
0010
1000
0100
0010
,
0102
0103
0100
1010
1000
0010
1001
0100
0010
1000
0100
0010
,
0101
0010
0001
1000
1000
0010
1100
0010
0001
1100
1010
0101
,
1100
1010
0101
1001
1000
0010
1001
0100
0010
1000
0100
0010
,
0101
0010
0001
1000
1000
0010
1001
0100
0010
1000
0100
0010
,
0102
0103
0100
1010
1000
0010
1001
0100
0010
1000
0100
0010
,
0101
0010
0001
0110
0110
0110
0101
0110
1100
1001
1001
1001
,
0101
0000
0110
0000
1100
0000
0011
0000
0001
0000
0001
0000
1010
0000
0001
0000
0001
0000
1100
0000
0000
0010
1001
0000
,
0110
0000
0000
0000
0000
0000
1100
0000
0100
0000
0100
0000
1001
0000
0100
0000
0100
0000
0011
0000
0000
1000
0101
0000
,
1010
0000
0000
0000
0000
0000
1100
0000
1000
0000
1000
0000
0101
0000
1000
0000
1000
0000
0011
0000
0000
0100
1001
0000
,
0110
0000
0000
1010
0010
0010
0101
0010
0010
1001
1000
0101
,
1010
0000
0001
0000
0100
0000
0011
0000
0001
0000
0001
0000
1010
0000
0001
0000
0001
0000
1100
0000
0000
0010
0101
0000
,
1010
0000
0000
0000
0000
0000
0110
0000
0010
0000
0010
0000
1001
0000
0010
0000
0010
0000
0101
0000
0000
1000
0011
0000
,
1100
0000
0000
0000
0000
0000
1001
0000
1000
0000
1000
0000
0110
0000
1000
0000
1000
0000
0011
0000
0000
0100
1001
0000
,
0110
0000
0000
0000
0000
0000
0000
0000
0000
0000
0000
0000
0000
0000
0000
0000
0000
0000
0000
0000
0000
0000
0000
0000
0000
0000
0000
0000
0000
0000
0000
0000
0000
0000
0000
0000
0000
0000
0000
0000
0000
0000
0000
0000
0000
0000
0000
0000
0120
0000
0000
0000
0000
0000
0000
0000
0000
0000
0000
0000
0000
0000
0000
0000
0000
0000
0000
0000
0000
0000
0000
0000
0000
0000
0000
0000
0000
0000
0000
0000
1000
0000
0000
0000
0000
0000
0000
0000
0000
0000
0030
0000
0000
0000
0000
0000
0101
0000
0000
0000
0000
0000
0000
0000
0000
0000
0000
0000
0000
0000
0000
0000
0101
0000
0000
0000
0000
0000
0000
0000
0000
0000
0000
0000
0000
0000
0000
0000
0101
0000
0000
0000
0000
0000
0000
0000
0000
0000
0000
0000
0000
0000
0000
0000
2020
0000
0000
0000
0000
0000
0000
0000
0000
0000
0000
0000
0000
0000
0000
0000
0000
0000
0000
0000
0000
0000
0000
0000
0000
0000
0000
0000
0000
0000
0000
0000
0000
0000
0000
0000
0000
0000
0000
0000
3030
0000
0000
0000
0000
0000
0000
0000
,
2002
0000
0000
0000
0000
3003
0010
0000
0010
0000
0010
0000
0110
0000
0000
0000
1010
0000
1001
0000
0000
0000
0000
0000
,
0011
0100
0010
1000
1000
1000
1001
0000
0101
0110
0001
0100
,
1010
0001
1000
0010
0010
0010
1010
1100
0110
0011
0000
0000
,
1001
0100
0001
1100
0000
0000
1010
0000
0000
0101
1000
0100
,
0011
0100
0001
1010
0010
0010
0110
0000
1100
1010
0000
0000
,
0101
0010
0001
0100
0100
0100
0110
0000
0101
1010
0100
0010
,
1100
0001
0100
0011
0001
0001
1001
0000
1010
0110
0000
0000
,
0101
0000
0000
0011
1000
0010
0101
1000
0001
1100
0010
0100
,
1010
0001
0100
0011
0001
0001
1001
0001
0011
0101
0100
0100
,
0110
0100
0101
1001
1000
1000
1010
1000
1100
0110
0010
0010
,
1010
0010
0010
0100
0100
0100
0101
0100
0110
1010
1000
1001
,
1100
1000
1010
1001
0001
0001
0011
0001
0001
0101
0110
1100
,
0101
0110
1100
1001
0000
0000
1100
0000
0000
0011
0000
0100
,
1001
0000
1010
0110
0000
0000
0011
0000
0000
1100
0000
0010
,
1001
0000
0000
0100
0000
0000
1010
0000
0000
0101
0000
0010
,
1001
0000
0101
1100
0000
0000
0110
0000
0000
0011
0000
1000
,
0101
0101
0101
1001
0000
0000
0101
0000
0000
1010
0000
0001
,
0110
0000
1100
1001
0000
0000
0011
0000
0000
1100
0000
0010
,
0101
0000
0000
0100
0000
0000
1001
0000
0000
0110
0000
0001
,
1010
0000
1100
0101
0000
0000
1001
0000
0000
0110
0000
0001
,
1100
0000
1100
0000
1100
0000
0011
0000
0001
0000
0001
0000
1010
0000
0001
0000
0001
0000
1000
0000
0000
0010
1000
0000
,
0110
0000
0000
0100
0100
0100
1001
0100
0100
0010
0010
0001
,
0022
0000
0000
0000
0033
0000
1000
0000
1000
0000
1000
0000
0101
0000
1000
0000
1000
0000
0010
0000
0000
0100
0001
0000
,
1100
0000
0000
0010
0010
0010
1100
0001
0110
1000
0101
0010
,
1000
0100
0010
1001
0000
0100
1010
0000
0001
1100
0000
0110
,
1001
0000
0000
0010
0000
0000
0101
0000
0000
1000
0000
0001
,
1100
0000
0010
0101
0000
1000
0011
0000
0000
1001
0010
1010
,
0101
0000
0000
0010
0000
0000
1100
0000
0000
0001
0000
0100
,
1010
0000
0100
1001
0000
1000
0011
0000
0001
0110
0000
1100
,
0011
0100
0000
0010
0000
0000
1001
0000
0000
0100
0000
0001
,
1010
0000
0100
0011
0000
1000
0101
0000
0010
1100
0000
1001
,
0110
0000
0000
0000
0000
0000
1000
0000
0000
0000
0001
0000
0110
0000
0110
0000
0110
0000
2020
0000
0000
0000
0000
3030
,
2002
0000
0000
0000
0000
3003
0100
0000
0100
0000
0100
0000
0101
0000
0000
0000
0110
0000
1010
0000
0000
0000
0000
0000
,
1100
0010
0100
0001
0001
0001
1001
0000
0101
1100
0010
1000
,
0011
0100
0010
1000
1000
1000
1001
0011
0110
1100
0000
0000
,
0101
0010
0100
0011
0000
0000
1010
0000
0000
1100
0010
1000
,
0110
0001
0100
1001
1000
1000
1010
0000
0110
0101
0000
0000
,
1001
0010
1000
0001
0001
0001
0101
0000
0011
1100
0010
0100
,
0011
1000
0001
1010
0010
0010
0110
0000
0101
0011
0000
0000
,
1010
0100
0010
1100
0000
0000
1010
0001
1000
0011
0100
0010
,
0101
1000
0010
1001
1000
1000
1010
1000
1100
1001
0001
0001
,
0011
0001
1001
0101
0100
0100
0110
0100
0101
0011
0010
0010
,
0110
0010
0010
1000
1000
1000
1001
1000
1100
1010
0010
0110
,
1010
0010
0110
0011
0001
0001
1001
0001
0001
0101
0110
1100
,
0101
0110
1100
1001
0000
0000
0101
0000
0000
1010
0000
0100
,
0011
0000
1100
0110
0000
0000
1010
0000
0000
0101
0000
0010
,
1100
0000
0000
1000
0000
0000
0011
0000
0000
1001
0000
0010
,
0101
0000
1010
0110
0000
0000
1100
0000
0000
0011
0000
1000
,
0110
0110
0110
0101
0000
0000
0110
0000
0000
1001
0000
0010
,
1100
0000
1010
0110
0000
0000
0011
0000
0000
1100
0000
0010
,
0101
0000
0000
0100
0000
0000
1001
0000
0000
0110
0000
0001
,
1010
0000
0101
1100
0000
0000
0110
0000
0000
0101
0000
0010
,
1001
1001
1001
0011
0000
0000
1010
0000
0000
0110
0000
0001
,
1100
0000
0110
0011
0000
0000
0101
0000
0000
0011
0000
0100
,
1001
0000
0000
0010
0000
0000
1100
0000
0000
0101
0000
0010
,
1001
0000
0011
1010
0000
0000
0110
0000
0000
1100
0000
0001
,
0110
0110
0110
1010
0000
0000
0011
0000
0000
1001
0000
0100
,
1010
0000
1100
0101
0000
0000
0110
0000
0000
1001
0000
0010
,
1100
0000
0000
0001
0000
0000
1010
0000
0000
0011
0000
0100
,
1001
0000
0110
1010
0000
0100
0011
0100
0000
0101
0000
0001
,
1100
0001
0000
1100
1100
1100
0000
0011
0011
0011
0000
0011
,
0000
0000
0000
0000
,
0000
0000
0000
0101
0101
0101
0000
1010
1010
1010
0000
1010
,
0000
0000
0000
0000
,
0100
1000
0100
1001
1001
1001
0010
1100
1100
1100
0000
1100
,
0010
0010
0010
0010
,
0010
0100
0010
0101
0101
0101
0010
1100
1100
1100
0000
1100
,
0010
0001
0010
1001
1001
1001
0010
0101
0101
0101
0000
0101
,
0010
0000
0000
0000
0000
0000
0000
0000
0010
0000
0000
0000
0000
0000
0000
0000
0010
0000
0000
0000
0000
0000
0000
0000
0010
0000
0000
0000
0000
1000
0100
0010
,
0001
0000
0000
1010
0100
0010
1001
0010
0001
1010
0100
0010
,
1001
0010
0001
1010
0100
0010
1001
0010
0001
1100
0110
0011
,
1002
0100
0013
1200
0300
0200
0301
0200
0300
0200
0300
0200
,
0301
0000
0000
0000
0200
0000
0000
0000
0300
0000
0000
0000
0020
0000
0000
0000
0000
0000
0000
0000
0000
0000
0000
0000
0001
0000
0000
0030
0100
0000
0010
0000
0001
0000
0000
0000
0000
0000
0000
0000
2000
0000
0000
0000
0010
0000
0000
0000
,
3022
0000
0033
0110
0100
0100
1001
0100
0100
1010
0100
0001
,
0110
1000
0100
0011
0010
0010
1001
0010
0010
1100
0110
0011
,
0202
0000
0000
0000
0000
0000
0000
0000
0000
0000
0000
0000
0000
0000
0000
0000
0000
0000
0000
0000
0000
0000
0000
0000
0000
0000
0000
0000
0000
0000
0000
0000
0303
0000
0000
0000
0000
0000
0000
0000
1000
0000
0000
0000
0000
0000
0000
0000
0010
0000
0000
0000
0000
0000
0000
0000
0100
0000
0000
0000
0001
0000
0000
1000
0000
0000
0100
0000
0000
0010
0000
0000
0001
0000
0000
1000
0000
0000
0000
0000
0010
0000
0000
0000
0000
0000
0000
0100
0000
0000
0000
0000
0001
0000
0000
0000
1000
0000
0000
0000
0000
0000
0000
0000
0010
0000
0000
0000
0100
0000
0000
0001
0000
0000
0010
0000
0000
0100
0000
0000
1000
0000
0000
0000
0000
0000
0010
0000
0000
0000
0000
0000
0100
0000
0000
0000
0000
0000
0000
0000
0001
0000
0000
0000
0000
0000
0000
1000
0000
0000
0000
0000
0100
0000
0000
0000
0010
0000
0000
0000
0000
0000
0001
0000
0000
0000
0000
0000
0100
0000
0000
0000
0000
0000
0010
0000
0000
1000
0000
0000
0100
0000
0000
0010
0000
0000
0001
0000
0000
0000
0000
0000
,
0100
0000
0000
0000
0000
0000
0010
0000
0000
0100
0000
0000
0000
0000
0000
0010
0000
0000
0000
0000
1000
0000
0000
0000
0001
0000
0000
0000
0000
0000
0010
0000
0000
0000
0000
0000
0100
0000
0000
0000
1000
0000
0000
0000
0010
0000
0000
0000
0100
0000
0000
0001
0000
0000
0010
0000
0000
0100
0000
0000
1000
0000
0000
0000
0000
0000
0010
0000
0000
0000
0000
0000
0100
0000
0000
0000
0001
0000
0000
0000
1000
0000
0000
0000
0000
0000
0000
0100
0000
0000
0000
0000
0000
0010
0000
0000
0000
0000
0000
0001
0000
0000
0000
0000
0100
0000
0000
0000
0010
0000
0000
0000
0000
0000
1000
0000
0000
0100
0000
0000
0000
0000
0000
0010
0000
0000
0000
0000
0001
0000
0000
0000
0000
0000
0000
0000
1000
0000
0000
0000
0000
0000
0000
0000
0101
0000
0000
0000
0000
0000
0000
0000
0000
0000
0000
0000
0000
0000
0000
0000
0101
0000
0000
0000
0000
0000
0000
0000
0000
0000
0000
0000
0000
0000
0000
0000
0101
0000
0000
0000
0000
0000
0000
0000
0000
0000
0000
0000
0000
0000
0000
0000
,
0101
0000
0101
0000
0101
0000
1002
0003
1000
0000
1000
0000
0201
0300
0020
0030
0002
0003
0020
0030
0010
0000
0010
0000
,
1200
0300
0002
0003
0020
0030
0200
0300
0100
0000
0100
0000
1002
0003
0020
0030
0200
0300
2000
3000
1000
0000
1000
0000
,
1010
1000
1000
0001
0010
0001
1010
0100
0010
0001
0010
0001
,
1010
0000
0000
0000
0000
0000
0000
0000
0000
0000
0000
0000
0000
0000
0000
0000
0100
0000
0000
0000
0000
0000
0000
0000
0000
0000
0000
0000
0000
0000
0000
0000
0010
0000
0000
0000
0000
0000
0000
0000
0000
0000
0000
0000
0000
0000
0000
0000
1000
0000
0000
0000
0000
0000
0000
0000
0000
0000
0000
0000
0000
0000
0000
0000
0010
0000
0000
0000
0000
0000
0000
0000
0000
0000
0000
0000
0000
0000
0000
0000
1000
0000
0000
0000
0000
0000
0000
0000
0000
0000
0000
0000
0000
0000
0000
0000
0011
0000
0000
0000
0000
0000
0000
0000
0100
0000
0000
0000
0000
0000
0000
0000
0001
0000
0000
0000
0000
0000
0000
0000
0000
0000
0000
0000
0000
0000
0000
0000
0100
0000
0000
0000
0000
0000
0000
0000
0000
0000
0000
0000
0000
0000
0000
0000
1010
0000
0000
0000
0000
0000
0000
0000
0000
0000
0000
0000
0000
0000
0000
0000
0101
0000
0000
0000
0000
0000
0000
0000
0000
0000
0000
0000
0000
0000
0000
0000
0011
0000
0000
0000
0000
0000
0000
0000
0000
0000
0100
0000
0000
0000
0000
0000
,
1001
1010
1100
0011
0000
0000
1010
0000
0000
0101
0000
0010
,
1001
0000
1100
1010
0000
0000
0011
0000
0000
1100
0000
0010
,
0101
0000
0000
0001
0000
0000
1010
0000
0000
0110
0000
0001
,
1100
0000
0011
1001
0000
0000
0011
0000
0000
1100
0000
0001
,
0110
0110
0110
1010
0000
0000
0110
0000
0000
1001
0000
0010
,
1100
0000
0101
0110
0000
0000
1010
0000
0000
0011
0000
1000
,
0101
0000
0000
0010
0000
0000
1100
0000
0000
0101
0000
0010
,
1001
0000
0011
1001
0000
0000
0101
0000
0000
1010
0000
0100
,
1001
1001
1001
1100
0000
0000
0101
0000
0000
0110
0000
0001
,
1010
0000
1001
0011
0000
0000
1010
0000
0000
0101
0000
0010
,
1001
0000
0000
0100
0000
0000
0011
0000
0000
1010
0000
0100
,
1001
0000
1100
0101
0000
0000
0110
0000
0000
1010
0000
0100
,
0011
0011
0011
1001
0000
0000
1100
0000
0000
1001
0000
0010
,
0101
0000
1010
0110
0000
0000
0011
0000
0000
1100
0000
0001
,
1010
0000
0000
0110
0110
0110
0110
0000
0000
0100
0000
0000
,
0000
0000
0000
0000
0000
0000
0000
0000
0010
0000
0000
0000
1001
0000
0000
0000
1001
0000
0000
0000
1001
0000
0000
0000
1001
0000
0000
0000
0000
0000
0000
0000
0000
0000
0000
0000
2200
0000
0000
0000
0000
0000
0000
0000
0000
3300
0000
0000
,
0022
0000
0000
0000
0000
0000
0000
0000
0000
0033
0000
0000
1001
0000
0000
0000
1001
0000
0000
0000
1001
0000
0000
0000
0000
0000
0000
0000
1001
0000
0000
0000
1001
0000
0000
0000
1001
0000
0000
0000
0000
0000
0000
0000
0220
0000
0000
0000
,
0000
0330
0000
0000
0000
0000
0000
0000
;
