#TITLE:Holy Macaroni;
#SUBTITLE:;
#ARTIST:The Quick Brown Fox;
#TITLETRANSLIT:;
#SUBTITLETRANSLIT:;
#ARTISTTRANSLIT:;
#CREDIT:Aoreo;
#BANNER:Holy Macaroni-bn.png;
#BACKGROUND:Holy Macaroni-bg.png;
#LYRICSPATH:;
#CDTITLE:;
#MUSIC:Holy Macaroni.ogg;
#OFFSET:-0.036;
#SAMPLESTART:32.640;
#SAMPLELENGTH:12.000;
#SELECTABLE:YES;
#DISPLAYBPM:250.000;
#BPMS:0.000=250.568,197.000=257.300,199.500=285.000,200.000=250.568,260.000=231.000,261.500=250.568,390.000=267.400,392.000=250.568,452.000=231.000,453.500=250.568;
#STOPS:;
#BGCHANGES:;
// cache tags:
#FIRSTBEAT:32.000;
#LASTBEAT:488.000;
#SONGFILENAME:Songs/SPEEEDCOOOORE/Holy Macaroni [Aoreo]/Holy Macaroni.sm;
#HASMUSIC:1;
#HASBANNER:1;
#MUSICLENGTH:120.790;
// end cache tags

//---------------dance-single - J. Nero----------------
#NOTES:
     dance-single:
     J. Nero:
     Challenge:
     16:
     1.000,1.000,0.215,0.522,1.000,1081.000,26.000,63.000,2.000,2.000:
0000
0000
0000
0000
,
0000
0000
0000
0000
,
0000
0000
0000
0000
,
0000
0000
0000
0000
,
0000
0000
0000
0000
,
0000
0000
0000
0000
,
0000
0000
0000
0000
,
0000
0000
0000
0000
,
1001
0000
0001
0100
0000
0100
0010
0000
,
1000
0100
1000
0000
0010
0000
0110
0000
,
1001
0000
0001
0010
0000
0010
0100
0000
,
1000
0010
0100
0000
0001
0000
0101
0000
,
0110
0000
0010
1000
0000
1000
0100
0000
,
0010
0100
0010
0000
0100
0000
1100
0000
,
1001
0000
0001
0100
0000
0100
0010
0000
,
1000
0001
1000
0000
0010
0000
0110
0000
,
0101
0000
0100
0000
0001
1000
0001
0000
1000
0000
0100
1000
0100
0000
1000
0000
,
0010
0000
0100
0000
0010
0000
0000
0000
0100
0000
0000
0000
0001
0000
0100
0000
0002
0003
0000
0000
0020
0030
0000
0000
0200
0300
0000
0000
2000
3000
0000
0000
,
1010
0000
0010
0000
1000
0100
1000
0000
0100
0000
1000
0001
1000
0000
0001
0000
,
0100
0000
0001
0000
0100
0000
0000
0000
0010
0000
0000
0000
0100
0000
0001
0000
0200
0300
0000
0000
0002
0003
0000
0000
0020
0030
0000
0000
0200
0300
0000
0000
,
1100
0000
1000
0000
0001
1000
0001
0000
0100
0000
0001
0100
0001
0000
1000
0000
,
0100
0000
1000
0000
0100
0000
0000
0000
0010
0000
0000
0000
0001
0000
0010
0000
0002
0003
0000
0000
0200
0300
0000
0000
0020
0030
0000
0000
2000
3000
0000
0000
,
1001
0000
0001
0000
0100
0001
0100
0000
0010
0000
1000
0100
1000
0000
0010
0000
,
1000
0000
0100
0000
1000
0000
0000
0000
0100
0000
0000
0000
0010
0000
0001
0000
0020
0030
0000
0000
0002
0003
0000
0000
0200
0300
0000
0000
0020
0030
0000
0000
,
1010
0000
1000
0000
0010
1000
0010
0000
0100
0000
0001
0100
0001
0000
0100
0000
,
0010
0000
1000
0000
0010
0000
0000
0000
1000
0000
0000
0000
0100
0000
1000
0000
0200
0300
0000
0000
2000
3000
0000
0000
0020
0030
0000
0000
0200
0300
0000
0000
,
0101
0000
0001
0000
1000
0010
1000
0000
0010
0000
1000
0010
1000
0000
0100
0000
,
1000
0000
0010
0000
1000
0000
0000
0000
0010
0000
0000
0000
0100
0000
0001
0000
0200
0300
0000
0000
0002
0003
0000
0000
2000
3000
0000
0000
0200
0300
0000
0000
,
0110
0000
0010
0000
0001
0100
0001
0000
0100
0000
0010
1000
0010
0000
0100
0000
,
0010
0000
1000
0000
0010
0000
0000
0000
0100
0000
0000
0000
0001
0000
1000
0000
0002
0003
0000
0000
0020
0030
0000
0000
0200
0300
0000
0000
2000
3000
0000
0000
,
1020
0030
0000
0000
0000
0000
2000
3000
,
1001
0000
0000
0000
0000
0000
0000
0000
0000
0000
0000
0000
0001
1000
0001
1000
,
0001
0000
0000
0000
,
0000
0000
0000
0000
,
0001
0100
0010
1000
0001
1000
0001
0010
0100
0000
1000
0000
0010
0000
0100
0000
,
0001
0100
0001
1000
0010
0100
0001
1000
0001
0000
0010
0000
0100
0000
1000
0000
,
0001
0100
0001
0100
0010
1000
0010
1000
0001
0000
0010
0000
0100
0000
1000
0000
,
0001
0000
0000
0000
0000
0000
0000
0000
1000
0000
0000
0000
0000
0000
0000
0000
1000
0000
0000
0000
0000
0000
0000
0000
0010
0000
0000
0000
0000
0000
0000
0000
0000
0000
0000
0000
0100
0000
0000
0001
0000
0000
0100
0000
0000
0001
0000
0000
,
0100
0000
0000
0000
0001
1000
0001
0100
0010
1000
0001
1000
0004
0000
0003
0000
,
1000
0010
0100
0001
1000
0001
0100
0010
0100
0000
0001
0000
0010
0000
0100
0000
,
1000
0100
1000
0000
0001
0000
0100
0001
0100
0000
0001
0000
1000
0100
1000
0100
,
1000
0000
0000
0000
0000
0000
0000
0000
0001
0000
0000
0000
0000
0000
0000
0000
0001
0000
0000
0000
0000
0000
0000
0000
0100
0000
0000
0000
0000
0000
0000
0000
0000
0000
0000
0000
0001
0000
0000
0100
0000
0000
0001
0000
0000
0000
0000
0000
,
0100
0001
0100
0010
1000
0010
0100
0001
0100
0001
1000
0010
4000
0000
3000
0000
,
0001
0100
0010
1000
0001
1000
0001
0010
0100
1000
0001
1000
0004
0003
4000
3000
,
0001
0100
0001
0100
0010
1000
0010
1000
0001
0010
0001
0010
0400
0000
0300
0000
,
1000
0000
0000
0000
0000
0000
0000
0000
0100
0000
0000
0000
0000
0000
0000
0000
0100
0000
0000
0000
0000
0000
0000
0000
0010
0000
0000
0000
0000
0000
0000
0000
0000
0000
0000
0000
0001
0000
0000
0010
0000
0000
0001
0000
0000
0010
0000
0000
,
0001
0000
0000
0000
0100
0001
0100
0010
1000
0001
0100
0010
0400
0000
0300
0000
,
0001
0100
0010
0100
0001
1000
0001
1000
0100
0000
1000
0000
0001
0000
0010
0000
,
0100
0010
0100
0000
1000
0000
0001
0100
0001
0000
0100
0000
0001
1000
0001
1000
,
0001
0000
0000
0000
0000
0000
0000
0000
0100
0000
0000
0000
0000
0000
0000
0000
0100
0000
0000
0000
0000
0000
0000
0000
0001
0000
0000
0000
0000
0000
0000
0000
0000
0000
0000
0000
1000
0000
0000
0001
0000
0000
1000
0000
0000
0000
0000
0000
,
0010
1000
0010
0100
0001
1000
0100
1000
,
0010
0000
0100
0000
0001
0000
0100
0000
0010
0000
1000
0000
0001
0100
0001
0100
,
0001
0010
0100
1000
0010
0100
0001
1000
,
0010
0000
0100
0000
0001
0000
1000
0000
0100
1000
0100
1000
0100
1000
0100
1000
,
0100
1000
0010
0100
0001
1000
0100
0010
,
0100
0000
1000
0000
0001
0000
0100
0000
0010
0000
1000
0000
0001
1000
0001
1000
,
0001
1000
0100
0010
0100
1000
0010
0100
,
0001
0000
1000
0000
0010
0000
0100
0000
0001
1000
0001
0010
0100
1000
0100
0000
,
1000
0010
0100
0001
0010
0100
1000
0001
,
0100
0001
0100
0000
0001
0100
0001
0000
0010
0000
0100
0000
1000
0100
1000
0100
,
1000
0010
0100
0001
0010
0100
1000
0010
,
0100
0001
0100
0001
0100
0000
0001
1000
0001
1000
0001
1000
0001
1000
0001
1000
,
0001
0010
0100
1000
0100
0010
0001
1000
,
0010
1000
0010
0000
0100
0001
0100
0000
0001
0000
0010
0000
0100
1000
0100
1000
,
0100
1000
0100
1000
0100
1000
0100
1000
0400
0300
4000
3000
0004
0003
4000
3000
,
0004
0003
0000
0000
0000
0000
1101
0000
0000
0000
0000
0000
0000
0000
0000
0000
,
1000
0000
0001
0100
0001
0000
1000
0010
1000
0000
0010
0100
0010
0000
0200
0000
,
0300
0000
0001
0100
0001
0000
1000
0000
0010
1000
0010
1000
0010
1000
0010
0000
,
0100
0000
0001
0100
0001
0000
0010
0001
0010
0000
0001
1000
0001
0000
2000
0000
,
3000
0000
0100
0010
0100
0000
1000
0000
0001
0010
0001
0010
0001
0010
0001
0000
,
1000
0000
0010
0100
0010
0000
0100
0001
0100
0000
0001
1000
0001
0000
0020
0000
,
0030
0000
0100
1000
0100
0000
1000
0000
0001
0100
0001
0100
0001
0100
0001
0000
,
1000
0001
1000
0010
0100
0001
1000
0100
0010
0001
1000
0010
,
1000
0000
0000
0000
0010
0000
0000
0000
0100
0000
0000
0000
0001
0000
0000
0000
0100
0000
0000
0000
0001
0000
0000
0000
1000
0000
0000
0000
0001
0000
0000
0000
1000
0000
0000
0000
0004
0000
0000
0000
0000
0000
0000
0000
0000
0003
0000
0000
,
0100
0001
0100
0001
1000
0010
1000
0010
0100
0001
0100
0010
1000
0001
1000
0010
,
0100
0001
0100
0001
1000
0010
0100
0010
0100
0001
1000
0001
1000
0010
0100
0010
,
1000
0001
1000
0001
0100
0001
0100
0001
0010
0001
0010
0100
1000
0001
1000
0001
,
1000
0000
0000
0000
0000
0000
0000
0000
0010
0000
0000
0000
0000
0000
0000
0000
0010
0000
0000
0000
0000
0000
0000
0000
0100
0000
0000
0000
0000
0000
0000
0000
0000
0000
0000
0000
0001
0000
0000
0100
0000
0000
0001
0000
0000
0100
0000
0000
,
0001
0000
0000
0000
1000
0010
1000
0010
0100
0001
0100
0010
4000
0000
3000
0000
,
0001
0100
0010
1000
0001
1000
0001
0100
0010
0100
0010
1000
0001
0000
0100
0000
,
0001
0100
0001
0000
0010
0000
0001
0100
0001
0000
0100
0000
0010
1000
0010
1000
,
0010
0000
0000
0000
0000
0000
0000
0000
1000
0000
0000
0000
0000
0000
0000
0000
1000
0000
0000
0000
0000
0000
0000
0000
0001
0000
0000
0000
0000
0000
0100
0000
0000
0000
0000
0000
0001
0000
0000
0010
0000
0000
0004
0000
0000
0003
0000
0000
,
0010
0000
0100
0000
0010
0001
0010
0000
0001
0000
1000
0100
1000
0000
0010
0000
,
1000
0000
0100
0000
1000
0000
0000
0000
0010
0000
0000
0000
0100
0000
0001
0000
0200
0300
0000
0000
0020
0030
0000
0000
2000
3000
0000
0000
0200
0300
0000
0000
,
1100
0000
1000
0000
0010
0100
0010
0000
0100
0000
0001
0100
0001
0000
0100
0000
,
0010
0000
0100
0000
0010
0000
0000
0000
1000
0000
0000
0000
0100
0000
1000
0000
0200
0300
0000
0000
0020
0030
0000
0000
0002
0003
0000
0000
0200
0300
0000
0000
,
0110
0000
0010
0000
1000
0001
1000
0000
0001
0000
0100
0001
0100
0000
0010
0000
,
0100
0000
0001
0000
0100
0000
0000
0000
0001
0000
0000
0000
0010
0000
0100
0000
0020
0030
0000
0000
0200
0300
0000
0000
2000
3000
0000
0000
0020
0030
0000
0000
,
0110
0000
0100
0000
0001
0100
0001
0000
1000
0000
0100
1000
0100
0000
0010
0000
,
0100
0000
1000
0000
0100
0000
0000
0000
1000
0000
0000
0000
0001
0000
0100
0000
0002
0003
0000
0000
0200
0300
0000
0000
0020
0030
0000
0000
2000
3000
0000
0000
,
1001
0000
0001
0000
0010
0100
0010
0000
0100
0000
1000
0001
1000
0000
0001
0000
,
0100
0000
0010
0000
0100
0000
0000
0000
0001
0000
0000
0000
0100
0000
0010
0000
0200
0300
0000
0000
0020
0030
0000
0000
2000
3000
0000
0000
0002
0000
0003
0000
,
1001
0000
1000
0000
0001
0010
0001
0000
0010
0000
0100
1000
0100
0000
0010
0000
,
0001
0000
0100
0000
0001
0000
0000
0000
0100
0000
0000
0000
0010
0000
1000
0000
0020
0030
0000
0000
2000
3000
0000
0000
0200
0300
0000
0000
0020
0030
0000
0000
,
0011
0000
0001
0000
1000
0001
1000
0000
0010
0000
1000
0010
1000
0000
0100
0000
,
1000
0000
0010
0000
1000
0000
0000
0000
0010
0000
0000
0000
0100
0000
0001
0000
0020
0030
0000
0000
0200
0300
0000
0000
2000
3000
0000
0000
0002
0003
0000
0000
,
0101
0000
0100
0000
0010
1000
0010
0000
1000
0000
0100
0010
0100
0000
0010
0000
,
0002
0000
0000
0003
0002
0000
0000
0000
,
1003
0100
1000
0010
0100
0001
0010
0100
,
1000
0000
0010
0000
0100
0000
0001
0000
1000
0000
0010
0000
0100
0001
0100
0001
,
0100
0001
0010
0100
1000
0010
0100
0001
,
0100
0000
0010
0000
1000
0000
0001
0000
1000
0001
1000
0010
0100
0001
1000
0001
,
1000
0010
0100
0010
1000
0001
0010
0100
,
1000
0000
0010
0000
0100
0000
0001
0000
0010
0000
0100
0000
1000
0100
1000
0100
,
1000
0010
0100
0001
0100
0010
1000
0100
,
0010
0000
0001
0000
0100
0000
0010
0000
1000
0001
1000
0001
4000
0000
3000
0000
,
0001
0100
0010
1000
0100
0010
0100
1000
,
0001
0100
0001
0000
0100
0010
0100
0000
0010
0000
1000
0000
0001
0100
0010
1000
,
0010
1000
0100
0010
0100
1000
0010
0100
,
0010
0100
0010
0100
0010
0000
1000
0001
1000
0001
1000
0001
1000
0001
1000
0001
,
1000
0010
0100
0001
0010
0100
0010
0001
,
1000
0001
1000
0000
0001
0100
0001
0000
0100
0000
0010
0000
1000
0100
0010
0001
,
1000
0010
0100
0001
0100
0010
1000
0010
4000
3000
0040
0030
0400
0300
0004
0003
,
4000
3000
0000
0000
0000
0000
1101
0000
0000
0000
0000
0000
0000
0000
0000
0000
,
0001
0100
0001
0010
0100
1000
0100
0010
0001
1000
0010
0100
,
0010
1000
0001
1000
0001
0010
0100
1000
0100
1000
0001
1000
,
0001
0100
0001
0100
0010
1000
0001
0010
0100
1000
0010
0100
,
0001
0010
0100
1000
0100
0010
0001
0100
0001
0100
0010
1000
,
0001
0010
0100
1000
0100
1000
0010
0100
0001
1000
0001
0100
,
0010
1000
0001
0010
0100
1000
0010
0100
0001
0100
0010
1000
,
0100
0010
0001
1000
0100
1000
0010
0100
0001
0100
0010
1000
,
0001
0010
0100
1000
0100
0010
0001
1000
0010
0100
0001
1000
,
0M1M
0000
0000
0000
;
