#TITLE:Time;
#SUBTITLE:(cut);
#ARTIST:Drumcorps;
#TITLETRANSLIT:;
#SUBTITLETRANSLIT:;
#ARTISTTRANSLIT:;
#CREDIT:Patashu;
#BANNER:;
#BACKGROUND:;
#LYRICSPATH:;
#CDTITLE:cdtitle.png;
#MUSIC:10 Time (cut).ogg;
#OFFSET:0.968;
#SAMPLESTART:51.000;
#SAMPLELENGTH:18.000;
#SELECTABLE:YES;
#BPMS:0.000=225.000;
#STOPS:;
#BGCHANGES:;
// cache tags:
#FIRSTBEAT:4.000;
#LASTBEAT:411.500;
#SONGFILENAME:Songs/SSSC Pack 2/Time - [Patashu]/itstime.sm;
#HASMUSIC:1;
#HASBANNER:0;
#MUSICLENGTH:115.598;
// end cache tags

//---------------dance-single - ----------------
#NOTES:
     dance-single:
     :
     Challenge:
     13:
     1.000,1.000,0.701,0.779,0.978,917.000,81.000,90.000,73.000,1.000:

0000
0000
0000
0000
,
1MM1
0000
0001
0000
0100
0000
0001
0000
2000
0000
0100
3000
0010
0000
0001
0000
,
0101
0000
0100
0000
0010
0000
1000
0000
0001
0000
1000
0100
0010
0000
0001
0000
,
1001
1000
0100
0010
0001
0010
0100
1100
,
1000
0000
0010
0000
0100
0001
1000
0000
0100
1000
0001
1000
0100
0000
0010
0001
,
1M00
0000
1000
0000
0010
0000
0200
0000
0320
0000
1000
0030
0001
0000
0010
0000
,
0011
0001
0101
0010
1000
0100
0010
0001
,
1001
1000
0100
1000
0010
0100
0010
1010
,
1000
0000
0000
0000
0001
0000
0001
0000
0100
0010
1000
0001
0010
0000
0200
0300
,
M11M
0000
0010
0000
0001
0000
1000
0000
2001
0000
0001
3000
0100
0000
0010
0000
,
1010
1000
0100
0010
0001
0010
0001
0100
,
0110
0000
0010
0000
0000
0000
1000
0000
0001
0000
0100
0001
1000
0000
1100
0000
,
0100
0000
0000
0000
0011
0000
0010
0000
0001
0000
1000
0100
0010
0000
0100
0010
,
M001
0000
1000
0010
0100
0000
M001
0000
2001
0000
0100
3000
0010
0000
0011
0000
,
1001
1001
0000
0000
0010
0100
0001
1000
,
1001
0001
0100
0010
1000
0100
1000
1010
,
0010
0000
0100
0000
0001
0000
0010
0100
1000
0000
2001
0000
3001
0010
0100
0000
,
1100
0000
1100
0000
1000
0001
1000
0001
0010
0000
0200
0000
1300
0000
0100
0010
,
0001
0000
1001
0000
0010
0000
0200
0000
0301
0000
2000
0000
0000
0000
3010
0100
,
0001
0000
0101
0000
0100
0000
0010
1000
0001
0000
0010
0001
1000
0001
0100
0000
,
0010
1000
0010
0000
0100
0000
0001
1000
0001
0010
0001
0000
1001
0000
0MM0
0000
,
1001
0000
1001
0000
0001
0000
0100
0000
0120
0000
1030
0010
0100
0000
0010
1000
,
0001
0000
0101
0000
0100
0001
1000
0000
0100
0000
0010
0001
0010
0100
0010
0000
,
0011
0000
0011
0000
0001
0010
0100
0000
1000
0000
0100
0010
0001
0000
1001
0000
,
1010
0000
0000
0000
1001
0000
0001
0000
0101
0000
0100
0010
0100
0010
1000
0000
,
1001
0000
1001
0000
0001
1000
0001
0000
0100
0000
0010
1000
0010
0000
0100
0001
,
1000
0000
1010
0000
0010
0000
1000
0000
0010
0000
1000
0010
1000
0000
0010
1000
,
0001
0000
1001
0000
1000
0100
0010
0000
0200
0000
0310
0001
2000
3000
1010
0000
,
1001
0000
0001
0000
1000
0000
0100
0000
0010
0001
2000
0000
3100
0000
0010
0000
,
0011
0000
0001
0000
0010
0000
0200
0000
130M
0000
M010
0100
M001
0100
001M
0000
,
1010
0000
1000
0000
0000
0000
0000
0000
0001
0000
0010
0001
1000
0000
0010
0000
,
1010
0000
1000
0000
0010
1000
0010
1000
0001
0000
1000
0001
1000
0001
1000
0000
,
0010
0000
MMMM
MMMM
,
0200
0310
1000
0200
0310
0001
0200
0310
,
1000
0200
0310
0001
0200
0310
1000
0200
,
0310
0001
0200
0310
1000
0200
0310
0010
,
0001
0000
0010
0000
0100
0010
0100
0000
1000
0100
0000
1000
0001
0000
1000
0001
,
2000
0000
0000
3020
0130
0001
0020
0130
,
1000
0020
0130
0001
0020
0130
1000
0020
,
0130
0001
0020
0130
1000
0020
0130
0001
,
0020
0130
1000
0020
0130
0001
0010
0010
,
0020
0130
1000
0020
0130
0001
0020
0130
,
1000
0020
0130
0001
0020
0130
1000
0020
,
0130
0001
0020
0130
1000
0020
0130
0001
,
0020
0000
0130
0000
1000
0000
0002
0000
0103
0000
0001
0100
0000
0001
1000
0000
,
0002
0000
0000
0203
0310
1000
0200
0310
,
0001
0200
0310
1000
0200
0310
0001
0200
,
0310
1000
0200
0310
0001
0200
0310
0010
,
0200
0000
0301
0000
1000
0000
0100
0010
0100
0000
0010
0000
0001
0000
0001
0000
,
1001
0000
1000
0000
0010
1000
0010
1000
0001
0000
0200
0000
0301
0000
1000
0010
,
0100
0000
0100
0000
0001
0000
2000
0000
3010
0000
0200
0000
0000
0000
0301
0010
,
0001
0000
0001
0000
0100
0000
0010
1000
0001
0000
0100
0010
1000
0010
0100
0000
,
0001
1000
0001
1000
0010
0000
0100
0001
0100
0001
0100
0000
0110
0000
0000
0000
,
101M
0000
0010
0000
0100
0000
0001
0000
0010
0000
0001
0010
0100
0000
1000
0100
,
001M
0000
0010
0000
0012
0000
1003
0100
0010
0000
0001
0010
0001
0010
0001
0000
,
1M01
0000
1000
0000
0010
1000
0001
0000
001M
0000
0100
0010
0100
0000
1100
0000
,
10M0
0000
0000
0000
1001
0000
0001
0000
M101
0000
0100
0010
010M
0010
1000
0000
,
1MM1
0000
1000
0000
0001
0010
0100
0000
1000
0000
0100
0010
0001
0000
0100
0000
,
M11M
0000
0010
0000
1000
0000
0001
0000
0100
0000
0010
1000
0010
0000
0100
0001
,
1MM0
0000
1000
0100
1000
0000
0001
0100
0020
0030
1000
0001
0020
0030
0100
0000
,
11MM
0000
1100
0000
0000
0000
0100
1000
0000
0001
0000
1000
0010
0000
0000
0000
,
M11M
0000
001M
0000
1000
0000
1010
0000
0001
0000
1000
0001
1000
0001
1000
0001
,
1MM0
0000
10M0
0000
0000
0000
0100
0000
0010
0000
0001
0010
0100
0000
0010
0000
,
2MM1
0MM1
0M00
000M
00M0
0M00
000M
0M10
,
0MM2
0MM0
0M00
00M0
0M03
00M0
300M
0000
,
MMM1
0MM0
1MMM
0000
0010
1000
0010
0000
0100
0000
0001
0000
0100
0001
0100
0000
,
0001
0000
1000
0000
0010
1000
0010
0000
0100
0000
0001
0000
0010
0001
0010
0000
,
0100
0000
1000
0000
0100
1000
0100
0000
0010
0000
0001
0000
0010
0100
0010
0000
,
0001
0000
1000
0000
0001
1000
0001
0000
0100
0000
0010
0000
0100
0010
0100
0000
,
0001
0000
0010
0000
0001
0010
0100
0000
0010
0000
0100
0000
0010
0100
1000
0000
,
0010
0000
1000
0000
0001
1000
0100
0000
0010
0000
0001
0000
0010
0001
1000
0000
,
0010
0000
0100
0000
0100
0001
0100
0000
0010
1000
0010
1000
0001
0000
0010
0100
,
1000
0001
00M0
0001
0100
0010
0100
0010
1000
0001
00M0
0001
1000
0001
1000
0001
,
2MM0
0000
3100
0000
0010
0000
0001
0000
0010
0001
0010
0000
0100
0010
0100
0010
,
0200
0000
1300
0000
0100
0000
0010
0000
0001
1000
0001
0000
1000
0010
1000
0010
,
2000
0000
3001
0000
0010
0000
0001
0000
0100
0001
0100
0000
0010
1000
0010
1000
,
0020
0000
0130
0001
0100
0001
1000
0000
0100
1000
0001
0100
0010
1000
0000
0001
,
0020
0000
0030
0000
0010
0000
0010
0000
0100
1000
0100
0000
0010
0001
0010
0001
,
0020
0000
0130
0000
1000
0000
0010
0000
1000
0010
1000
0000
0100
0010
0100
0010
,
0100
0000
0100
0000
1000
0000
0001
0000
0001
0000
0010
0100
0010
0001
0010
0100
,
1000
0000
1000
0000
1000
0000
0100
0010
0001
0010
0100
1000
0001
1000
0001
1000
,
0001
0000
0210
0000
0301
0000
0210
0000
0301
0000
0210
0000
,
0310
0000
1002
0000
0013
0000
1002
0000
0013
0000
1002
0000
,
0103
0000
0010
0000
1000
0000
0100
0010
0100
0000
1000
0000
0001
0100
0001
0100
,
0010
0000
0100
0001
0100
0010
1000
0000
0100
0010
0001
1000
0100
0010
0000
0001
,
1000
0000
0120
0000
1030
0000
0120
0000
1030
0000
0120
0000
,
0130
0000
0000
0000
2001
0000
0000
0000
3100
0000
0000
0000
2001
0000
0000
0000
3100
0000
0000
0000
2001
0000
0000
3000
,
0120
0000
0000
0000
0000
0000
0130
0000
0001
0000
1000
0010
1000
0001
1000
0000
,
0210
0000
0000
0000
0000
0000
0301
0000
0010
0100
0010
0100
1000
0001
1000
0000
,
1002
0000
0000
0000
0000
0000
0103
0000
0010
0000
1000
0010
1000
0010
0100
0000
,
2001
0000
0000
0000
0000
0000
3010
0000
0100
0001
0100
0001
1000
0010
1000
0010
,
1000
0001
0100
0001
1000
0100
0010
0001
1000
0100
0010
0100
,
1000
0001
0100
0010
1000
0100
0010
0100
1000
0001
0100
0001
,
1000
0000
0001
0000
0010
0000
0100
1000
0100
0000
0010
0000
0001
1000
0001
1000
,
0010
0000
0100
0001
0100
0001
1000
0000
1000
0100
0010
0001
0010
0100
0000
1000
,
0001
0010
0100
1000
0001
0100
0010
0100
0001
1000
0100
0010
,
0001
1000
0010
0100
0001
1000
0100
1000
0001
0100
0010
1000
,
0210
0000
0000
0000
0000
0000
0301
0000
0010
0000
0100
0010
0100
1000
0100
0000
,
0120
0000
0000
0000
0000
0000
0130
0000
0010
0001
0010
0001
1000
0100
1000
0000
,
1002
0000
0000
0000
0000
0000
1003
0000
0010
0000
0100
0001
0100
0001
0010
0000
,
2001
0000
0000
3001
2222
0000
0000
0000
,
0000
0000
0300
0000
,
3000
0000
0000
0003
0000
0000
0000
0030
;
