#TITLE:Of Course You NEED ME;
#SUBTITLE:(Reprise);
#ARTIST:t+pazolite;
#TITLETRANSLIT:;
#SUBTITLETRANSLIT:;
#ARTISTTRANSLIT:;
#CREDIT:;
#BANNER:of course bn.png;
#BACKGROUND:of course bg.png;
#LYRICSPATH:;
#CDTITLE:;
#MUSIC:Of Course.ogg;
#OFFSET:-0.008;
#SAMPLESTART:29.614;
#SAMPLELENGTH:12.000;
#SELECTABLE:YES;
#DISPLAYBPM:240.000;
#BPMS:0.000=240.000;
#STOPS:;
#BGCHANGES:;
// cache tags:
#FIRSTBEAT:16.000;
#LASTBEAT:601.000;
#SONGFILENAME:Songs/SPEEEDCOOOORE 3/Of Course - [Garrett]/Of Course.sm;
#HASMUSIC:1;
#HASBANNER:1;
#MUSICLENGTH:151.501;
// end cache tags

//---------------dance-single - G. Moese----------------
#NOTES:
     dance-single:
     G. Moese:
     Challenge:
     16:
     1.000,1.000,0.205,0.469,0.795,1178.000,31.000,71.000,51.000,0.000:

0000
0000
0000
0000
,
0000
0000
0000
0000
,
0000
0000
0000
0000
,
0000
0000
0000
0000
,
1001
0000
0000
0000
,
0000
0000
0000
0000
,
1001
1000
0010
1000
0100
0010
0001
0000
,
1001
1000
0010
0100
0001
0010
0100
0000
,
1001
0000
1010
0000
,
2001
3000
0002
0003
2000
3000
0020
0030
,
1000
0010
1000
0001
0100
0001
1000
0100
,
0010
0001
1000
0001
0100
0010
1000
0001
,
0010
0100
0010
0001
1000
0010
0100
0010
,
1000
0001
0010
0001
0100
0010
1000
1000
,
0001
0010
0001
1000
0100
0010
0001
0100
,
0010
1000
0001
0100
0001
1000
0100
1000
,
0002
0000
1003
1000
0020
0000
1030
0001
,
0020
0100
0130
1000
0002
0000
1003
0MM0
,
0001
1000
0100
0010
0001
1000
0100
0010
,
0001
1000
0100
0010
0002
0000
1003
0MM0
,
1000
0001
0100
0010
1000
0001
0100
0010
,
1000
0000
0010
1000
0010
0000
0100
0000
0002
0000
0000
0000
0103
0000
M000
0000
,
0100
0000
0010
0000
1000
0000
0001
0000
0100
0000
0010
0000
1000
0100
1000
0100
,
0010
0000
0001
0000
1000
0000
0010
0000
0100
0000
0001
0000
1000
0100
1000
0100
,
0010
0000
0001
0010
0001
0000
1000
0001
,
0000
1000
0001
0100
0020
0000
1030
0M00
,
1001
1000
0010
0200
0000
0301
1000
0200
,
0000
0000
0310
0000
0001
0000
1000
0000
0001
1000
0001
0000
0010
0000
0100
0000
,
1000
0001
1000
0002
0000
0013
0100
2000
,
0000
0000
3010
0000
0100
0000
0001
0000
1000
0010
0100
0000
00M1
0000
1000
0000
,
010M
0010
0001
2000
0000
3100
0010
0002
,
0000
0000
1003
0000
0010
0000
0100
0000
0001
1000
0010
0000
1000
0000
0001
0000
,
0010
0100
0010
0002
0000
1003
0010
0200
,
0000
0000
0310
0000
1000
0000
0001
0000
1000
0010
0100
0010
1000
0000
0001
0000
,
0100
0001
1000
0100
0100
0001
1000
0100
,
0100
0000
0001
0000
1000
0000
0001
0000
1000
0010
0100
0000
0001
0000
1000
0000
,
0100
0010
0001
0100
0100
1000
0001
0100
,
0100
0000
1000
0000
0001
0000
1000
0000
0010
0100
0001
0000
0100
0000
0001
0000
,
1000
0000
0004
0003
1000
0000
0040
0030
1000
0000
0004
0003
1000
0000
0400
0300
,
1000
0010
0100
0010
1000
0001
0100
0010
0100
0001
1000
0010
1000
0001
0100
0001
,
1000
0100
0010
0100
1000
0001
1000
0001
0100
0010
0100
0001
1000
0001
0100
0010
,
1000
0001
0010
0100
1000
0001
0010
0100
1000
0001
0100
0010
1000
0001
1000
0001
,
1000
0100
0010
0001
1000
0100
0010
0001
,
1000
0100
0010
0001
0200
0000
0301
00M0
,
0001
0100
0010
1000
0001
0100
0010
1000
,
0001
0000
1000
0001
1000
0000
0010
0000
2000
0000
0000
0000
0001
3000
0M00
0000
,
0001
0010
0100
1000
0001
0010
0100
1000
,
0002
0003
0002
0003
2000
3002
0003
0002
,
1003
0100
0010
0001
1000
0100
0010
0001
,
2000
0000
0000
0000
3001
0000
0000
0000
1000
0000
0001
0100
0001
0000
0100
0000
,
0001
0100
0010
1000
0001
0100
0010
1000
,
0001
0100
0010
1000
0020
0000
1030
000M
,
1000
0100
0010
0001
1000
0100
0010
0001
,
1000
0000
0010
0100
0010
0000
1000
0000
0002
0000
0000
0000
1003
0000
00M0
0000
,
1000
0000
0100
0000
0010
0000
0001
0000
1000
0000
0001
0000
1000
0100
1000
0100
,
0010
0000
0001
0000
0010
0000
0001
0000
1000
0000
0001
0000
0100
0010
0100
0010
,
2000
0000
3100
1000
0100
0000
1000
0001
,
0000
0100
0001
0000
2000
0000
3001
0000
,
1001
0000
1001
0110
,
1001
0000
0000
0001
0000
0000
0100
0000
0000
0010
0000
1000
,
0100
0000
0000
0100
0000
0000
0010
0000
0000
0001
0000
1000
,
0100
0000
0000
0100
0000
0000
1000
0000
0000
0010
0000
0100
,
0001
0001
0100
0000
,
0001
0000
0000
0001
0000
0000
0010
0000
0000
0100
0000
1000
,
0001
0000
0000
0001
0000
0000
0100
0000
0000
0010
0000
1000
,
0100
0000
0000
0100
0000
0000
0010
0000
0000
0001
0000
1000
,
0010
0010
0100
0000
,
0202
0000
0000
0000
0000
0000
0303
0000
0000
0000
0000
0000
0000
0000
0000
0000
0000
0000
0000
0000
0000
0000
0000
0000
0000
0000
0000
0000
0000
0000
0000
0000
0000
0000
0000
0000
0000
0000
0000
0000
0000
0000
0000
0000
0000
0000
0000
0000
0001
0000
0000
0000
0000
0000
0000
0000
0000
0000
0000
0000
0000
0000
0000
0000
0000
0000
0000
0000
0000
0000
0000
0000
0000
0000
0000
0000
0000
0000
0000
0000
0000
0000
0000
0000
0000
0000
0000
0000
0000
0000
0000
0000
0000
0000
0000
0000
0010
0000
0000
0000
0000
0000
0000
0000
0000
0000
0000
0000
0000
0000
0000
0000
0000
0000
0000
0000
0000
0000
0000
0000
0000
0000
0000
0000
0000
0000
0000
0000
0000
0000
0000
0000
0000
0000
0000
0000
0000
0000
0000
0000
0000
0000
0000
0000
0100
0000
0000
0000
0000
0000
0000
0000
0000
0000
0000
0000
0000
0000
0000
0000
0000
0000
0000
0000
0000
0000
0000
0000
0000
0000
0000
0000
0000
0000
0000
0000
1000
0000
0000
0000
0000
0000
0000
0000
0000
0000
0000
0000
0000
0000
0000
0000
,
0001
0000
0000
0001
0000
0000
0100
0000
0000
0010
0000
1000
,
0100
0000
0000
0100
0000
0000
1000
0000
0000
0010
0000
0100
,
0001
0001
1000
0001
,
1000
0010
1000
0001
0100
0010
1000
0001
1000
0100
0010
0001
1000
0100
1000
0001
,
0100
0001
1000
0010
0100
0001
1000
0001
0010
0100
1000
0001
0010
0100
1000
0001
,
1000
0100
0010
0001
1000
0001
0100
0010
1000
0001
1000
0001
0010
0100
1000
0001
,
1000
0000
0001
0100
0001
0000
1000
0000
0100
0010
0001
0000
1000
0001
1000
0001
,
1000
0000
0010
0000
0100
0000
0001
0100
0001
0000
1000
0000
0100
0000
1000
0100
,
0010
0000
0001
0000
0100
0000
0001
0100
0001
1000
0001
0000
1000
0000
0010
0000
,
1000
0100
0010
0001
1000
0000
0001
0000
1000
0100
1000
0001
0100
0000
0010
0000
,
1000
0001
1000
0001
0010
0100
1000
0001
1000
0000
0001
0100
0001
0000
1000
0000
,
0010
0000
1000
0000
0001
0000
0010
0100
0010
0100
1000
0000
0001
0000
0100
0001
,
0100
0000
0001
0000
1000
0000
0001
0010
0001
0010
0100
0000
1000
0100
1000
0001
,
0100
0010
1000
0001
1000
0000
0001
0000
0100
0000
0001
1000
0100
0000
0010
0000
,
0001
1000
0001
1000
0100
0010
0001
1000
0001
0000
0100
0001
0100
0000
0001
0010
,
0100
0000
1000
0000
0001
0000
1000
0100
1000
0000
0001
0000
0100
0000
0001
0100
,
0010
0000
1000
0000
0100
0000
1000
0001
1000
0100
1000
0000
0001
0000
0100
0000
,
0001
0010
0100
1000
0001
0000
1000
0000
0001
0010
0001
1000
0010
0000
0100
0000
,
0001
1000
0001
1000
0100
0010
0001
1000
0001
0000
1000
0010
1000
0000
0001
0000
,
0100
0000
0001
0000
1000
0000
0100
0010
0100
0010
0001
0000
1000
0000
0010
1000
,
0010
0000
1000
0000
0001
0000
1000
0100
1000
0100
0010
0000
0001
0010
0001
1000
,
0010
0100
0001
1000
0001
0000
1000
0000
0010
0000
1000
0001
0010
0000
0100
0000
,
1000
0001
1000
0001
0010
0100
1000
0001
1000
0000
0001
0100
0001
0000
1000
0000
,
1001
0M00
00M0
0M00
0000
M000
000M
0M00
,
0001
0000
1001
0000
1000
0000
0001
0100
,
0101
M000
00M0
M000
0000
000M
0M00
00M0
,
0001
0010
0100
0010
0001
0000
1001
0000
,
1100
00M0
000M
00M0
0000
M000
00M0
M000
,
0100
1000
0000
1100
0000
0100
1000
0001
,
0101
M000
000M
M000
0000
00M0
M000
00M0
,
0100
0001
0010
0100
1000
0001
0100
0001
,
1001
2000
3200
0320
0031
2000
3020
0230
,
0301
0200
0302
2003
3200
0300
0000
0000
,
0020
0230
2300
3002
0103
0020
2030
3002
,
1003
0020
0230
0320
0230
0300
0000
0000
,
0001
0010
0100
1000
0001
1000
0100
0010
0001
1000
0010
1000
0001
0100
0010
1000
,
0001
0010
0100
0010
0001
1000
0100
0010
0001
1000
0010
1000
0001
0100
0010
1000
,
0001
0010
0100
0010
0001
1000
0100
0010
0001
1000
0001
0100
0010
1000
0001
0010
,
0001
0000
1000
0000
0001
0000
0100
0000
0001
0100
0001
0100
0010
0000
1000
0000
,
1001
0001
0100
0020
0000
0130
0010
2000
,
0000
0000
3001
0000
0010
0000
0100
0000
1000
0001
1000
0000
0100
0000
0010
0000
,
0001
1000
0100
0020
0000
0031
1000
0020
,
0000
0000
0130
0000
0001
0000
1000
0000
0010
1000
0001
0000
0010
0000
0100
0000
,
1000
0100
0010
0002
0000
1003
0010
0200
,
0000
0000
0310
0000
0100
0000
0001
0000
1000
0001
1000
0000
0010
0000
0100
0000
,
0001
1000
0010
2000
0000
3001
0010
0200
,
0000
0000
1300
0000
0001
0000
0100
0000
0010
1000
0001
0100
0001
0000
1000
0000
,
1001
0001
0100
0020
0000
1030
0001
0200
,
0000
0000
0310
0000
1000
0000
0001
0000
0010
0100
1000
0000
0001
0000
1000
0000
,
0100
1000
0001
0020
0000
0031
1000
0020
,
0000
0000
0130
0000
0001
0000
1000
0000
0010
0100
0001
0000
1000
0000
0010
0000
,
1000
0001
0100
0010
0100
0001
1000
0010
1000
0001
0010
0001
1000
0100
0010
0001
,
1000
0010
1000
0001
0100
0010
0100
0001
1000
0100
0010
0100
1000
0001
0010
0100
,
1000
0001
0100
0010
1000
0001
0100
0010
1000
0001
0010
0001
1000
0100
0010
0001
,
4000
0000
0000
0000
0000
0000
0000
0000
0000
0000
0000
0000
3001
0100
0010
1000
,
0001
0000
1000
0100
1100
0000
1000
0001
,
0101
0000
0000
0000
0100
0000
0001
0000
0010
0100
1000
0000
0001
0000
0100
0000
,
0101
0000
0001
0100
0110
0000
0010
1000
,
1100
0000
0000
0000
0100
0000
0010
0000
0001
1000
0001
0000
0100
0000
0001
0000
,
1000
0000
0400
0300
0010
0000
0004
0003
1000
0000
0400
0300
0010
0000
0004
0003
,
1000
0010
0100
0010
1000
0001
0100
0010
0100
0001
1000
0001
0100
0010
0100
0001
,
1000
0100
0010
0001
1000
0100
0010
0100
1000
0001
0100
0010
0100
0001
1000
0010
,
1000
0001
0010
0100
1000
0001
0010
0001
1000
0010
0100
0010
1000
0001
0100
0010
,
1000
0100
0010
0001
0100
0010
1000
0010
,
0100
0000
0001
0000
1000
0000
0100
0000
0010
0001
1000
0000
0001
0000
0100
0000
,
0010
0100
0001
0010
0100
1000
0001
0100
,
0010
0000
0100
0000
0001
0000
1000
0000
0100
0010
0001
0000
1000
0000
0010
0000
,
0100
0001
1000
0100
0010
0001
0010
0100
,
1000
0000
0001
0000
0100
0000
0010
0000
1000
0001
0100
0000
0010
0000
1000
0000
,
0001
0010
0100
1000
0001
0100
0010
1000
,
0001
0000
0010
0000
0100
0000
1000
0000
0100
0010
0001
1000
0001
0000
0100
0000
,
0001
0010
0100
1000
0001
0010
0100
1000
,
0001
0010
0100
1000
0002
0000
1003
0MM0
,
1000
0010
0100
0001
1000
0010
0100
0001
,
1000
0000
0100
0010
0001
0000
1000
0010
0200
0000
0000
0000
0301
0000
00M0
0000
,
0001
0000
0010
0000
0100
0000
1000
0000
0010
0000
0100
0000
0001
0100
0001
0100
,
0010
0000
1000
0000
0010
0000
0100
0000
0010
0000
1000
0000
0001
0100
0010
1000
,
0001
0000
1000
0100
1000
0000
0001
0100
,
0000
0001
0100
0001
0020
0000
0130
0000
,
1100
0000
0000
0000
1001
0000
1000
0001
,
2002
0000
0000
0MM0
0000
0000
0MM0
0000
,
3003
0MM0
0000
0000
0MM0
0000
0000
0MM0
,
0000
0MM0
0000
0000
;
