#TITLE:Schlagwerk;
#SUBTITLE:;
#ARTIST:TaQ;
#TITLETRANSLIT:;
#SUBTITLETRANSLIT:;
#ARTISTTRANSLIT:;
#CREDIT:;
#BANNER:schlagwerk.png;
#BACKGROUND:schlagwerkbg.png;
#LYRICSPATH:;
#CDTITLE:dm.jpg;
#MUSIC:17 Schlagwerk.mp3;
#OFFSET:1.560;
#SAMPLESTART:60.010;
#SAMPLELENGTH:11.340;
#SELECTABLE:YES;
#BPMS:0.000=125.000;
#STOPS:;
#BGCHANGES:;
// cache tags:
#FIRSTBEAT:4.000;
#LASTBEAT:196.000;
#SONGFILENAME:Songs/Fabulously Fresh Flock of Fantastic Files F5/(Dark Mage) Schlagwerk/Schlagwerk.sm;
#HASMUSIC:1;
#HASBANNER:1;
#MUSICLENGTH:96.339;
// end cache tags

//---------------dance-single - ----------------
#NOTES:
     dance-single:
     :
     Hard:
     11:
     1.000,0.941,1.000,0.073,1.000,596.000,107.000,7.000,0.000,0.000:
0000
0000
0000
0000
,
1000
0010
0100
0001
0000
0000
1000
0000
0001
0010
0100
1000
0001
1000
0000
0000
,
1000
0010
0100
0001
0000
0000
0010
0000
0100
1000
0010
0100
0001
1000
0000
0000
,
0001
0010
0100
1000
0000
0000
0010
0000
1000
0010
0100
0001
1000
0001
0000
0000
,
1000
0100
1000
0010
0000
0000
0100
0000
0001
0100
0001
1000
0000
0001
0000
0000
,
0001
0010
0100
1000
0011
0000
0100
0010
1000
0001
0100
0010
1001
0000
0110
0000
,
0100
0010
0001
1000
1100
0000
0010
1000
0100
0010
0001
0100
1001
0000
0110
0000
,
1000
0100
0010
0001
0101
0000
0010
1000
0001
0100
0010
0100
1001
0000
1010
0000
,
0100
0001
1000
0100
1010
0000
0001
0100
0010
1000
0100
0010
0001
0000
1000
0000
,
0010
1000
0010
0100
0010
1000
0010
1000
0010
0100
0010
1000
0010
0100
0010
0100
,
0001
1000
0001
0100
0001
1000
0001
1000
0001
0100
0001
1000
0001
0100
0001
0100
,
0010
1000
0001
0100
0001
1000
0010
1000
0001
0100
0010
0100
0010
1000
0001
0100
,
0010
1000
0010
0100
0001
1000
0001
0100
0010
1000
0010
0100
0001
0010
0001
1000
,
0101
0000
1010
0000
0000
0000
1001
0000
0101
0000
0000
1010
0000
0000
0101
0000
,
1001
0000
1010
0000
0000
0000
0101
0000
1010
0000
0000
0110
0000
0000
0000
0100
,
1001
0100
0010
1000
0000
0000
0101
0000
1010
0000
0000
0101
0000
0000
0011
0000
,
1001
0000
0000
0000
0000
0000
0000
0000
1010
0000
0000
0101
0000
0000
0011
0000
,
1001
0100
0010
0001
0011
0000
0101
0000
0010
1000
0001
0100
1001
0000
1010
0000
,
0100
0001
1000
0100
1010
0000
1100
0000
0010
0001
1000
0100
1001
0000
0011
0000
,
0001
1000
0010
0100
0011
0000
1100
0000
0010
0001
1000
0010
0101
0000
0110
0000
,
0001
1000
0100
1000
0110
0000
0101
0000
0010
1000
0100
0010
0000
0001
1000
0100
,
1000
0010
0100
0001
0011
0000
1001
0100
0010
0001
1000
0010
1100
0000
0001
0100
,
0010
1000
0100
0010
1100
0000
1001
0010
0001
1000
0001
0010
0101
0000
0010
0100
,
1000
0001
0010
0100
1010
0000
1001
0010
0001
1000
0010
0100
0011
0000
1000
0100
,
1000
0010
0100
0001
0110
0000
1001
0100
0010
1000
0001
0100
1010
0100
0001
1000
,
0100
0010
0000
0001
0100
0000
0010
1000
0001
0100
0000
0010
1000
0000
0100
0010
,
0001
1000
0000
0010
0100
0000
0001
0100
0010
1000
0000
0100
0010
0000
0001
1000
,
0010
0100
0000
0001
0010
0000
0100
1000
0010
0100
0000
0001
0010
0000
0100
1000
,
0010
0100
0000
0010
1000
0000
0001
0010
0100
1000
0000
0100
0010
0000
0001
1000
,
0010
1000
0100
1000
0010
0100
0001
0010
0001
0100
0010
1000
0100
1000
0010
0100
,
0001
0010
0100
0010
0001
0100
0010
1000
0100
0010
0100
1000
0010
0100
0001
0010
,
0100
1000
0010
0100
0001
0010
0100
1000
0010
0100
0010
1000
0100
0010
0001
1000
,
0100
0011
0000
0101
0000
0000
1010
0000
0002
0000
0000
2000
0000
0000
0000
3003
,
1000
0010
0100
0001
1100
0000
1010
0100
0001
1000
0100
0010
0101
0000
1001
0010
,
0100
0001
1000
0100
0011
0000
0101
0010
1000
0100
1000
0010
0101
0000
1010
0100
,
0001
0010
0100
1000
0011
0000
1001
0100
1000
0010
0100
0001
1010
0000
0101
0010
,
1000
0200
0000
0320
0000
0032
0000
0003
1010
0000
0000
0101
0000
0000
0011
0000
,
1000
0100
0010
0001
1010
0000
0101
0010
1000
0100
0010
0001
1100
0000
0011
0100
,
1000
0010
0100
0001
1010
0000
0110
1000
0001
0100
0010
1000
0101
0000
0011
0100
,
1000
0001
0010
0001
1010
0000
0101
0010
0001
0100
0010
1000
0110
0000
0011
1000
,
0100
1000
0010
0100
1001
0000
0011
0100
0001
0010
0001
1000
0000
0000
0101
0000
,
1000
0000
0011
0000
0101
0000
0010
1000
0100
1000
0010
0100
1010
0000
0001
1000
,
0100
0000
0011
0000
0101
0000
0010
1000
0100
1000
0010
0100
0011
0000
1000
0100
,
0010
0000
0101
0000
1010
0000
0100
0010
1000
0100
0010
0001
0110
0000
0001
1000
,
0010
0000
0110
0000
0101
0000
0010
1000
0010
0100
0001
0000
0000
1001
0000
0000
,
1000
0001
0010
0100
1010
0000
0100
0010
0001
1000
0001
0010
0101
0000
0010
1000
,
0001
0010
0001
0100
1010
0000
0100
0010
1000
0010
0100
0001
1001
0000
0100
0010
,
1000
0100
0010
0001
0011
0000
0001
0100
0010
1000
0100
1000
0010
0100
0001
1000
,
0100
0000
0010
0000
0001
0000
1000
0000
0100
0010
0001
1000
0100
0010
0001
1000
0200
0000
0000
0000
0000
0000
0000
0000
0002
0000
0000
0000
0000
0000
0000
0000
,
0303
0000
0000
0000
;
