#TITLE:960 BPM Speedcore;
#SUBTITLE:;
#ARTIST:m1dy;
#TITLETRANSLIT:;
#SUBTITLETRANSLIT:;
#ARTISTTRANSLIT:;
#CREDIT:;
#BANNER:960 BPM Speedcore - BN.png;
#BACKGROUND:960 BPM Speedcore - BG.png;
#LYRICSPATH:;
#CDTITLE:cd-yanah.PNG;
#MUSIC:m1dy - 960 BPM Speedcore.mp3;
#OFFSET:-0.050;
#SAMPLESTART:96.000;
#SAMPLELENGTH:20.000;
#SELECTABLE:YES;
#BPMS:0.000=60.100,24.000=240.000,40.000=960.000,111.333=240.000,112.000=960.000,432.000=60.000,436.000=960.000,660.000=240.000,688.000=960.000,1136.000=60.000,1140.000=240.000,1172.000=960.000,1684.000=240.000;
#STOPS:40.000=6.000
,111.333=4.875
,499.333=1.000
,563.333=1.000
,660.000=1.000
,680.000=5.500
,1136.000=3.000
;
#BGCHANGES:;
// cache tags:
#FIRSTBEAT:0.000;
#LASTBEAT:1701.000;
#SONGFILENAME:Songs/new again/960 BPM Speedcore/m1dy - 960 BPM Speedcore.sm;
#HASMUSIC:1;
#HASBANNER:1;
#MUSICLENGTH:178.030;
// end cache tags

//---------------dance-single - Blank----------------
#NOTES:
     dance-single:
     Blank:
     Challenge:
     21:
     1.000,1.000,1.000,0.022,0.924,1681.000,998.000,4.000,0.000,21.000:

0220
0000
0000
0000
0001
0000
0000
0000
1000
0000
0001
0000
1000
0001
0000
0000
,
1000
0000
0001
0000
1000
0001
0000
0000
1000
0000
0001
0000
1000
0001
0000
0000
,
1000
0000
0001
0000
1000
0001
0000
0000
1000
0000
0001
0000
1000
0001
0000
0000
,
0330
0000
0000
0000
,
1100
0000
0011
1100
0000
0011
1100
0000
0011
1100
0000
0011
,
1100
0000
0000
0000
0011
0000
1100
0000
0000
0000
0011
0000
1100
0000
0000
0000
0011
0000
1000
0100
0000
0001
0000
0000
,
0100
0000
0100
0000
0100
0000
0100
1000
,
0100
0000
0000
0000
0100
0000
0000
0000
0100
0000
0000
0000
0100
0000
0000
0100
,
0001
0000
0001
0000
0001
0000
0001
0100
,
1000
0000
0000
0000
1000
0000
0000
0000
1000
0000
0000
0000
1000
0000
0000
0001
,
1000
0000
0000
0000
,
0000
0000
0000
0000
,
1000
0000
0000
0000
0010
0000
0100
0000
0000
0000
0001
0000
,
1000
0000
0000
0000
0100
0000
1000
0000
0000
0000
0001
0000
,
1000
0000
0000
0000
0010
0000
0100
0000
0000
0000
1000
0000
,
0010
0000
0000
0000
0100
0000
0001
0000
0000
0000
0100
0000
,
0010
0000
0000
0000
1000
0000
0100
0000
0000
0000
0001
0000
,
0100
0000
0000
0000
0010
0000
1000
0000
0000
0000
1000
0000
,
0010
0000
0000
0000
0100
0000
1000
0000
0000
0000
0001
0000
,
0010
0000
0000
0000
0100
0000
1000
0000
0000
0000
0001
0000
,
0100
0000
0000
0000
1000
0000
0010
0000
0000
0000
0001
0000
,
0010
0000
0000
0000
1000
0000
0100
0000
0000
0000
0001
0000
,
0010
0000
0000
0000
0100
0000
1000
0000
0000
0000
0001
0000
,
0100
0000
0000
0000
1000
0000
0100
0000
0000
0000
0010
0000
,
0100
0000
0000
0000
1000
0000
0010
0000
0000
0000
1000
0000
,
0001
0000
0000
0000
0100
0000
1000
0000
0000
0000
0010
0000
,
1000
0000
0000
0000
0100
0000
0010
0000
0000
0000
0001
0000
,
1000
0000
0000
0000
0100
0000
0010
0000
0000
0000
0001
0000
,
0010
0000
0000
0000
0100
0000
1000
0000
0000
0000
0001
0000
,
1000
0000
0000
0000
0100
0000
0010
0000
0000
0000
0001
0000
,
0010
0000
0000
0000
1000
0000
0100
0000
0000
0000
0001
0000
,
0100
0000
0000
0000
1000
0000
0100
0000
0000
0000
0010
0000
,
1000
0000
0000
0000
0100
0000
1000
0000
0000
0000
0001
0000
,
0010
0000
0000
0000
0100
0000
0010
0000
0000
0000
1000
0000
,
0010
0000
0000
0000
0100
0000
0001
0000
0000
0000
0010
0000
,
0100
0000
0000
0000
1000
0000
0100
0000
0000
0000
0001
0000
,
0100
0000
0000
0000
1000
0000
0010
0000
0000
0000
0001
0000
,
1010
0000
0000
0000
0100
0000
1000
0000
0000
0000
0010
0000
,
1000
0000
0000
0000
0100
0000
0010
0000
0000
0000
0001
0000
,
0110
0000
0000
0000
1000
0000
0100
0000
0000
0000
0001
0000
,
0100
0000
0000
0000
1000
0000
0010
0000
0000
0000
0001
0000
,
1010
0000
0000
0000
0100
0000
1000
0000
0000
0000
0010
0000
,
0100
0000
0000
0000
1000
0000
0100
0000
0000
0000
0001
0000
,
1010
0000
0000
0000
0100
0000
0010
0000
0000
0000
0001
0000
,
1000
0000
0000
0000
0010
0000
0100
0000
0000
0000
0001
0000
,
1100
0000
0000
0000
0010
0000
1000
0000
0000
0000
0001
0000
,
1000
0000
0000
0000
0100
0000
0010
0000
0000
0000
0001
0000
,
1100
0000
0000
0000
0010
0000
0100
0000
0000
0000
0001
0000
,
1000
0000
0000
0000
0100
0000
1000
0000
0000
0000
0001
0000
,
0110
0000
0000
0000
1000
0000
0100
0000
0000
0000
0001
0000
,
0100
0000
0000
0000
0010
0000
1000
0000
0000
0000
0100
0000
,
1001
0000
0000
0000
0010
0000
0100
0000
0000
0000
0001
0000
,
0010
0000
0000
0000
0100
0000
1000
0000
0000
0000
0001
0000
,
0110
0000
0000
0000
1000
0000
0010
0000
0000
0000
0001
0000
,
1000
0000
0000
0000
0100
0000
0010
0000
0000
0000
0001
0000
,
1010
0000
0000
0000
0100
0000
0001
0000
0000
0000
1000
0000
,
0100
0000
0000
0000
0010
0000
0001
0000
0000
0000
0100
0000
,
1001
0000
0000
0000
0010
0000
0100
0000
0000
0000
0001
0000
,
1000
0000
0000
0000
0100
0000
1000
0000
0000
0000
0001
0000
,
1100
0000
0000
0000
0010
0000
0100
0000
0000
0000
1000
0000
,
0001
0000
0000
0000
0010
0000
0100
0000
0000
0000
1000
0000
,
0001
0000
0000
0000
0100
0000
0100
0000
0000
0000
0000
0000
,
0100
0000
0100
0000
,
0100
0000
0000
0000
1000
0000
0100
0000
0000
0000
0010
0000
,
0001
0000
0000
0000
0001
0000
0010
0000
0000
0000
0100
0000
,
1000
0000
0000
0000
1000
0000
0010
0000
0000
0000
0000
0000
,
0010
0000
0010
0000
,
0010
0000
0000
0000
0001
0000
1000
0000
0000
0000
1000
0000
,
0110
0000
0000
0000
0110
0000
1001
0000
0000
0000
1001
0000
,
1010
0000
0000
0000
1010
0000
0101
0000
0000
0000
0101
0000
,
1100
0000
0000
0000
1100
0000
0011
0000
0000
0000
0011
0000
,
1100
0000
0000
0000
1100
0000
0110
0000
0000
0000
0110
0000
,
0101
0000
0000
0000
0101
0000
1001
0000
0000
0000
1001
0000
,
1010
0000
0000
0000
1010
0000
0110
0000
0000
0000
0110
0000
,
0011
0000
0000
0000
0011
0000
0110
0000
0000
0000
0110
0000
,
1010
0000
0000
0000
1010
0000
0101
0000
0000
0000
0101
0000
,
1001
0000
0000
0000
1001
0000
1100
0000
0000
0000
1100
0000
,
0101
0000
0000
0000
0101
0000
1010
0000
0000
0000
1010
0000
,
1100
0000
0000
0000
1100
0000
0110
0000
0000
0000
0110
0000
,
1100
0000
0000
0000
1100
0000
0101
0000
0000
0000
0101
0000
,
1010
0000
0000
0000
1010
0000
0110
0000
0000
0000
0110
0000
,
1001
0000
0000
0000
1001
0000
0011
0000
0000
0000
0011
0000
,
1100
0000
0000
0000
1100
0000
0101
0000
0000
0000
0101
0000
,
0110
0000
0000
0000
0110
0000
1001
0000
0000
0000
1001
0000
,
1010
0000
0000
0000
1010
0000
0110
0000
0000
0000
0110
0000
,
0011
0000
0000
0000
0011
0000
1010
0000
0000
0000
1010
0000
,
0101
0000
0000
0000
0101
0000
1001
0000
0000
0000
1001
0000
,
1001
0000
0000
0000
1001
0000
0110
0000
0000
0000
0110
0000
,
1100
0000
0000
0000
1100
0000
0011
0000
0000
0000
0011
0000
,
0101
0000
0000
0000
0101
0000
1010
0000
0000
0000
1010
0000
,
0101
0000
0000
0000
0101
0000
1001
0000
0000
0000
1001
0000
,
0011
0000
0000
0000
0011
0000
0110
0000
0000
0000
0110
0000
,
1100
0000
0000
0000
1100
0000
1001
0000
0000
0000
1001
0000
,
1010
0000
0000
0000
1010
0000
1001
0000
0000
0000
1001
0000
,
1100
0000
0000
0000
1100
0000
0011
0000
0000
0000
0011
0000
,
0110
0000
0000
0000
0110
0000
0101
0000
0000
0000
0101
0000
,
0011
0000
0000
0000
0011
0000
1100
0000
0000
0000
1100
0000
,
1001
0000
0000
0000
1001
0000
0110
0000
0000
0000
0110
0000
,
0011
0000
0000
0000
0011
0000
1100
0000
0000
0000
1100
0000
,
1010
0000
0000
0000
1010
0000
0101
0000
0000
0000
0101
0000
,
1000
0000
0000
0000
1000
0000
0001
0000
0000
0000
0001
0000
,
1000
0000
0000
0000
1000
0000
0010
0000
0000
0000
0010
0000
,
0001
0000
0000
0000
0001
0000
1000
0000
0000
0000
1000
0000
,
0001
0000
0000
0000
0001
0000
1000
0000
0000
0000
1000
0000
,
0001
0000
0000
0000
0001
0000
0100
0000
0000
0000
0100
0000
,
0010
0000
0000
0000
0010
0000
1000
0000
0000
0000
1000
0000
,
0100
0000
0000
0000
0100
0000
0001
0000
0000
0000
0001
0000
,
0100
0000
0000
0000
0100
0000
0010
0000
0000
0000
0010
0000
,
0000
0000
0000
0000
,
0110
0000
0000
0000
0110
0000
1001
0000
0000
0000
1001
0000
,
1010
0000
0000
0000
1010
0000
0101
0000
0000
0000
0101
0000
,
1100
0000
0000
0000
1100
0000
0011
0000
0000
0000
0011
0000
,
1100
0000
0000
0000
1100
0000
0110
0000
0000
0000
0110
0000
,
0101
0000
0000
0000
0101
0000
1001
0000
0000
0000
1001
0000
,
1010
0000
0000
0000
1010
0000
0110
0000
0000
0000
0110
0000
,
0011
0000
0000
0000
0011
0000
0110
0000
0000
0000
0110
0000
,
1010
0000
0000
0000
1010
0000
0101
0000
0000
0000
0101
0000
,
1001
0000
0000
0000
1001
0000
1100
0000
0000
0000
1100
0000
,
0101
0000
0000
0000
0101
0000
1010
0000
0000
0000
1010
0000
,
1100
0000
0000
0000
1100
0000
0110
0000
0000
0000
0110
0000
,
1100
0000
0000
0000
1100
0000
0101
0000
0000
0000
0101
0000
,
1010
0000
0000
0000
1010
0000
0110
0000
0000
0000
0110
0000
,
1001
0000
0000
0000
1001
0000
0011
0000
0000
0000
0011
0000
,
1100
0000
0000
0000
1100
0000
0101
0000
0000
0000
0101
0000
,
0110
0000
0000
0000
0110
0000
1001
0000
0000
0000
1001
0000
,
1100
0000
0000
0000
1100
0000
0011
0000
0000
0000
0011
0000
,
0101
0000
0000
0000
0101
0000
1010
0000
0000
0000
1010
0000
,
0101
0000
0000
0000
0101
0000
1001
0000
0000
0000
1001
0000
,
0011
0000
0000
0000
0011
0000
0110
0000
0000
0000
0110
0000
,
1100
0000
0000
0000
1100
0000
1001
0000
0000
0000
1001
0000
,
1010
0000
0000
0000
1010
0000
1001
0000
0000
0000
1001
0000
,
1100
0000
0000
0000
1100
0000
0011
0000
0000
0000
0011
0000
,
0110
0000
0000
0000
0110
0000
0101
0000
0000
0000
0101
0000
,
0011
0000
0000
0000
0011
0000
1100
0000
0000
0000
1100
0000
,
1001
0000
0000
0000
1001
0000
0110
0000
0000
0000
0110
0000
,
0011
0000
0000
0000
0011
0000
1100
0000
0000
0000
1100
0000
,
1010
0000
0000
0000
1010
0000
0101
0000
0000
0000
0101
0000
,
0110
0000
0000
0000
0110
0000
1001
0000
0000
0000
1001
0000
,
1010
0000
0000
0000
1010
0000
0101
0000
0000
0000
0101
0000
,
1100
0000
0000
0000
1100
0000
0011
0000
0000
0000
0011
0000
,
1100
0000
0000
0000
1100
0000
0110
0000
0000
0000
0110
0000
,
1001
0000
0000
0000
1001
0000
1100
0000
0000
0000
1100
0000
,
0101
0000
0000
0000
0101
0000
1010
0000
0000
0000
1010
0000
,
1100
0000
0000
0000
1100
0000
0110
0000
0000
0000
0110
0000
,
1100
0000
0000
0000
1100
0000
0101
0000
0000
0000
0101
0000
,
1010
0000
0000
0000
1010
0000
0110
0000
0000
0000
0110
0000
,
1001
0000
0000
0000
1001
0000
0011
0000
0000
0000
0011
0000
,
1100
0000
0000
0000
1100
0000
0101
0000
0000
0000
0101
0000
,
0110
0000
0000
0000
0110
0000
1001
0000
0000
0000
1001
0000
,
1010
0000
0000
0000
1010
0000
0110
0000
0000
0000
0110
0000
,
0011
0000
0000
0000
0011
0000
1010
0000
0000
0000
1010
0000
,
0101
0000
0000
0000
0101
0000
1001
0000
0000
0000
1001
0000
,
1001
0000
0000
0000
1001
0000
0110
0000
0000
0000
0110
0000
,
1100
0000
0000
0000
1100
0000
0011
0000
0000
0000
0011
0000
,
0101
0000
0000
0000
0101
0000
1010
0000
0000
0000
1010
0000
,
0101
0000
0000
0000
0101
0000
1001
0000
0000
0000
1001
0000
,
0011
0000
0000
0000
0011
0000
0110
0000
0000
0000
0110
0000
,
0100
0000
0000
0000
0100
0000
1000
0000
0000
0000
1000
0000
,
0010
0000
0000
0000
0010
0000
0001
0000
0000
0000
0001
0000
,
0100
0000
0000
0000
0100
0000
0001
0000
0000
0000
0001
0000
,
0100
0000
0000
0000
0100
0000
0001
0000
0000
0000
0001
0000
,
0010
0000
0000
0000
0010
0000
1000
0000
0000
0000
1000
0000
,
0001
0000
0000
0000
0001
0000
0010
0000
0000
0000
0010
0000
,
0001
0000
0000
0000
0001
0000
0100
0000
0000
0000
0100
0000
,
1000
0000
0000
0000
1000
0000
0001
0000
0000
0000
0001
0000
,
1001
0000
0000
0000
,
0100
0000
0100
0000
0100
0000
0100
1000
,
0100
0000
0000
0000
0100
0000
0000
0000
0100
0000
0000
0000
0100
0000
0000
0100
,
0001
0000
0001
0000
0001
0000
0001
0100
,
1000
0000
0000
0000
1000
0000
0000
0000
1000
0000
0000
0000
1000
0000
0000
0001
,
0100
0000
0000
0000
,
0000
0000
0000
0000
,
1010
0001
1010
0100
,
1010
0001
1010
0100
,
1010
0001
1010
0100
,
1010
0001
1010
0100
,
1010
0001
1100
0010
,
1010
0001
1100
0100
,
1010
0001
1010
0100
,
1010
0001
1010
0100
,
0011
0100
0011
1000
,
0011
0100
0011
1000
,
0011
0100
0011
1000
,
0011
0100
0011
1000
,
0011
0100
1010
0001
,
0011
0100
1010
1000
,
0011
0100
0011
1000
,
0011
0100
0011
1000
,
0101
1010
0101
1010
,
0101
1010
0101
1010
,
0101
1010
0101
1010
,
0101
1010
0101
1010
,
0101
1010
0011
1100
,
0101
1010
0011
1100
,
0101
1010
0101
1010
,
0101
1010
0101
1010
,
1100
0011
1100
0011
,
1100
0011
1100
0011
,
1100
0011
1100
0011
,
1100
0011
1100
0011
,
1100
0011
0101
1010
,
1100
0011
0101
1010
,
1100
0011
1100
0011
,
1100
0011
1100
0011
,
1010
0101
1010
0101
,
1010
0101
1010
0101
,
1010
0101
1010
0101
,
1010
0101
1010
0101
,
1010
0101
1100
0011
,
1010
0101
1100
0011
,
1010
0101
1010
0101
,
1010
0101
1010
0101
,
0011
1100
0011
1100
,
0011
1100
0011
1100
,
0011
1100
0011
1100
,
0011
1100
0011
1100
,
0011
1100
1010
0101
,
0011
1100
1010
0101
,
0011
1100
0011
1100
,
0011
1100
0011
1100
,
1001
0000
0110
0000
,
0011
0110
1100
0000
,
1001
0000
1100
0110
,
0011
0000
0110
0000
,
0110
0000
1001
0000
,
1010
1001
0101
0000
,
0110
0000
0101
1001
,
1010
0000
1001
0000
,
1001
0000
0110
0000
,
1100
0110
0011
0000
,
1001
0000
0011
0110
,
1100
0000
0110
0000
,
0110
0000
1001
0000
,
0101
1001
1010
0000
,
0110
0000
1010
1001
,
0101
0000
1001
0000
,
0101
1010
0101
1010
,
0101
1010
0101
1010
,
0101
1010
0101
1010
,
0101
1010
0101
1010
,
0101
1010
0011
1100
,
0101
1010
0011
1100
,
0101
1010
0101
1010
,
0101
1010
0101
1010
,
1100
0011
1100
0011
,
1100
0011
1100
0011
,
1100
0011
1100
0011
,
1100
0011
1100
0011
,
1100
0011
0101
1010
,
1100
0011
0101
1010
,
1100
0011
1100
0011
,
1100
0011
1100
0011
,
1100
0000
1100
0000
,
1100
0110
0011
0000
,
0011
0000
0011
0101
,
1001
0000
1001
0000
,
0101
0000
0101
0000
,
0101
1001
1010
0000
,
1010
0000
1010
0011
,
0110
0000
0110
0000
,
0011
0000
0011
0000
,
0011
0110
1100
0000
,
1100
0000
1100
1010
,
1001
0000
1001
0000
,
1010
0000
1010
0000
,
1010
1001
0101
0000
,
0101
0000
0101
1100
,
0110
0000
0110
0000
,
1100
0011
1100
0011
,
1100
0011
1100
0011
,
1100
0011
1100
0011
,
1100
0011
1100
0011
,
0101
1010
0101
1010
,
0101
1010
0101
1010
,
0101
1010
0101
1010
,
0101
1010
0101
1010
,
1001
0110
1001
0110
,
1001
0110
1001
0110
,
1001
0110
1001
0110
,
1001
0110
1001
0110
,
0011
1100
0011
1100
,
0011
1100
0011
1100
,
0011
1100
0011
1100
,
0011
1100
0011
1100
,
0110
0000
0110
0000
,
0110
0000
1000
0000
0001
0100
0001
0000
1000
0000
0100
0001
0100
0000
1000
0000
,
0010
0000
0100
0000
0001
0000
0010
0000
1000
0000
0001
0000
0100
1000
0100
0000
,
1010
0000
0001
0000
0010
0000
0001
0000
0010
0000
0001
0010
0100
1000
0010
0000
,
1001
0000
0100
0000
0001
0000
1000
0000
0100
0000
0001
0000
0010
0100
1000
0000
,
0011
0000
0100
0000
0010
0000
1000
0000
0101
0000
1000
0000
0010
0001
0100
0000
,
0011
1000
0100
0000
0001
0000
1000
0000
0101
0000
1000
0000
0010
0000
0100
0000
,
0001
0000
0010
0100
1000
0010
0001
0000
1000
0000
0001
0010
1000
0100
0001
0000
,
0010
0000
0100
0000
0010
0000
0100
0000
0010
0000
0001
0010
0100
1000
0001
0000
,
1000
0100
0010
0001
,
1000
0100
0010
0001
,
0010
0100
0010
0001
,
1000
0010
0100
1000
,
0001
0100
0010
1000
,
0001
0010
0100
0001
,
1000
0010
0001
0100
,
0001
1000
0010
0100
,
1100
0100
0110
0010
,
0011
0001
1001
1000
,
1010
0010
0110
0100
,
0101
0001
0011
0010
,
1010
1000
1100
0100
,
0101
0001
1001
1000
,
1100
0100
0110
0010
,
0011
0001
1001
1000
,
1010
0010
0110
0100
,
0101
0001
0011
0010
,
1010
1000
1100
0100
,
0101
0001
1001
1000
,
1100
0100
0110
0010
,
0011
0001
1001
1000
,
1010
0010
0110
0100
,
0101
0001
0011
0010
,
1010
1000
1100
0100
,
0101
0001
1001
1000
,
1100
0100
0110
0010
,
0011
0001
1001
1000
,
1010
0010
0110
0100
,
0101
0001
0011
0010
,
1010
1000
1100
0100
,
0101
0001
1001
1000
,
1100
0100
0110
0010
,
0011
0001
1001
1000
,
1010
0010
0110
0100
,
0101
0001
0011
0010
,
1010
1000
1100
0100
,
0101
0001
1001
1000
,
1100
0100
0110
0010
,
0011
0001
1001
1000
,
0001
0001
0010
0010
,
0100
0100
1000
1000
,
0001
0001
0100
0100
,
0010
0010
1000
1000
,
0100
0100
0001
0001
,
1000
1000
0010
0010
,
0100
0100
0010
0010
,
0001
0001
1000
1000
,
0010
0010
0100
0100
,
0001
0001
1000
1000
,
0010
0010
0001
0001
,
1000
1000
0100
0100
,
0001
0001
1000
1000
,
0010
0010
0100
0100
,
0001
0001
0010
0010
,
0100
0100
1000
1000
,
0011
1100
0011
1100
,
0011
1100
0011
1100
,
0110
1001
0110
1001
,
0110
1001
0110
1001
,
0011
1100
0011
1100
,
0011
1100
0011
1100
,
1001
0110
1001
0110
,
1001
0110
1001
0110
,
1010
0101
1010
0101
,
1010
0101
1010
0101
,
1001
0110
1001
0110
,
1001
0110
1001
0110
,
0101
1010
0101
1010
,
0101
1010
0101
1010
,
0110
1001
0110
1001
,
0110
1001
0110
1001
,
1100
1100
0110
0110
,
0011
0011
0110
0110
,
1001
1001
0110
0110
,
1100
1100
0011
0011
,
0110
0110
1001
1001
,
0110
0110
1100
1100
,
0110
0110
0011
0011
,
1001
1001
0110
0110
,
1100
1100
0011
0011
,
0110
0110
0101
0101
,
1010
1010
1100
1100
,
1001
1001
0110
0110
,
0011
0011
1100
1100
,
0011
0011
1001
1001
,
0110
0110
1100
1100
,
0011
0011
1001
1001
,
0110
0110
1100
1100
,
0011
0011
0110
0110
,
1001
1001
1100
1100
,
1001
1001
0110
0110
,
0011
0011
0101
0101
,
1100
1100
0110
0110
,
1001
1001
0110
0110
,
1100
1100
0011
0011
,
0101
0101
1010
1010
,
1100
1100
0101
0101
,
0110
0110
1001
1001
,
1100
1100
0011
0011
,
0110
0110
1001
1001
,
0110
0110
1100
1100
,
0011
0011
0110
0110
,
1001
1001
1100
1100
,
0011
0011
0110
0110
,
0011
0011
0101
0101
,
1010
1010
1001
1001
,
1000
1000
0100
0100
,
0010
0010
0001
0001
,
1000
1000
0001
0001
,
0100
0100
0010
0010
,
1000
1000
0001
0001
,
0100
0100
0010
0010
,
0100
0100
0001
0001
,
1000
1000
0010
0010
,
0001
0001
1000
1000
,
0100
0100
0010
0010
,
0001
0001
0010
0010
,
0100
0100
1000
1000
,
0001
0001
0100
0100
,
0010
0010
1000
1000
,
0100
0100
0100
0100
,
0010
0010
0010
0010
,
0001
0001
0001
0001
,
1000
1000
1000
1000
,
0100
0100
0100
0100
,
0001
0001
0001
0001
,
0010
0010
0010
0010
,
0110
0000
0000
0000
,
1001
0000
0000
0000
,
0110
0000
0000
0000
,
1001
0000
0000
0000
,
0220
0330
0000
0000
;
