#TITLE:Mario-chi Survivor;
#SUBTITLE:;
#ARTIST:Cardboard Box ft. Koji Kondo;
#TITLETRANSLIT:;
#SUBTITLETRANSLIT:;
#ARTISTTRANSLIT:;
#CREDIT:Mad Matt;
#BANNER:../banner.png;
#BACKGROUND:../bg.png;
#LYRICSPATH:;
#CDTITLE:;
#MUSIC:Music.ogg;
#OFFSET:0.005;
#SAMPLESTART:25.527;
#SAMPLELENGTH:20.000;
#SELECTABLE:YES;
#BPMS:0.000=235.000;
#STOPS:;
#BGCHANGES:;
// cache tags:
#FIRSTBEAT:8.000;
#LASTBEAT:219.000;
#SONGFILENAME:Songs/Tachyon Epsilon Short Cuts/Mariochi Survivor - [Mad Matt]/Simfile.sm;
#HASMUSIC:1;
#HASBANNER:1;
#MUSICLENGTH:57.190;
// end cache tags

//---------------dance-single - Mad Matt----------------
#NOTES:
     dance-single:
     Mad Matt:
     Challenge:
     19:
     1.000,1.000,0.017,0.070,1.000,796.000,1.000,4.000,0.000,0.000:




0000
0000
0000
0000
,
0000
0000
0000
0000
,
1000
0001
0000
0001
0000
1000
0001
0000
,
1001
0000
0000
0000
0000
0000
0000
0000
1000
0001
0010
0001
0100
0010
0100
0001
,
1000
0100
1000
0010
0100
0001
1000
0010
1000
0100
1000
0001
0010
0100
1000
0010
,
0100
0001
1000
0001
0010
0001
0100
0010
0100
0001
1000
0001
0010
0100
1000
0001
,
0100
0010
1000
0001
0010
0100
1000
0010
0100
0001
1000
0100
0010
0100
1000
0010
,
0100
0001
1000
0100
1000
0001
0010
0100
0010
0100
1000
0001
0100
0010
1000
0001
,
1000
0100
1000
0010
0100
0001
1000
0010
1000
0100
1000
0001
0010
0100
1000
0010
,
0100
0001
1000
0001
0010
0001
0100
0010
0100
0001
1000
0001
0010
0100
1000
0001
,
0100
0010
1000
0001
0100
0001
0010
0001
1000
0100
0010
0001
1000
0100
1000
0010
,
0100
0001
1000
0100
1000
0001
0010
0100
0010
0001
1000
0001
0100
0010
1000
0001
,
1000
0100
1000
0010
0100
0001
1000
0010
1000
0100
1000
0001
0010
0100
1000
0010
,
0100
0001
1000
0001
0010
0001
0100
0010
0100
0001
1000
0001
0010
0100
1000
0001
,
0100
0010
1000
0001
0010
0100
1000
0010
0100
0001
1000
0100
0010
0100
1000
0010
,
0100
0001
1000
0100
1000
0001
0010
0100
0010
0100
1000
0001
0100
0010
1000
0001
,
1000
0100
1000
0010
0100
0001
1000
0010
1000
0100
1000
0001
0010
0100
1000
0010
,
0100
0001
1000
0001
0010
0001
0100
0010
0100
0001
1000
0001
0010
0100
1000
0001
,
0100
0010
1000
0001
0100
0001
0010
0001
1000
0100
0010
0001
1000
0100
1000
0010
,
0100
0001
1000
0100
0010
0001
1000
0010
0100
0001
0010
0100
1000
0010
0100
0001
,
1000
0100
0010
0001
1000
0010
1000
0001
0100
0001
0010
0001
1000
0100
1000
0001
,
1000
0010
0100
0001
0100
0001
0010
0100
1000
0010
0100
0001
1000
0100
0010
0001
,
1000
0001
0010
0001
0100
0010
0100
0001
1000
0100
1000
0001
0100
0010
1000
0001
,
1000
0100
1000
0001
0010
0001
0100
0010
1000
0001
1000
0100
1000
0001
0010
0001
,
1000
0010
0100
0001
1000
0100
1000
0001
0010
0001
0100
0001
1000
0010
1000
0001
,
1000
0100
0010
0001
0010
0001
0100
0010
1000
0100
0010
0001
1000
0010
0100
0001
,
1000
0001
0100
0001
0010
0100
0010
0001
1000
0010
1000
0001
0010
0100
1000
0001
,
1000
0010
1000
0001
0100
0001
0010
0100
1000
0001
1000
0010
1000
0100
0010
0001
,
1000
0010
1000
0100
1000
0001
0010
0001
0100
0010
1000
0001
1000
0100
0010
0100
,
1000
0010
1000
0001
0010
0001
0010
0100
1000
0001
0100
0010
1000
0001
1000
0100
,
0010
0001
1000
0010
1000
0001
0100
0001
0010
0100
1000
0001
1000
0010
0100
0001
,
1000
0100
1000
0001
0100
0010
1000
0100
0010
0001
0100
0010
1000
0001
0010
0100
,
0010
0001
1000
0010
1000
0001
0100
0001
0010
0100
1000
0001
1000
0010
0100
0010
,
1000
0100
1000
0001
0100
0001
0100
0010
1000
0001
0100
0010
1000
0001
0010
0001
,
0100
0010
1000
0001
0010
0100
1000
0001
0100
0010
1000
0100
0010
0001
1000
0001
,
0100
0010
1000
0001
1000
0100
0010
0001
0100
0010
1000
0001
0010
0100
1000
0001
,
0100
0010
1000
0100
1000
0001
0010
0001
0100
0010
1000
0001
1000
0100
0010
0100
,
1000
0010
1000
0001
0010
0001
0010
0100
1000
0001
0100
0010
1000
0001
1000
0100
,
0010
0001
1000
0010
1000
0001
0100
0001
0010
0100
1000
0001
1000
0010
0100
0001
,
1000
0100
1000
0001
0100
0010
1000
0100
0010
0001
0100
0010
1000
0001
0010
0100
,
0010
0001
1000
0010
1000
0001
0100
0001
0010
0100
1000
0001
1000
0010
0100
0010
,
1000
0100
1000
0001
0100
0001
0100
0010
1000
0001
0100
0010
1000
0001
0010
0001
,
0100
0010
1000
0001
0010
0100
1000
0001
0100
0010
1000
0100
0010
0001
1000
0001
,
0100
0010
1000
0001
1000
0100
0010
0001
0100
0010
1000
0001
0010
0100
1000
0001
,
0010
0001
0010
0001
1000
0010
0100
0001
1000
0100
0010
0100
1000
0010
0100
0001
,
1000
0001
1000
0010
0100
0001
0010
0100
0010
0100
1000
0001
1000
0010
0100
0001
,
1000
0100
1000
0100
0010
0001
0100
0001
1000
0100
1000
0010
0100
0010
0100
0001
,
1000
0100
0010
0001
1000
0001
0100
0010
1000
0001
0010
0100
1000
0010
1000
0001
,
0010
0100
0010
0100
1000
0001
0100
0010
1000
0100
1000
0001
0100
0010
0100
0001
,
1000
0001
1000
0010
0100
0001
1000
0100
0010
0001
0100
0010
1000
0100
0010
0001
,
1000
0100
1000
0010
0100
0010
1000
0001
0010
0001
0100
0010
0100
0001
1000
0100
,
2000
3000
0000
0000
0000
0000
0000
0000
0000
0000
0000
0000
0001
0100
0010
1000
,
0200
0300
0000
0000
0000
0000
0020
0030
0000
0000
0000
0000
0002
0003
0000
0000
,
1000
0100
0010
0001
1000
0010
1000
0100
0010
0001
0100
0001
1000
0100
0010
0001
,
0400
0000
0000
0300
0001
0100
0010
1000
0001
0010
0000
0000
;

//---------------dance-single - Mad Matt----------------
#NOTES:
     dance-single:
     Mad Matt:
     Hard:
     18:
     1.000,1.000,0.017,0.070,1.000,624.000,1.000,4.000,0.000,0.000:









0000
0000
0000
0000
,
0000
0000
0000
0000
,
1000
0001
0000
0001
0000
1000
0001
0000
,
1001
0000
0000
0000
0000
0000
0000
0000
1000
0001
0010
0001
0100
0010
0100
0001
,
1000
0010
0000
0100
0000
0000
0001
0000
,
1000
0100
0000
1000
0010
0000
0000
0000
,
0100
0000
0001
0000
1000
0000
0100
0000
0010
0000
0001
0000
,
1000
0010
0000
1000
0001
0000
0000
0000
,
1000
0100
0000
0010
0000
0000
0100
0000
,
1000
0010
0000
0100
0001
0000
0000
0000
,
1000
0000
0000
0100
0000
0000
0000
0000
0000
0010
0000
0000
0001
0000
0000
0000
0100
0000
0000
0000
0010
0000
0000
0000
,
1000
0001
0000
0010
0100
0000
0000
0000
,
1000
0100
0000
0010
0000
0000
0001
0000
,
1000
0010
0000
1000
0100
0000
0000
0000
,
0010
0000
0001
0000
1000
0000
0010
0000
0100
0000
0001
0000
,
1000
0100
0000
1000
0001
0000
0000
0000
,
1000
0010
0000
0100
0000
0000
0010
0000
,
1000
0100
0000
0010
0001
0000
0000
0000
,
1000
0000
0000
0100
0000
0000
0000
0000
0000
0010
0000
0000
0001
0000
0000
0000
0100
0000
0000
0000
0010
0000
0000
0000
,
0100
0001
1000
0100
0010
0001
1000
0010
0100
0001
0010
0100
1000
0010
0100
0001
,
1000
0100
0010
0001
1000
0010
1000
0001
0100
0001
0010
0001
1000
0100
1000
0001
,
1000
0010
0100
0001
0100
0001
0010
0100
1000
0010
0100
0001
1000
0100
0010
0001
,
1000
0001
0010
0001
0100
0010
0100
0001
1000
0100
1000
0001
0100
0010
1000
0001
,
1000
0100
1000
0001
0010
0001
0100
0010
1000
0001
1000
0100
1000
0001
0010
0001
,
1000
0010
0100
0001
1000
0100
1000
0001
0010
0001
0100
0001
1000
0010
1000
0001
,
1000
0100
0010
0001
0010
0001
0100
0010
1000
0100
0010
0001
1000
0010
0100
0001
,
1000
0001
0100
0001
0010
0100
0010
0001
1000
0010
1000
0001
0010
0100
1000
0001
,
1000
0010
1000
0001
0100
0001
0010
0100
1000
0001
1000
0010
1000
0100
0010
0001
,
1000
0010
1000
0100
1000
0001
0010
0001
0100
0010
1000
0001
1000
0100
0010
0100
,
1000
0010
1000
0001
0010
0001
0010
0100
1000
0001
0100
0010
1000
0001
1000
0100
,
0010
0001
1000
0010
1000
0001
0100
0001
0010
0100
1000
0001
1000
0010
0100
0001
,
1000
0100
1000
0001
0100
0010
1000
0100
0010
0001
0100
0010
1000
0001
0010
0100
,
0010
0001
1000
0010
1000
0001
0100
0001
0010
0100
1000
0001
1000
0010
0100
0010
,
1000
0100
1000
0001
0100
0001
0100
0010
1000
0001
0100
0010
1000
0001
0010
0001
,
0100
0010
1000
0001
0010
0100
1000
0001
0100
0010
1000
0100
0010
0001
1000
0001
,
0100
0010
1000
0001
1000
0100
0010
0001
0100
0010
1000
0001
0010
0100
1000
0001
,
0100
0010
1000
0100
1000
0001
0010
0001
0100
0010
1000
0001
1000
0100
0010
0100
,
1000
0010
1000
0001
0010
0001
0010
0100
1000
0001
0100
0010
1000
0001
1000
0100
,
0010
0001
1000
0010
1000
0001
0100
0001
0010
0100
1000
0001
1000
0010
0100
0001
,
1000
0100
1000
0001
0100
0010
1000
0100
0010
0001
0100
0010
1000
0001
0010
0100
,
0010
0001
1000
0010
1000
0001
0100
0001
0010
0100
1000
0001
1000
0010
0100
0010
,
1000
0100
1000
0001
0100
0001
0100
0010
1000
0001
0100
0010
1000
0001
0010
0001
,
0100
0010
1000
0001
0010
0100
1000
0001
0100
0010
1000
0100
0010
0001
1000
0001
,
0100
0010
1000
0001
1000
0100
0010
0001
0100
0010
1000
0001
0010
0100
1000
0001
,
0010
0001
0010
0001
1000
0010
0100
0001
1000
0100
0010
0100
1000
0010
0100
0001
,
1000
0001
1000
0010
0100
0001
0010
0100
0010
0100
1000
0001
1000
0010
0100
0001
,
1000
0100
1000
0100
0010
0001
0100
0001
1000
0100
1000
0010
0100
0010
0100
0001
,
1000
0100
0010
0001
1000
0001
0100
0010
1000
0001
0010
0100
1000
0010
1000
0001
,
0010
0100
0010
0100
1000
0001
0100
0010
1000
0100
1000
0001
0100
0010
0100
0001
,
1000
0001
1000
0010
0100
0001
1000
0100
0010
0001
0100
0010
1000
0100
0010
0001
,
1000
0100
1000
0010
0100
0010
1000
0001
0010
0001
0100
0010
0100
0001
1000
0100
,
2000
3000
0000
0000
0000
0000
0000
0000
0000
0000
0000
0000
0001
0100
0010
1000
,
0200
0300
0000
0000
0000
0000
0020
0030
0000
0000
0000
0000
0002
0003
0000
0000
,
1000
0100
0010
0001
1000
0010
1000
0100
0010
0001
0100
0001
1000
0100
0010
0001
,
0400
0000
0000
0300
0001
0100
0010
1000
0001
0010
0000
0000
;

//---------------dance-single - Mad Matt----------------
#NOTES:
     dance-single:
     Mad Matt:
     Easy:
     16:
     1.000,1.000,0.017,0.105,1.000,459.000,1.000,6.000,0.000,0.000:



0000
0000
0000
0000
,
0000
0000
0000
0000
,
1000
0001
0000
0001
0000
1000
0001
0000
,
1001
0000
0000
0000
0000
0000
0000
0000
1000
0001
0010
0001
0100
0010
0100
0001
,
1000
0100
1000
0010
0100
0001
1000
0010
1000
0100
1000
0001
0010
0100
1000
0010
,
0100
0001
1000
0001
0010
0001
0100
0010
0100
0001
1000
0001
0010
0100
1000
0001
,
0100
0010
1000
0001
0010
0100
1000
0010
0100
0001
1000
0100
0010
0100
1000
0010
,
0100
0001
1000
0100
1000
0001
0010
0100
0010
0100
1000
0001
0100
0010
1000
0001
,
1000
0100
1000
0010
0100
0001
1000
0010
1000
0100
1000
0001
0010
0100
1000
0010
,
0100
0001
1000
0001
0010
0001
0100
0010
0100
0001
1000
0001
0010
0100
1000
0001
,
0100
0010
1000
0001
0100
0001
0010
0001
1000
0100
0010
0001
1000
0100
1000
0010
,
0100
0001
1000
0100
1000
0001
0010
0100
0010
0001
1000
0001
0100
0010
1000
0001
,
1000
0100
1000
0010
0100
0001
1000
0010
1000
0100
1000
0001
0010
0100
1000
0010
,
0100
0001
1000
0001
0010
0001
0100
0010
0100
0001
1000
0001
0010
0100
1000
0001
,
0100
0010
1000
0001
0010
0100
1000
0010
0100
0001
1000
0100
0010
0100
1000
0010
,
0100
0001
1000
0100
1000
0001
0010
0100
0010
0100
1000
0001
0100
0010
1000
0001
,
1000
0100
1000
0010
0100
0001
1000
0010
1000
0100
1000
0001
0010
0100
1000
0010
,
0100
0001
1000
0001
0010
0001
0100
0010
0100
0001
1000
0001
0010
0100
1000
0001
,
0100
0010
1000
0001
0100
0001
0010
0001
1000
0100
0010
0001
1000
0100
1000
0010
,
0100
0001
1000
0100
0010
0001
1000
0010
0100
0001
0010
0100
1000
0010
0100
0001
,
1000
0000
0000
0010
0000
0000
0100
0000
,
0000
0001
0000
0010
0000
0001
1000
0000
,
0001
0000
0000
0000
0010
0000
0000
0000
0100
0000
0000
0000
1000
0000
0000
0000
0000
0000
0001
0000
0000
1000
0000
0000
,
0000
0100
0000
1000
0001
0200
0000
0000
,
0310
0000
0000
1000
0000
0000
0100
0000
,
0000
1000
0000
0010
0000
1000
0001
0000
,
1000
0000
0000
0000
0010
0000
0000
0000
0100
0000
0000
0000
0001
0000
0000
0000
0000
0000
1000
0000
0000
0001
0000
0000
,
0000
0010
0000
0001
1000
0200
0000
0000
,
0300
0000
1000
0001
0010
0001
0000
1000
,
0000
0010
0100
0001
0000
1000
0100
0010
,
0000
0000
0001
1000
0010
0100
0000
0001
,
0000
0000
1000
0100
0010
0000
0001
0100
0010
0000
1000
0100
0010
0000
0000
0000
,
0000
0000
0001
0010
0100
1000
0000
0010
,
0000
0100
0001
0010
0000
0100
1000
0001
,
0000
0000
1000
0000
0000
0010
0000
0000
,
0100
0000
0000
0000
,
0000
0000
0001
1000
0010
1000
0000
0001
,
0000
0010
0100
1000
0000
0001
0100
0010
,
0000
0000
1000
0001
0010
0100
0000
1000
,
0000
0000
0100
0010
0001
0000
0100
0010
1000
0000
0100
0010
0001
0000
0000
0000
,
0000
0000
1000
0010
0100
0001
0000
0010
,
0000
0100
1000
0010
0000
0100
0001
1000
,
0000
0000
0001
0000
0000
0010
0000
0000
,
0100
0000
0000
0000
,
1000
0010
0000
0100
0000
0010
1000
0000
,
0001
0010
0000
0100
1000
0000
0000
0000
,
0001
0100
0000
0010
0000
0100
0001
1000
,
0000
0000
0000
0000
,
0001
0010
0000
0100
0000
0010
0001
0000
,
1000
0000
0010
0000
0000
0000
0100
0000
0001
1000
0100
1000
0001
0010
0100
1000
,
0001
0100
0001
1000
0010
1000
0001
0010
0100
1000
0001
0100
0001
1000
0001
0010
,
0200
0000
0300
0000
0000
0000
0000
0000
0000
0000
0000
0000
1000
0100
0010
0001
,
0200
0300
0000
0000
0000
0000
0020
0030
0000
0000
0000
0000
2000
3000
0000
0000
,
0001
0100
0010
1000
0001
0010
0001
0100
0010
1000
0100
1000
0001
0100
0010
1000
,
0400
0000
0000
0300
1000
0100
0010
0001
1000
0010
0000
0000
;

//---------------dance-single - Mad Matt----------------
#NOTES:
     dance-single:
     Mad Matt:
     Beginner:
     11:
     0.737,1.000,0.017,0.105,0.525,287.000,1.000,6.000,0.000,0.000:

















0000
0000
0000
0000
,
0000
0000
0000
0000
,
1000
0001
0000
0001
0000
1000
0001
0000
,
1001
0000
0000
0000
0000
0000
0000
0000
1000
0001
0100
0001
1000
0010
0100
0001
,
1000
0010
0000
0100
0000
0000
0001
0000
,
1000
0100
0000
1000
0010
0000
0000
0000
,
0100
0000
0001
0000
1000
0000
0100
0000
0010
0000
0001
0000
,
1000
0010
0000
1000
0001
0000
0000
0000
,
1000
0100
0000
0010
0000
0000
0100
0000
,
1000
0010
0000
0100
0001
0000
0000
0000
,
1000
0000
0000
0100
0000
0000
0000
0000
0000
0010
0000
0000
0001
0000
0000
0000
0100
0000
0000
0000
0010
0000
0000
0000
,
1000
0001
0000
0010
0100
0000
0000
0000
,
1000
0100
0000
0010
0000
0000
0001
0000
,
1000
0010
0000
1000
0100
0000
0000
0000
,
0010
0000
0001
0000
1000
0000
0010
0000
0100
0000
0001
0000
,
1000
0100
0000
1000
0001
0000
0000
0000
,
1000
0010
0000
0100
0000
0000
0010
0000
,
1000
0100
0000
0010
0001
0000
0000
0000
,
1000
0000
0000
0100
0000
0000
0000
0000
0000
0010
0000
0000
0001
0000
0000
0000
0100
0000
0000
0000
0010
0000
0000
0000
,
0100
0001
1000
0100
1000
0001
1000
0010
0100
0001
1000
0001
1000
0010
0100
0001
,
1000
0000
0000
0010
0000
0000
0100
0000
,
0000
0001
0000
0010
0000
0001
1000
0000
,
0001
0000
0000
0000
0010
0000
0000
0000
0100
0000
0000
0000
1000
0000
0000
0000
0000
0000
0001
0000
0000
1000
0000
0000
,
0000
0100
0000
1000
0001
0200
0000
0000
,
0310
0000
0000
1000
0000
0000
0100
0000
,
0000
1000
0000
0010
0000
1000
0001
0000
,
1000
0000
0000
0000
0010
0000
0000
0000
0100
0000
0000
0000
0001
0000
0000
0000
0000
0000
1000
0000
0000
0001
0000
0000
,
0000
0010
0000
0001
1000
0200
0000
0000
,
0300
0000
1000
0001
0010
0001
0000
1000
,
0000
0010
0100
0001
0000
1000
0100
0010
,
0000
0000
0001
1000
0010
0100
0000
0001
,
0000
0000
1000
0100
1000
0000
0001
0100
0001
0000
1000
0010
1000
0000
0000
0000
,
0000
0000
0001
0010
0100
1000
0000
0010
,
0000
0100
0001
0010
0000
0100
1000
0001
,
0000
0000
1000
0000
0000
0010
0000
0000
,
0100
0000
0000
0000
,
0000
0000
0001
1000
0010
1000
0000
0001
,
0000
0010
0100
1000
0000
0001
0100
0010
,
0000
0000
1000
0001
0010
0100
0000
1000
,
0000
0000
0001
0010
0001
0000
1000
0010
1000
0000
0001
0100
0001
0000
0000
0000
,
0000
0000
1000
0010
0100
0001
0000
0010
,
0000
0100
1000
0010
0000
0100
0001
1000
,
0000
0000
0001
0000
0000
0010
0000
0000
,
0100
0000
0000
0000
,
1000
0010
0000
0100
0000
0010
1000
0000
,
0001
0010
0000
0100
1000
0000
0000
0000
,
0001
0100
0000
0010
0000
0100
0001
1000
,
0000
0000
0000
0000
,
0001
0010
0000
0100
0000
0010
0001
0000
,
1000
0000
0010
0000
0000
0000
0100
0000
0001
1000
0100
1000
0001
0010
0100
1000
,
0001
0100
0001
1000
0010
1000
0001
0010
0100
1000
0001
0100
0001
1000
0001
0010
,
0200
0000
0300
0000
0000
0000
0000
0000
0000
0000
0000
0000
1000
0100
0010
0001
,
2000
3000
0000
0000
0000
0000
0020
0030
0000
0000
0000
0000
0200
0300
0000
0000
,
0001
0100
0010
1000
0001
0100
0001
1000
0010
1000
0001
1000
0001
0100
0010
1000
,
0004
0000
0000
0003
1000
0100
0010
0001
1000
0010
0000
0000
;

//---------------dance-single - Mad Matt----------------
#NOTES:
     dance-single:
     Mad Matt:
     Medium:
     17:
     1.000,1.000,0.017,0.087,1.000,637.000,1.000,5.000,0.000,0.000:

0000
0000
0000
0000
,
0000
0000
0000
0000
,
1000
0001
0000
0001
0000
1000
0001
0000
,
1001
0000
0000
0000
0000
0000
0000
0000
1000
0001
0010
0001
0100
0010
0100
0001
,
1000
0100
1000
0010
0100
0001
1000
0010
1000
0100
1000
0001
0010
0100
1000
0010
,
0100
0001
1000
0001
0010
0001
0100
0010
0100
0001
1000
0001
0010
0100
1000
0001
,
0100
0010
1000
0001
0010
0100
1000
0010
0100
0001
1000
0100
0010
0100
1000
0010
,
0100
0001
1000
0100
1000
0001
0010
0100
0010
0100
1000
0001
0100
0010
1000
0001
,
1000
0100
1000
0010
0100
0001
1000
0010
1000
0100
1000
0001
0010
0100
1000
0010
,
0100
0001
1000
0001
0010
0001
0100
0010
0100
0001
1000
0001
0010
0100
1000
0001
,
0100
0010
1000
0001
0100
0001
0010
0001
1000
0100
0010
0001
1000
0100
1000
0010
,
0100
0001
1000
0100
1000
0001
0010
0100
0010
0001
1000
0001
0100
0010
1000
0001
,
1000
0100
1000
0010
0100
0001
1000
0010
1000
0100
1000
0001
0010
0100
1000
0010
,
0100
0001
1000
0001
0010
0001
0100
0010
0100
0001
1000
0001
0010
0100
1000
0001
,
0100
0010
1000
0001
0010
0100
1000
0010
0100
0001
1000
0100
0010
0100
1000
0010
,
0100
0001
1000
0100
1000
0001
0010
0100
0010
0100
1000
0001
0100
0010
1000
0001
,
1000
0100
1000
0010
0100
0001
1000
0010
1000
0100
1000
0001
0010
0100
1000
0010
,
0100
0001
1000
0001
0010
0001
0100
0010
0100
0001
1000
0001
0010
0100
1000
0001
,
0100
0010
1000
0001
0100
0001
0010
0001
1000
0100
0010
0001
1000
0100
1000
0010
,
0100
0001
1000
0100
0010
0001
1000
0010
0100
0001
0010
0100
1000
0010
0100
0001
,
1000
0000
0000
0010
0000
0000
0100
0000
,
0000
0001
0000
0010
0000
0001
1000
0000
,
0001
0000
0000
0000
0010
0000
0000
0000
0100
0000
0000
0000
1000
0000
0000
0000
0000
0000
0001
0000
0000
1000
0000
0000
,
0000
0100
0000
1000
0001
0200
0000
0000
,
0310
0000
0000
1000
0000
0000
0100
0000
,
0000
1000
0000
0010
0000
1000
0001
0000
,
1000
0000
0000
0000
0010
0000
0000
0000
0100
0000
0000
0000
0001
0000
0000
0000
0000
0000
1000
0000
0000
0001
0000
0000
,
0000
0010
0000
0001
1000
0010
0100
0001
,
1000
0000
0100
0000
1000
0001
0010
0001
0100
0010
1000
0001
1000
0100
0010
0100
,
1000
0010
1000
0001
0010
0001
0010
0100
1000
0001
0100
0010
1000
0001
1000
0100
,
0010
0001
1000
0010
1000
0001
0100
0001
0010
0100
1000
0001
1000
0010
0100
0001
,
1000
0100
1000
0001
0100
0010
1000
0100
0010
0001
0100
0010
1000
0001
0010
0100
,
0010
0001
1000
0010
1000
0001
0100
0001
0010
0100
1000
0001
1000
0010
0100
0010
,
1000
0100
1000
0001
0100
0001
0100
0010
1000
0001
0100
0010
1000
0001
0010
0001
,
0100
0010
1000
0001
0010
0100
1000
0001
0100
0010
1000
0100
0010
0001
1000
0001
,
0100
0010
1000
0001
1000
0100
0010
0001
0100
0010
1000
0001
0010
0100
1000
0001
,
0100
0010
1000
0100
1000
0001
0010
0001
0100
0010
1000
0001
1000
0100
0010
0100
,
1000
0010
1000
0001
0010
0001
0010
0100
1000
0001
0100
0010
1000
0001
1000
0100
,
0010
0001
1000
0010
1000
0001
0100
0001
0010
0100
1000
0001
1000
0010
0100
0001
,
1000
0100
1000
0001
0100
0010
1000
0100
0010
0001
0100
0010
1000
0001
0010
0100
,
0010
0001
1000
0010
1000
0001
0100
0001
0010
0100
1000
0001
1000
0010
0100
0010
,
1000
0100
1000
0001
0100
0001
0100
0010
1000
0001
0100
0010
1000
0001
0010
0001
,
0100
0010
1000
0001
0010
0100
1000
0001
0100
0010
1000
0100
0010
0001
1000
0001
,
0100
0010
1000
0001
1000
0100
0010
0001
0100
0010
1000
0001
0010
0100
1000
0001
,
1000
0010
0000
0100
0000
0010
1000
0000
,
0001
0010
0000
0100
1000
0000
0000
0000
,
0001
0100
0000
0010
0000
0100
0001
1000
,
0000
0000
0000
0000
,
0001
0010
0000
0100
0000
0010
0001
0000
,
1000
0000
0010
0000
0000
0000
0100
0000
0010
0001
0100
0010
1000
0100
0010
0001
,
1000
0100
1000
0010
0100
0010
1000
0001
0010
0001
0100
0010
0100
0001
1000
0100
,
2000
3000
0000
0000
0000
0000
0000
0000
0000
0000
0000
0000
0001
0100
0010
1000
,
0200
0300
0000
0000
0000
0000
0020
0030
0000
0000
0000
0000
0002
0003
0000
0000
,
1000
0100
0010
0001
1000
0010
1000
0100
0010
0001
0100
0001
1000
0100
0010
0001
,
0400
0000
0000
0300
0001
0100
0010
1000
0001
0010
0000
0000
;
