#TITLE:Awesome God;
#SUBTITLE:;
#ARTIST:Christian Song;
#TITLETRANSLIT:;
#SUBTITLETRANSLIT:;
#ARTISTTRANSLIT:;
#CREDIT:;
#BANNER:awesome-god-baner.png;
#BACKGROUND:awesome-god-bg.png;
#LYRICSPATH:;
#CDTITLE:;
#MUSIC:awesome god.mp3;
#OFFSET:-0.240;
#SAMPLESTART:14.000;
#SAMPLELENGTH:12.000;
#SELECTABLE:YES;
#BPMS:0.000=151.060,96.000=666.004;
#STOPS:96.000=3.880
;
#BGCHANGES:36.000=awesome.jpg=1.000=1=0=1,
44.000=12.jpg=1.000=1=0=1,
52.000=laugh.jpg=1.000=1=0=1,
60.000=awesome-god-bg.png=1.000=1=0=1,
68.000=awesome.jpg=1.000=1=0=1,
94.750=scream1.jpg=1.000=0=0=1,
95.000=scream2.jpg=1.000=0=0=1,
95.250=scream1.jpg=1.000=0=0=1,
95.500=scream2.jpg=1.000=0=0=1,
95.750=01.jpg=1.000=0=0=1,
104.000=scream1.jpg=1.000=0=0=1,
160.000=satan2.jpg=1.000=0=0=1,
171.000=scream1.jpg=1.000=0=0=1,
229.000=satan.jpg=1.000=0=0=1,
236.000=kaboom.jpg=1.000=0=0=1,
258.000=awesome-god-bg.png=1.000=1=0=1,
266.000=awesome-god-bg.png=1.000=1=0=1,
99999=-nosongbg-=1.000=0=0=0 // don't automatically add -songbackground-
;
// cache tags:
#FIRSTBEAT:3.000;
#LASTBEAT:268.000;
#SONGFILENAME:Songs/hard shit/Awesome God/Awesome god.sm;
#HASMUSIC:1;
#HASBANNER:1;
#MUSICLENGTH:58.697;
// end cache tags

//---------------dance-single - ----------------
#NOTES:
     dance-single:
     :
     Hard:
     15:
     0.827,1.000,1.000,0.579,0.017,247.000,59.000,34.000,449.000,2.000:
0000
0000
0000
1001
,
0020
0000
0100
0000
1000
0000
0130
0001
,
2000
0100
0010
3001
,
1002
0010
1000
0103
,
0010
1000
0010
0000
0100
0001
1000
0000
,
2001
0000
0100
0000
0002
0003
3010
0000
,
0002
1000
0010
0103
,
1001
0000
1000
0001
0100
0000
0010
0000
,
2002
0000
0000
3003
,
0020
0000
0000
0000
0030
0000
1000
0100
,
1000
0010
0100
0001
1000
0100
0010
0000
,
2002
0000
0000
3003
,
0100
0010
0100
0000
0001
1000
0001
0000
,
2002
0000
0000
3003
,
1000
0001
0100
0010
0100
0001
1000
0000
,
1001
0000
1000
0001
0100
0000
0010
0000
,
2002
0000
0000
3003
,
1001
0000
0100
0000
0010
0000
1000
0100
,
0010
0000
0100
0000
0001
0100
0010
0000
,
1001
1000
1100
0001
,
0101
0010
0110
1001
,
2000
3200
0320
0032
,
0103
0000
0001
1000
0100
0000
0010
0000
,
1001
0000
1000
0001
0100
0000
0110
0000
,
2002
3003
0000
0000
0000
0000
0000
0000
0000
0000
0000
0000
0000
0000
0000
0000
0000
0000
0000
0000
0000
0000
0000
0000
0000
0000
0000
0000
0000
0000
0000
0000
0000
0000
0000
0000
0000
0000
0000
0000
0000
0000
0000
0000
0000
0000
0000
0000
0000
0000
0000
0000
0000
0000
0000
0000
0000
0000
0000
0000
0000
0000
0000
0000
,
0000
0000
0000
0000
,
1MMM
MMM1
M1MM
MM1M
,
1MMM
MM1M
M2MM
M3M1
,
1MM1
M1MM
1MM1
M1MM
,
MM1M
1MMM
MMM1
M1MM
,
MMM1
1MM1
MMM1
M1MM
,
M1M1
1MMM
1M1M
M1MM
,
M1M1
1MMM
1MM1
M1MM
,
MM1M
M1MM
M1MM
1MM1
,
MM1M
1MMM
1M1M
M1MM
,
M1M1
1MMM
1MM1
M1MM
,
MM1M
1MMM
1M1M
M1MM
,
M1M1
1MMM
MMM1
1MM1
,
M1MM
M11M
MM1M
M1MM
,
1MM1
1MMM
1MM1
M11M
,
1MMM
MMM1
M1MM
0M1M
1MMM
M01M
M1MM
MMM1
,
1MMM
M1MM
MM1M
M1MM
MMM1
M1MM
1MMM
MM1M
,
M2MM
M3M1
1MMM
MMM1
M1MM
MM1M
1MMM
MMM1
,
M1MM
MMM1
1MMM
MM1M
,
M1MM
2MM1
3MMM
M1MM
,
11MM
MM11
M1MM
1MMM
,
1M1M
M1MM
M1MM
1MM1
,
1MMM
MM1M
1MMM
M1MM
,
M1M1
1MM2
MMM3
1MMM
,
1MM1
MM1M
M2MM
23M1
,
0MMM
3M2M
M13M
MMM1
,
1MMM
MMM1
M1MM
1MMM
,
2M1M
3M1M
M1M1
M1M1
,
1MM1
1MM1
M12M
M13M
,
1M2M
1M31
MMM2
M1M3
,
M1M1
1MM1
M11M
1MMM
,
MM1M
1M1M
1MM1
M1MM
,
M1MM
0000
1MMM
0001
M1MM
0010
M1MM
0001
,
1MMM
0010
M10M
0001
1MM0
0100
M01M
0100
,
2MM2
0MM0
0MM0
00M0
0MM0
0000
0000
0000
0MM0
0000
0000
0000
0MM0
0000
0000
0000
,
0MM0
0MM0
0MM0
0MM0
,
0MM0
0MM0
0MM0
0MM0
,
0MM0
0MM0
0MM0
0MM0
,
0MM0
0MM0
0MM0
0MM0
,
0MM0
0MM0
0MM0
0MM0
,
0MM0
0MM0
0MM0
0MM0
,
0MM0
0MM0
0MM0
0MM0
,
3MM3
0000
0000
0000
;
