#TITLE:Operation Ground and Pound;
#SUBTITLE:;
#ARTIST:Dragonforce;
#TITLETRANSLIT:;
#SUBTITLETRANSLIT:;
#ARTISTTRANSLIT:;
#CREDIT:B. Abear;
#BANNER:Bn-Operation.png;
#BACKGROUND:Bg-Operation.png;
#LYRICSPATH:;
#CDTITLE:;
#MUSIC:Operation Ground And Pound.ogg;
#OFFSET:-0.328;
#SAMPLESTART:70.670;
#SAMPLELENGTH:19.190;
#SELECTABLE:YES;
#BPMS:0.000=120.000,88.000=200.000,446.000=198.000,448.000=200.000,1289.000=100.000,1297.000=200.000;
#STOPS:174.000=0.300
,443.000=0.225
,443.250=0.225
,443.500=0.225
,443.750=0.225
,796.000=0.452
,796.500=0.452
;
#BGCHANGES:;
// cache tags:
#FIRSTBEAT:0.000;
#LASTBEAT:1462.500;
#SONGFILENAME:Songs/Dragonforce/Operation Ground and Pound/Operation Ground and Pound.sm;
#HASMUSIC:1;
#HASBANNER:1;
#MUSICLENGTH:464.770;
// end cache tags

//---------------dance-single - B. Abear----------------
#NOTES:
     dance-single:
     B. Abear:
     Challenge:
     15:
     1.000,1.000,0.445,0.503,1.000,3389.000,207.000,234.000,80.000,1.000:

2002
0000
0000
0000
,
0000
0000
0000
0000
0000
0000
0000
3003
,
0202
0000
0000
0000
0000
0000
0000
0303
,
0220
0000
0000
0000
0000
0000
0000
0330
,
2020
0000
0000
0000
0000
0000
0000
3030
,
2002
0000
0000
0000
0000
0000
0000
3003
,
0202
0000
0000
0000
0000
0000
0000
0303
,
0022
0000
0000
0000
0000
0000
0000
0033
,
1001
0001
1000
0100
1100
0000
0110
0010
0001
1000
0001
0100
0101
0001
1001
1000
,
1100
0100
0010
0001
1001
0000
1010
0010
0100
0001
1000
0100
1100
1000
1001
0001
,
0101
0100
0010
1000
1001
0000
1001
0001
1000
0010
0100
0001
0101
0100
0110
0010
,
1010
1000
0001
1000
1001
0000
0101
0001
1000
0100
0010
0001
0011
0010
0110
0100
,
1100
1000
0010
0100
0101
0000
1001
0001
1000
0001
0010
0100
0110
0010
0011
0001
,
1001
1000
0010
0100
0110
0000
0110
0010
1000
0001
1000
0100
1100
1000
1001
0001
,
0101
0100
0010
1000
1010
0000
1100
0100
0010
0001
1000
0100
1100
1000
1010
0010
,
0110
0100
0001
1000
1001
0000
1100
1000
0001
0100
0010
1000
1010
0010
0110
0100
,
2002
0000
0000
0000
0000
0000
0000
3003
,
0022
0000
0000
0000
0000
0000
0000
0033
,
0202
0000
0000
0000
0000
0000
0000
0303
,
2200
0000
0000
3300
0220
0000
0000
0330
,
2002
0000
0000
0000
0000
0000
0000
0000
0000
0000
0000
0000
0000
0000
0000
3003
,
0000
M00M
0000
0000
0000
0000
0MM0
0000
0000
0000
M00M
0000
0000
0000
0MM0
0000
0000
0000
M00M
0000
0000
0000
0MM0
0000
0000
0000
M00M
0000
0000
0000
0MM0
0000
,
0001
0100
0010
1000
0010
1000
0001
0010
0100
1000
0100
1000
0001
0010
0100
1000
,
0001
0100
0010
1000
0001
0100
0010
0000
0110
0000
1001
0000
2002
0000
0000
3000
,
1003
0000
0001
1000
0100
0000
0010
0000
0001
0000
1000
0000
0100
0010
0001
0000
,
1000
0000
0001
0000
1000
0010
0100
0000
0001
0000
0020
0000
0430
0000
0000
0000
,
1300
0000
0001
0100
0001
0000
1000
0000
0100
0000
0010
0000
0100
0000
1000
0000
,
0001
0100
0010
1000
0001
0000
1000
0000
0100
0000
0010
0000
0001
0000
0400
0000
,
0310
1000
0010
1000
0010
1000
0010
1000
0001
1000
0100
1000
0100
1000
0100
1000
,
0010
0100
0001
0100
0001
0100
0001
0100
0010
0100
0001
0100
0001
0100
0001
0100
,
0010
0200
0000
0301
1000
0100
0010
0001
,
1000
0100
2000
0000
0000
0000
3001
0100
0001
0000
0100
0000
0010
1000
0001
0000
,
1000
2000
0000
3001
0100
0200
0000
0301
,
1000
2000
0000
3001
0010
0100
1000
0001
,
0200
0000
0000
0310
2000
0000
0000
0000
,
0000
0000
3002
0023
,
0230
0000
0310
0100
0000
2000
0000
0000
,
0000
3001
0100
0001
1000
0001
0010
0001
,
1000
0100
0010
0100
1000
0001
0100
0001
1000
0100
0010
0100
1000
0001
0100
0001
,
1000
0010
0100
0001
1000
0100
1000
0001
1000
0010
0100
0001
1000
0100
1000
0001
,
0010
0100
1000
0100
1000
0000
0000
0000
0000
0000
1001
0000
0000
0000
0101
0000
,
0110
0000
0000
0000
1010
0000
0000
0000
0010
0100
0001
1000
0002
0000
0000
0000
,
1003
0000
0000
0001
0000
0000
1000
0000
0000
0001
0000
0000
1000
0000
0000
0001
0000
0000
1000
0000
0000
0001
0000
0000
1000
0000
0100
0000
0000
0000
0000
0000
0000
0000
0000
0000
1000
0000
0001
0000
0000
0000
0000
0000
0100
0000
0001
0000
,
0000
2000
0000
0000
3111
0000
0001
0100
,
0010
0100
0010
0000
1000
0000
0001
0000
1000
0100
1000
0000
0001
0000
0020
0000
,
0000
0130
0010
0002
0000
1003
0001
0100
,
0010
1000
0010
0000
0100
0000
0001
0000
1000
0001
1000
0000
0100
0000
0020
0000
,
0000
0031
1000
0020
0000
0130
0010
1000
,
0001
0100
0001
0000
1000
0000
0100
0000
1000
0100
1000
0000
0001
0000
0010
0000
,
0100
1000
0100
0000
1000
0000
0010
0000
0100
0010
0100
0000
0001
0000
1000
0000
,
0010
1000
0010
0000
1000
0000
0100
0000
0010
0001
0010
0000
0001
1000
0001
0000
,
1001
1001
0101
0101
1001
1001
1000
0100
,
1000
0001
1000
0000
0001
0000
0010
0000
0100
1000
0100
0000
1000
0000
0020
0000
,
0000
0130
0001
2000
0000
3100
0010
0001
,
0100
0010
0100
0000
0010
0000
1000
0000
0001
1000
0001
0000
0100
0000
0002
0000
,
0000
0013
0100
2000
0000
3010
0100
0001
,
1000
0001
1000
0000
0001
0000
0010
0000
0100
1000
0100
0000
0010
0000
0001
0000
,
1000
0010
1000
0000
0010
0000
0100
0000
0004
0000
0000
0000
0103
0010
1000
0001
,
1000
0001
0100
0010
1000
0001
1000
0001
0100
0010
1000
0001
1000
0100
1000
0100
,
0010
0001
0010
0001
1000
0001
0100
0001
2000
0000
0000
3000
0002
0000
0010
0000
,
0013
0200
1000
1300
0020
0130
0002
1000
,
1003
0000
0020
0000
0100
0000
0130
0000
0002
0000
1003
0000
0001
0010
0001
0000
,
1000
0100
1000
0000
0001
1000
0001
0000
0100
0010
0100
0000
0010
1000
0100
1000
,
0100
0010
0001
1000
0001
0100
0010
1000
0001
0100
0010
0000
1010
0000
1000
0000
,
0001
0011
0010
0100
1100
1000
1001
0001
,
0100
0000
0110
0000
0010
0000
1000
0000
1001
0000
0000
0000
0001
0100
0010
1000
,
0010
1000
0001
0100
0010
1000
0010
1000
0001
1000
0001
0000
0101
0000
0110
0000
,
1010
1001
M00M
1001
M00M
0001
1000
0100
,
0010
0001
0010
0000
0001
0000
0100
0000
0010
1000
0010
0000
0100
0000
0001
0000
,
1000
0001
1000
0000
0100
0000
0010
0000
0001
1000
0001
0000
1000
0000
0010
0000
,
0100
0001
0100
0000
0010
0000
1000
0000
0001
0100
0001
0000
1000
0000
0100
0000
,
0020
0032
2003
3000
0010
0000
0100
0000
0002
0203
0320
0030
1000
0000
0001
0000
,
1000
0100
1000
0000
0001
0000
0010
0000
0100
1000
0100
0000
1000
0000
0010
0000
,
0100
0001
0100
0000
0010
0000
1000
0000
0001
1000
0001
0000
1000
0000
0100
0000
,
0010
0100
0010
0000
0100
0000
1000
0000
0010
1000
0010
0000
0100
0001
1000
0001
,
1000
0100
0010
0001
1000
0001
0100
0001
2000
0000
0000
3000
0001
0000
0010
0000
,
0100
1000
0100
0000
1000
0000
0001
0000
0100
0001
0100
0000
0010
0000
0100
0000
,
0010
1000
0010
0000
1000
0000
0100
0000
0010
0001
0010
0000
0100
0000
1000
0000
,
0001
0010
0001
0000
1000
0000
0010
0000
0100
0001
0100
0000
0010
0000
1000
0000
,
0001
1000
0001
0000
1000
0000
0100
0000
1000
0001
1000
0000
0001
0100
0001
1000
,
0001
0100
0010
1000
0001
0100
0010
1000
0001
1000
0100
1000
0100
0010
0001
0010
,
0001
1000
0010
1000
0001
1000
0100
0010
0001
1000
0010
1000
0001
0100
0010
1000
,
0010
1000
0001
0100
0010
1000
0010
1000
0001
0100
0001
0000
1000
0001
1000
0001
,
1000
0100
1000
0001
1000
0001
1000
0100
0010
0001
1000
0001
0100
0000
0001
0000
,
1000
0100
1000
0000
0001
0000
0100
0000
0010
1000
0010
0000
0100
0000
0001
0000
,
2000
3200
0320
0032
0023
0230
1300
0001
,
0100
0010
0100
0000
0001
0000
1000
0000
0100
1000
0100
0000
1000
0100
1000
0001
,
0100
0001
1000
0100
1000
0001
0100
0001
1000
0100
1000
0001
1000
0000
0010
0000
,
0100
0010
0100
0000
0001
0000
1000
0000
0001
0010
0001
0000
1000
0000
0001
0000
,
0100
0001
0100
0000
0010
0000
1000
0000
0001
1000
0001
0000
1000
0100
0020
0000
,
0000
0000
0031
1000
0200
0000
0000
0000
1300
0001
0100
0000
0010
1000
0010
1000
,
0001
0010
0001
0010
0100
1000
0100
1000
0001
0100
0001
0100
0010
1000
0001
1000
,
0001
0010
0100
0010
0001
1000
0010
1000
0001
1000
0100
0010
0100
1000
0001
0100
,
0001
0100
0010
1000
0001
0100
0010
0100
0001
1000
0001
0100
0010
1000
0001
0100
,
0001
0100
0010
1000
0001
1000
0001
0010
0100
1000
0100
0010
0001
1000
0010
0100
,
0010
0100
0001
1000
0010
0100
0010
1000
0001
0010
0001
1000
0100
0000
1000
0000
,
0001
0010
0001
0000
1000
0000
0010
0000
0100
0010
0100
0000
0001
0000
0100
0000
,
0010
1000
0010
0100
0001
1000
0001
0010
,
0100
1000
0100
0000
0010
0000
0001
0000
1000
0001
1000
0000
0001
0100
0010
0000
,
0010
0000
1000
0100
0010
0000
0010
0000
0001
1000
0001
0000
1000
0100
0010
0001
,
1000
0001
1000
0010
1000
0010
0100
0001
1000
0001
1000
0010
0100
0001
1000
0010
,
0100
0001
1000
0010
0100
0001
1000
0010
0100
0001
1000
0010
0200
0000
0000
0000
,
0000
0302
0000
2003
,
0000
0000
0000
0000
0100
0000
0000
0000
0001
0000
0000
0000
3001
0010
0001
0000
,
1000
0010
1000
0000
0001
0100
0001
0000
0100
0010
0100
0000
0010
1000
0010
0000
,
1000
0100
1000
0000
0001
1000
0001
0000
0010
0001
0010
0000
0100
1000
0100
1000
,
0100
1000
0001
0100
0001
0100
0001
0100
0010
1000
0010
1000
0100
0010
0001
1000
,
0001
0100
0001
1000
0100
0010
0001
1000
0100
0010
0001
1000
0002
0000
0000
0000
,
0000
0203
0000
0000
0320
0000
2030
0000
,
0000
0000
3200
0000
0000
0000
0000
0000
0320
0000
0000
0000
0031
1000
0001
1000
,
0010
0100
0010
0100
0001
1000
0001
1000
0010
0100
0010
0100
0002
4003
3200
0340
,
1031
0110
MMMM
0110
4004
0000
0000
3003
,
0MM0
0001
1000
1000
0100
0010
0001
1000
,
0001
0000
0010
0000
0100
1000
0001
0000
2000
0000
3002
0000
0403
0000
0000
0000
,
M3M0
0001
0001
0001
1000
0010
1000
0010
,
0100
0000
0100
0000
0001
1000
0100
0000
1000
0001
1000
0001
0100
0001
0100
0001
,
1000
0001
0100
0001
1000
0010
0100
0010
1000
0001
0100
0001
1000
0010
0100
0010
,
1000
0100
0010
0001
0010
0100
1000
0001
1000
0100
0010
0001
0010
0100
1000
0001
,
0100
0000
0200
0000
0000
0300
0001
0000
1000
0000
0100
0000
1000
0000
0001
0000
,
1000
0010
1000
0010
1000
0001
1000
0001
0100
0010
0100
0010
1000
0001
1000
0001
,
0010
0020
0000
0031
1000
2000
0000
3001
,
0100
0200
0000
0301
1000
0100
0010
0010
,
0002
0000
0000
0103
0020
0000
0000
0000
,
0000
0000
0000
0000
0230
0000
0000
0000
0301
1000
0100
0010
0001
0000
0001
0000
,
2000
0000
3010
2000
0000
3020
0000
0000
,
0000
0030
0100
0000
0001
0000
100M
0000
0100
0000
0010
0000
0001
0000
1000
0000
,
1001
0000
1100
0110
0000
0011
0000
1001
,
0001
0100
0001
0100
0010
0000
0010
0000
1000
0100
1000
0100
0010
0000
0010
0000
,
2002
0000
0000
3003
1001
0000
0000
0000
0000
0000
0101
0000
0000
0000
0110
0000
,
1010
0000
0000
0000
0110
0000
0000
0000
0010
1000
0010
1000
0002
0000
0000
0003
,
1000
0100
0010
0001
1000
0010
0100
0001
1000
0100
0010
0001
1000
0010
0100
0001
,
4000
0000
0000
0000
3010
0100
0010
0100
0001
1000
0001
1000
0100
0000
M0MM
0000
,
0010
0000
0001
0000
1000
0010
1000
0000
0001
0000
0100
0000
0001
1000
0001
0000
,
1000
0000
0100
0000
0010
0001
0010
0000
0001
0000
1000
0000
0010
1000
0010
0000
,
0200
0000
0000
0000
0000
0000
0301
0001
,
2000
0000
0000
0000
3001
1000
0100
0100
,
1000
0100
1000
0001
0100
0001
1000
0010
1000
0001
0010
0001
1000
0100
1000
0001
,
0010
0001
1000
0010
1000
0001
0100
0001
1000
0100
1000
0001
0010
0001
1000
0001
,
2000
0000
0000
0000
0000
0000
0000
3000
,
1001
0000
1001
1001
0110
0110
1001
1001
,
0001
0000
1000
0000
0100
1000
0100
0000
0010
0000
0001
0000
1000
0010
1000
0000
,
0100
0000
0010
0000
0001
0010
0001
0000
1000
0000
0010
0000
0100
0001
0100
0000
,
0010
0000
1000
0000
0001
0010
0001
0000
1000
0000
0100
0000
0010
0001
0010
0000
,
0100
0000
1000
0000
0010
1000
0010
0000
0100
0000
0001
0000
1000
0001
1000
0000
,
0001
0000
0010
0000
0100
0010
0100
0000
1000
0000
0001
0000
1000
0010
1000
0000
,
0001
0000
1000
0000
0010
1000
0010
0000
0100
0000
0001
0000
1000
0100
1000
0000
,
0001
0010
0100
1000
0100
1000
0001
0010
0100
1000
0100
1000
0001
0010
0100
1000
,
0001
0100
0010
1000
0001
0100
0010
1000
0001
0100
0010
1000
0001
0100
0010
1000
,
0002
1000
1003
0020
0100
0130
0002
1003
,
0200
1000
1300
0002
0010
0013
0200
1300
,
0001
0000
1000
0000
0001
0010
0001
0000
1000
0000
0010
0000
0100
0010
0100
0000
,
0001
0100
0001
0100
0010
1000
0010
1000
0001
0010
0001
0010
0100
1000
0100
0000
,
1100
1000
0001
0101
0100
0010
1010
1000
,
1001
0001
0010
0110
0100
1000
1001
0001
,
1000
0001
1000
0001
1000
0001
1000
0001
1000
0001
1000
0001
0100
0000
0000
0000
,
0101
1001
0000
1100
0000
0110
0000
0110
,
0010
0000
0001
0000
1000
0001
1000
0000
0010
0000
0100
0000
0001
0100
0001
0000
,
1000
0000
0100
0000
1000
0100
1000
0000
0001
0000
0010
0000
0100
1000
0100
0000
,
0010
0000
0001
0000
1000
0010
1000
0000
0010
0000
0100
0000
0001
0100
0001
0000
,
0010
0000
0100
0000
2000
3002
0023
0030
0100
0000
1000
0000
0020
2030
3002
0003
,
0010
0000
0001
0000
0010
0001
0010
0000
0001
0000
1000
0000
0010
0100
0010
0000
,
0100
0000
0001
0000
1000
0100
1000
0000
0001
0000
0010
0000
0001
1000
0001
0000
,
1000
0000
0010
0000
0100
0010
0100
0000
0001
0000
1000
0000
0001
0100
0001
0000
,
1000
0001
1000
0001
1000
0100
1000
0100
1000
0001
1000
0001
0100
0000
0100
0000
,
0001
0000
0100
0000
0010
1000
0010
0000
0100
0000
0100
0000
0001
0000
0010
0000
,
0200
0000
0000
0000
,
1300
1000
0001
0010
0100
0100
4000
3004
,
0103
0000
0010
0000
1000
0001
1000
0000
0100
0000
0010
0000
0001
0010
0001
0000
,
0011
0011
1001
1001
1010
1010
0110
0110
,
0101
0101
1001
1001
1100
1100
1001
1001
,
0001
0010
0100
1000
0100
1000
0001
0010
0100
1000
0100
1000
0001
0100
0001
0000
,
1000
0010
1000
0010
1000
0001
1000
0001
1000
0100
0010
0001
0010
0001
1000
0001
,
1000
0000
0100
0000
0010
0001
0010
0000
0001
0000
1000
0000
0001
0100
0001
0000
,
1000
0100
2000
3200
0320
0032
0023
0230
,
1300
0000
0000
0001
0000
0000
10MM
0100
0000
0000
0000
0000
0010
0000
0000
0001
0000
0000
1MM0
0001
0000
0000
0000
0000
,
1000
0100
1000
0001
0100
0001
1000
0100
1000
0001
0010
0001
1000
0010
1000
0001
,
0010
0000
0001
0000
1000
0001
1000
0000
0001
0000
1000
0000
0100
0010
0100
0000
,
1000
0000
0001
0000
0100
0001
0100
0000
0001
0000
1000
0000
0001
1000
0001
0000
,
0020
0000
0000
0032
0000
0000
2003
0000
,
3001
0100
0001
0100
0001
1000
0001
1000
0001
0100
0001
0100
0001
1000
0001
0100
,
0010
1000
0001
1000
0100
0010
0001
0010
0100
1000
0001
0010
0001
1000
0010
0100
,
0001
0100
0010
1000
0001
1000
0100
1000
0001
0010
0100
1000
0001
0010
0001
1000
,
0010
1000
0010
0100
0001
0100
0010
1000
0001
1000
0100
0010
0001
1000
0001
0000
,
1000
0001
1000
0001
0100
0010
0100
0010
1000
0001
1000
0001
0100
0010
0100
0010
,
1000
0000
0100
0000
0010
0001
0010
0000
0001
0000
1000
0000
0010
1000
0010
0000
,
1000
0001
1000
0100
0010
0001
0010
0100
,
1000
0000
0001
0000
0100
0010
0100
0000
0001
0000
1000
0000
0010
0100
0010
0000
,
1000
0000
0001
0000
1000
0100
1000
0000
0001
0000
0010
0000
0001
0000
0100
0000
,
0001
1000
0001
1000
0001
0100
0001
1000
0001
1000
0001
0100
0001
1000
0001
0000
,
1000
0001
1000
0001
1000
0100
1000
0001
1000
0001
1000
0100
1000
0001
1000
0000
,
0200
0000
2300
0000
,
3002
0000
0100
1000
,
2M03
00M0
0M00
00M0
,
320M
M000
000M
M000
,
0310
0001
0010
0001
0010
0001
1000
0010
1000
0010
1000
0010
0100
0001
0100
0001
,
0010
0100
1000
0001
1000
0010
0100
0001
0010
0100
1000
0001
0010
0100
1000
0001
,
2000
0000
0000
3020
0000
0000
0230
0000
,
0302
0000
0000
0023
0000
0000
0230
0000
,
1300
1000
0001
0001
0100
0100
0010
0010
,
4M00
30M4
1103
0220
0330
0011
1001
0MM0
,
M00M
0MM0
0021
0000
0130
0100
1000
1000
,
0010
0100
0001
0001
1000
1000
0100
0100
,
0010
0001
2001
0000
3010
0010
0100
0100
,
0001
1000
1000
0100
1000
1000
0001
0100
,
0101
0110
1020
0000
0130
0100
0001
0001
,
1000
0100
0010
0010
0001
0001
1000
0010
,
1000
0100
0120
0000
0031
0001
1000
1000
,
0001
0001
1001
0101
0000
1100
0000
1000
,
1010
0000
0200
0000
0000
0320
0000
0000
,
2030
0000
3002
0000
0000
2003
0000
0000
,
3200
0000
0310
0001
0000
0002
0000
0000
,
2003
0000
3010
0200
0000
0310
0110
0000
,
0100
0000
0002
0000
0000
2003
0000
0000
,
3200
0000
0320
0000
0000
0032
0000
0000
,
2003
0000
3002
0000
0000
2003
0000
3000
,
1001
0101
1200
0000
0000
0310
0011
0000
,
0001
0000
2000
0000
0000
3002
0000
0000
,
0023
0000
0230
0000
0000
2300
0000
0000
,
3002
0000
0203
0000
0000
0320
0000
0000
,
2030
3002
0000
0000
,
0000
0000
2003
0000
0000
3200
0000
0000
,
0320
0000
0230
0000
0000
2300
0000
0000
,
3002
0000
0203
0000
0000
0302
0000
0000
,
2003
0000
0000
0000
3001
0010
0100
1000
0001
0010
0100
1000
0001
0010
0100
1000
,
0001
0010
0100
1000
0001
0000
0001
0000
0010
0000
0100
0000
1000
0000
0010
0000
,
0100
0100
0001
1000
0001
0010
0100
1000
,
0001
0001
1000
1000
0100
0010
0001
0001
,
0100
0000
0010
0000
1000
0000
1000
0000
0001
0000
1000
0000
0001
0100
0010
1000
,
0001
0000
1000
1000
0100
0010
0001
1000
,
0010
0100
0001
0001
1000
0100
1000
0001
,
0010
0100
1000
1000
0100
0010
0100
0100
,
1000
0001
0100
0100
1001
0100
0010
0010
,
1001
0100
0001
0001
1000
0100
0010
0001
,
1000
0010
0100
0100
0001
1000
0100
0010
,
0001
0100
0010
0010
1000
0001
0100
0100
,
0001
1000
0100
0100
0010
0001
1000
1000
,
0001
0100
0010
0010
1000
0001
1000
0100
,
0010
0001
0010
0010
0100
1000
0001
0100
,
0010
0100
0001
0001
1000
0100
0010
0001
,
0010
0000
0100
0000
1000
0000
1000
0000
0001
0000
0100
0000
0001
0000
1000
0100
,
0010
0001
1000
1001
0000
0110
0000
1001
,
0000
1001
0000
0101
0100
0010
1010
1000
,
1001
0000
2002
0003
3001
0001
0010
0010
,
0100
0100
4100
0000
0000
0000
0000
0000
,
0000
0000
0000
0000
3100
0010
0001
1000
0001
0100
0010
1000
0010
0100
0001
1000
,
0100
1000
0001
0010
0100
1000
0001
0010
0001
1000
0001
1000
0010
0100
0010
1000
,
0001
0100
0001
1000
0010
0100
0010
1000
0020
0000
0230
0000
0301
1000
0001
0010
,
0004
0000
0000
0000
1003
0100
1000
0010
2000
0000
3002
0000
0013
0100
0010
0001
,
0040
0000
0000
0000
0031
1000
0001
1000
0010
1000
0010
0100
0004
1000
0000
1000
,
0103
0000
0000
0000
0000
0000
0000
0000
0000
0000
0000
0000
0010
0000
0000
0000
0000
0000
0000
0000
0000
0000
0000
0000
0100
0000
0000
0000
0000
0000
0000
0000
0000
0000
0000
0000
1000
0000
0000
0000
0000
0000
0000
0000
0000
0000
0000
0000
0000
0001
0000
0000
0000
0000
0000
0000
0000
0000
0000
0000
0000
1000
0000
0000
0000
0000
0000
0000
0000
0000
0000
0000
0000
0010
0000
0000
0000
0000
0000
0000
0000
0000
0000
0000
0000
0100
0000
0000
0000
0000
0000
0000
0000
0000
0000
0000
0000
0001
0000
0000
0000
0000
0000
0000
0000
0000
0000
0000
0000
1000
0000
0000
0000
0000
0000
0000
0000
0000
0000
0000
0000
0100
0000
0000
0000
0000
0000
0000
0000
0000
0000
0000
0000
0010
0000
0000
0000
0000
0000
0000
0000
0000
0000
0000
0004
0000
0000
0000
0000
0000
0000
0000
0000
0000
0000
0000
0000
0000
0000
0000
0000
0000
0000
0000
0000
0000
0000
0000
0000
0000
0000
0000
0000
0000
0000
0000
0000
0000
0000
0000
0000
0000
0000
0000
0000
0000
0000
0000
0000
0000
0000
0000
,
0000
0000
0000
0000
0013
0100
1000
0001
1000
0001
0010
0100
1000
0001
1000
0001
,
0010
0100
1000
0001
0100
0010
1000
0001
1000
0001
0100
0010
1000
0001
1000
0001
,
0100
0010
1000
0001
2000
0000
0000
0000
0000
0000
3200
0000
0000
0000
0000
0000
,
0320
0000
0031
1000
0010
0100
0001
1000
,
0100
0010
0001
0002
0000
2003
0000
0000
,
3020
0000
0130
0001
1000
0200
0000
0310
,
0004
0000
0000
0000
0000
0000
0000
0000
0000
0000
0000
0000
1003
0000
0000
0000
0010
0000
0000
0000
0100
0000
0000
0000
0001
0000
0000
0000
0000
0000
0001
0000
0000
1000
0000
0000
0100
0000
0000
0010
0000
0000
0001
0000
0000
1000
0000
0000
,
0001
0010
0100
1000
0100
1000
0001
0100
0010
0000
0100
0001
1000
0100
0010
0001
,
1000
0000
0004
0000
1003
0100
1000
0100
1000
0001
1000
0001
1000
0100
1000
0100
,
1000
0001
1000
0001
0100
0001
0100
0001
0100
0010
0100
0010
0100
0001
0100
0001
,
1000
0001
1000
0000
1001
0000
0000
0000
0000
0000
0000
0000
1100
0000
0000
0000
,
0000
0110
0000
1001
,
0000
0000
0000
0000
0001
1000
0001
1000
0001
1000
0001
1000
0001
1000
0001
1000
,
0001
1000
0001
1000
0010
0100
0010
0100
0010
0100
0010
0100
0010
0100
0010
0100
,
0010
0000
0000
0100
0000
0000
0010
0000
0000
0100
0000
0000
0001
0000
1000
0000
0100
0000
0000
0000
1000
0000
0000
0000
0001
0000
0000
0000
0100
0000
0000
0000
0010
0000
0000
0000
1000
0000
0001
0000
0010
0000
0000
0000
0100
0000
0000
0000
,
1000
0000
0001
0000
0100
0000
0010
1000
0001
0000
1000
0000
0100
0000
0010
0000
0001
0000
1000
0100
1000
0000
0001
0000
,
0100
0004
0000
0000
0000
0000
1003
0000
0000
1000
0000
0000
0100
0000
0000
0100
0000
0000
1000
0000
0000
1000
0000
0000
,
0010
0010
1010
0000
1001
0000
0011
1001
,
1200
0000
0320
0000
0000
0032
0000
0000
,
4003
0000
3010
0100
0000
0100
0000
0002
,
0000
0000
0000
0000
4003
0400
0000
0000
0000
0000
0000
0000
0000
0000
0000
0000
,
0000
0000
0000
3300
0010
0001
1000
0001
0100
0010
0100
0001
1000
0100
1000
0001
,
0010
0100
1000
0010
0100
0001
0100
0001
0100
0001
0100
0001
1000
0100
1000
0100
,
1000
0100
1000
0100
1000
0001
0100
0010
0100
0001
1000
0001
0400
0000
0000
0000
,
0000
0000
0000
0000
0310
1000
0010
1000
0001
0100
0001
0100
0001
0010
0001
0010
,
0100
1000
0100
1000
0001
0010
0001
0010
0100
1000
0100
1000
0010
1000
0010
1000
,
0001
0100
0001
0100
0020
0000
0000
0000
0000
0000
2030
0000
0000
0000
0000
0000
,
3200
0000
0310
0002
0000
2003
0000
3002
,
0000
0000
1003
0002
0000
2003
0000
3200
,
0000
0000
0320
0000
0000
0000
0031
0000
1000
0000
0001
0000
1000
0010
1000
0010
,
0100
0001
0100
0001
1000
0000
0001
0000
1000
0100
0010
0000
0M01
0000
1000
0000
,
0001
0100
0010
0000
1M00
0001
1000
0001
1000
0001
1000
0001
1000
0001
1000
0001
,
1000
0001
1000
0001
1000
0100
0010
0001
1000
0100
0010
0001
1000
0100
0010
0001
,
1000
0100
0010
0001
1000
0000
0000
0010
0000
0000
0100
0000
0002
0000
0000
0000
,
0000
0000
0000
0000
1003
0000
0010
0000
0100
0010
0100
0000
0001
0000
1000
0000
,
0001
0010
0001
0000
1000
0000
0100
0000
0010
0100
0010
0000
0100
0000
1000
0000
,
0001
0100
0001
0000
1000
0000
0010
0000
0100
0001
0100
0000
0010
0000
1000
0000
,
0001
1000
0001
0000
0010
0000
0100
0000
1000
0100
1000
0000
0001
0000
0100
0000
,
0010
1000
0010
0000
0100
0000
0001
0000
1000
0010
1000
0000
0001
0000
0010
0000
,
0001
0010
0001
0000
1000
0000
0100
0000
0010
0001
0010
0000
0001
0000
0100
0000
,
0010
0100
0010
0000
1000
0100
1000
0100
10M0
0001
10M0
0001
0100
0001
0100
0001
,
M100
0010
M100
0010
1000
0001
1000
0100
0010
0001
1000
0010
1000
0001
0100
0001
,
1000
0001
1000
0001
0100
0010
0100
0000
0010
1000
0010
0000
1000
0001
1000
0000
,
0001
0010
0001
0000
1000
0001
1000
0000
0001
0010
0001
0000
0010
0100
0010
0000
,
0100
1000
0100
0000
1000
0001
1000
0000
0001
0100
0001
0000
1000
0001
1000
0000
,
0010
1000
0010
0000
0100
0000
0100
0000
0001
1000
0100
0000
0010
0000
0010
0000
,
0001
1000
0100
0000
0010
0001
0010
0000
0001
1000
0001
0000
1000
0010
1000
0000
,
0010
0100
0010
0000
0100
0001
0100
0000
0001
1000
0001
0000
1000
0100
1000
0000
,
0001
0010
0001
0000
1000
0000
1000
0000
0001
1000
0100
0000
0010
0000
0010
0000
,
0001
1000
0010
0000
0110
0000
0100
0000
0001
1000
0001
0000
0011
0000
0010
0000
,
0100
1000
0100
0000
1000
0100
1000
0001
0100
0001
1000
0010
1000
0001
0010
0001
,
0100
0010
0100
0001
0100
0010
1000
0010
1000
0001
0010
0001
1000
0100
1000
0001
,
0100
0001
1000
0001
2000
0000
0000
0000
3100
0000
0010
0000
0004
0000
1003
0000
,
0010
0100
0004
1003
0100
1000
0020
0000
,
0M3M
00M0
0200
0000
0301
2000
0000
3200
,
0000
0000
0310
0001
1000
0020
0000
0000
,
0000
0000
0000
0000
0000
0000
0000
0000
0M3M
0000
0000
0000
00M0
0000
0000
0000
0100
0000
0000
0000
0000
0000
0000
0000
0100
0002
0000
0000
0000
0000
0000
0000
,
2003
0000
3002
0000
0000
0023
0000
0000
,
0230
0000
2300
0000
0000
0040
0000
0000
,
0000
0000
3000
0000
1030
0100
0010
0004
4000
0000
0000
0000
0000
0000
0000
0000
,
0000
0000
0000
0000
3013
0100
0010
1000
0001
0100
0001
1000
0010
0100
0001
1000
,
0001
0000
0000
0010
0000
0000
0100
0000
1000
0000
0000
0000
0001
0000
0000
0100
0000
0000
0001
0000
0000
0100
0000
0000
0001
0000
0000
0100
0000
0000
0001
0000
0000
0100
0000
0000
0001
0000
0000
1000
0000
0000
0001
0000
0000
1000
0000
0000
,
0001
1000
0001
0000
1000
0010
0100
0001
1000
0100
1000
0001
0010
0100
1000
0001
,
0010
0000
0000
0001
0000
0000
1000
0000
0000
0000
0000
0000
0002
0000
0000
0000
0000
0000
0003
0000
1000
0000
0000
0000
0100
0000
0000
0000
0010
0000
0000
0000
0001
0000
0000
0000
1000
0000
0000
0000
0001
0000
0000
0000
0100
0000
0000
0000
,
0002
0000
2003
3200
2300
3200
0340
0000
,
0000
0031
4000
0000
0000
3001
0200
0000
,
0304
0000
2003
0000
3001
0001
0200
0000
,
0340
0000
1030
0000
0001
0100
0001
0100
0010
1000
0010
1000
0001
0010
0001
0010
,
0100
1000
0100
1000
0001
0100
0010
0100
0001
1000
0010
1000
0001
0010
0001
1000
,
0100
0010
0001
1000
0001
0100
0001
1000
0100
1000
0001
0010
0001
1000
0001
0100
,
0002
0000
0000
0000
1003
0100
0010
0000
0110
0000
0000
0000
0100
1000
0001
0000
,
0101
0000
0000
0000
0100
0010
1000
0001
1000
0001
0100
0010
1000
0001
1000
0001
,
0100
0000
0000
0010
0000
0000
1000
0000
0000
0001
0000
0000
M200
0000
0000
0000
0000
0000
0000
0000
000M
0000
0000
0000
0000
0000
M000
0000
0000
0000
00M0
0000
0000
0000
0000
0000
0000
0000
0000
0000
0000
0000
000M
0000
M000
0000
0000
0000
,
0000
00M0
M301
0M00
00M0
0000
0000
0000
,
0000
0000
0000
0000
1000
0000
0000
0001
1000
0000
0100
0000
0010
0000
0001
0000
,
1000
0000
0001
0000
1000
0000
0000
0001
0100
0000
0010
0000
1000
0000
0100
0000
,
0010
0000
0001
0000
1000
0100
1000
0100
1000
0100
0010
0001
1000
0100
1000
0100
,
0010
0001
1000
0100
1000
0000
0001
0000
1000
0000
0001
0000
1MM1
0000
0000
0000
,
1MM1
0000
0000
0000
0001
0000
0100
0000
0010
0100
0010
0000
1000
0000
0001
0000
,
0010
0001
0010
0000
0100
0000
0100
0000
1000
0000
1000
0000
0001
0000
0001
0000
,
0100
0100
0001
0010
0400
0300
1M00
0001
,
0400
0000
0300
0000
0M10
0000
1000
0000
0001
1000
0001
0000
1000
0000
0100
0000
,
0010
0001
0010
0000
0001
0000
0100
0000
0001
1000
0001
0000
0100
0000
0010
0000
,
0100
0001
0100
0000
0001
0000
0010
0000
0100
1000
0100
0000
1000
0000
0001
0000
,
1000
0001
1000
0000
0001
0100
0010
1000
0010
1000
0001
0100
0010
1000
0010
1000
,
0001
0100
0010
1000
0001
0100
0001
0100
0001
0100
0001
0100
0001
1000
0001
1000
,
0001
1000
0001
1000
0001
0100
0010
0100
0001
1000
0001
1000
0100
0010
0001
1000
,
0001
0100
0001
0010
0100
1000
0001
0100
0010
1000
0001
0100
0001
1000
0100
0010
,
0100
1000
0001
0010
0001
1000
0010
1000
0001
0100
0001
0010
0100
1000
0001
0100
,
0001
1000
0010
0100
0001
1000
0001
1000
0001
1000
0001
1000
0001
1000
0001
1000
,
0001
1000
0001
1000
0010
0000
0100
0000
0010
1000
0010
0000
0100
0000
0001
0000
,
1000
0001
1000
0000
0001
0000
0001
0000
0010
0000
0010
0000
0100
0000
0100
0000
,
1000
0000
1000
0000
0001
0100
0010
1000
0001
1000
0100
0010
0001
1000
0001
0100
,
0010
0100
0001
1000
0010
0100
0001
1000
0001
0010
0100
1000
0001
0100
0001
0100
,
0001
0100
0001
0100
0002
0000
0000
0000
0000
0000
0000
0000
0000
0000
0000
0000
,
0000
0000
0000
0000
1003
0100
1000
0100
0010
0000
0010
0000
0001
1000
0001
1000
,
0010
0000
0010
0000
1000
0010
1000
0000
0010
1000
0010
0000
1000
0001
1000
0000
,
0001
1000
0001
0000
0010
0001
0010
0000
0001
0010
0001
0000
1000
0100
1000
0000
,
0001
0100
0001
0000
1000
0010
1000
0000
0010
0100
0010
0000
0100
0001
0100
0000
,
0001
1000
0001
0000
1000
0010
0100
0001
1000
0010
0100
0001
1000
0100
0010
0001
,
1000
0100
0010
0001
1000
0000
0010
0000
0100
0001
0100
0000
0001
0000
0010
0000
,
0100
1000
0100
0000
1000
0001
0100
0010
1000
0001
1000
0001
0010
0100
1000
0010
,
0100
0001
1000
0001
2000
0000
0000
0000
0000
0000
0000
0000
0000
0000
0000
0000
,
0000
3020
0000
0000
,
0000
0000
0000
0000
1030
0100
1000
0001
0100
0001
1000
0010
1000
0001
0010
0001
,
1000
0010
1000
0001
1001
0000
0000
0000
1001
0000
0000
0000
1001
0000
0000
0000
,
1001
0000
0000
0000
1000
0001
1000
0010
0100
0001
1000
0100
0010
0001
1000
0100
,
0010
0001
1000
0010
0100
0000
0010
0000
1000
0000
0010
0000
0100
0000
0001
0000
,
1000
0100
1000
0001
0010
0100
1000
0001
,
0010
0001
1000
0010
0100
0001
1000
0100
,
1000
0001
0010
0100
1000
0001
1000
0001
,
0010
0001
1000
0001
0200
0000
0310
1000
0001
0100
0001
1000
0100
0010
0001
0100
,
0001
1000
0001
0100
0010
1000
0100
0010
0001
0010
0001
1000
0001
1000
0100
1000
,
0001
0100
0010
1000
1001
0000
0000
0000
0000
0000
0000
0000
0110
0000
0000
0000
,
0000
0000
1001
0110
1001
0110
0220
0000
,
0000
0000
0000
0000
0300
0030
0000
0000
;
