#TITLE:Dan;
#SUBTITLE:(Old Skool Mix);
#ARTIST:SPASM;
#TITLETRANSLIT:;
#SUBTITLETRANSLIT:;
#ARTISTTRANSLIT:;
#CREDIT:Plaguefox (gamecast.org/plaguemix);
#BANNER:danoldskool-bn.png;
#BACKGROUND:danoldskool-bg.jpg;
#LYRICSPATH:;
#CDTITLE:pm1cd.png;
#MUSIC:danoldskool.ogg;
#OFFSET:-0.017;
#SAMPLESTART:35.353;
#SAMPLELENGTH:13.578;
#SELECTABLE:YES;
#BPMS:0.000=163.022;
#STOPS:;
#BGCHANGES:;
// cache tags:
#FIRSTBEAT:16.000;
#LASTBEAT:264.000;
#SONGFILENAME:Songs/plaguemix series/Dan (Old Skool Mix)/danoldskool.sm;
#HASMUSIC:1;
#HASBANNER:1;
#MUSICLENGTH:97.908;
// end cache tags

//---------------dance-single - LIGHT----------------
#NOTES:
     dance-single:
     LIGHT:
     Easy:
     5:
     0.369,0.404,0.266,0.102,0.000,217.000,26.000,10.000,0.000,0.000:
0000
0000
0000
0000
,
0000
0000
0000
0000
,
0000
0000
0000
0000
,
0000
0000
0000
0000
,
0001
0000
0100
0000
,
1000
0000
0100
0000
,
0001
0000
1000
0000
,
0001
0001
1000
0001
,
1000
0001
0100
1010
,
1000
0001
0100
0001
,
0001
1000
0100
0011
,
0001
1000
0100
1000
,
1000
0001
0100
1010
,
1000
0001
1100
0101
,
0100
0000
0100
0000
0100
0000
0100
0100
,
0100
0100
0100
0100
,
1000
0001
0100
1000
,
0001
0000
0100
0000
0100
0001
0000
0000
,
1000
0001
0100
1000
,
0001
0100
0100
0000
,
0001
1000
0010
0001
,
1000
0000
0010
0000
0010
1000
0000
0000
,
0001
1000
0010
0001
,
1000
0010
1001
0110
,
1000
0010
0100
0011
,
1000
0010
0101
0011
,
1000
0010
0100
0011
,
1000
0010
0100
0001
,
0001
0010
0100
1010
,
0001
0010
0100
1000
,
0001
0010
0100
1010
,
0001
0010
0100
1000
,
0010
0000
0000
0100
0000
0000
0001
0000
,
0010
0000
0000
0100
0000
0000
0000
0000
,
1000
0000
0000
0010
0000
0000
0100
0000
,
0001
0100
1000
0100
,
0001
0000
0000
0010
0000
0000
0000
0000
,
0100
0000
0000
1000
0000
0000
0010
0000
,
0100
0000
0000
0001
0000
0010
0000
0000
,
0100
1000
0010
1000
,
0100
1000
0010
0101
,
1000
0010
0100
0011
,
0100
0001
0010
1100
,
0001
0010
0100
1010
,
0010
1000
0100
0011
,
1000
0100
0010
0101
,
0010
0001
0100
1010
,
0001
0100
0010
1100
,
0020
0000
0000
0000
0000
0000
0000
0030
,
2000
0000
0000
3100
,
0002
0000
0000
0000
0000
0000
0000
0003
,
0200
0000
0000
0000
0000
0000
0000
0300
,
0020
0000
0000
1000
0000
1000
0000
0030
,
0200
0000
0000
0010
0000
0010
0000
0300
,
0002
0000
0000
0100
0000
0100
0000
0003
,
0020
0000
0000
0100
0000
0100
0000
0030
,
1000
1000
1000
1000
,
0100
0100
0100
0100
,
0001
0001
0001
0001
,
0010
0010
0010
0010
,
1000
0100
1000
0001
,
0100
0001
1100
0101
,
1000
0001
1000
0110
,
0001
1000
1010
0011
,
1000
1000
0100
0001
,
0002
0000
2000
0000
,
3003
0000
0000
0000
;

//---------------dance-single - STANDARD----------------
#NOTES:
     dance-single:
     STANDARD:
     Medium:
     6:
     0.398,0.438,0.296,0.102,0.036,234.000,29.000,10.000,0.000,0.000:










0000
0000
0000
0000
,
0000
0000
0000
0000
,
0000
0000
0000
0000
,
0000
0000
0000
0000
,
1000
0000
0000
0001
0000
0000
1000
0000
0000
0000
0001
0000
0000
0000
0100
0000
,
0010
0000
0000
1000
0000
0000
0010
0000
0000
0000
1000
0000
0000
0000
0001
0000
,
0010
0000
0000
0100
0000
0000
0010
0000
0000
0000
0100
0000
0000
0000
1000
0000
,
0001
0000
0000
0100
0000
0000
0001
0000
0000
0000
0100
0000
0000
0000
0001
0000
,
1000
0001
0100
1010
,
1000
1100
0101
0011
,
0001
1000
0100
0011
,
0001
0000
1000
0000
0100
1000
0000
0000
,
1000
0001
0100
1010
,
1000
0001
1000
0001
,
0100
0000
0100
0000
0100
0000
0001
1000
,
0001
0100
0100
0100
,
0001
1000
0100
0001
,
1000
0000
0100
0000
0100
1000
0000
0000
,
0001
1000
0100
0001
,
1000
0000
0000
0000
0100
0000
0000
0000
0100
0000
1000
0000
0000
0001
0000
0000
,
1000
0001
0010
1000
,
0001
0000
0010
0000
0010
0001
0000
0000
,
1000
0001
0010
1000
,
0001
0010
1001
0110
,
0000
1000
0000
0010
0000
0100
0000
1000
,
0000
1000
0000
0010
0000
0001
0000
0001
,
0000
1000
0000
0010
0000
0100
0000
1000
,
0000
1000
0000
0010
0000
0100
0000
0001
,
0000
0001
0000
1010
0000
0100
0000
0001
,
0000
0001
0000
1010
0000
0100
0000
1000
,
0000
0001
0000
1010
0000
0100
0000
0001
,
0000
0001
0000
1010
0000
0100
0000
0000
,
0110
0000
0000
1001
0000
0000
0001
0000
,
0010
0000
0000
0101
0000
0000
0000
0000
,
0110
0000
0000
1001
0000
0000
0100
0000
,
0001
0100
1000
0100
,
0001
0000
0000
0110
0000
0000
0000
0000
,
0100
0000
0000
1000
0000
0000
0010
0000
,
1000
0000
0000
0001
0000
0010
0000
0000
,
0001
1000
0010
1000
,
0100
1000
0010
0101
,
1000
0000
0010
0001
0100
0000
0011
0000
,
0100
0001
0010
0000
0001
0000
1100
0000
,
1000
0001
1000
0001
,
0010
1000
0100
0011
,
1000
0000
0100
1000
0010
0000
0101
0000
,
0010
1000
0100
0000
0001
0000
1010
0000
,
0001
1000
0001
1000
,
0200
0000
0000
0000
0000
0000
0000
0300
,
2000
0000
0000
3010
,
0002
0000
0000
0000
0000
0000
0000
0003
,
0020
0000
0000
0000
0000
0000
0000
0030
,
0200
0000
0000
1000
0000
1000
0000
0300
,
0020
0000
0000
0100
0000
0100
0000
0030
,
0002
0000
0000
0010
0000
0010
0000
0003
,
0200
0000
0000
0010
0000
0010
0000
0300
,
1000
0000
0000
0000
1000
0000
0000
1000
0000
0000
0000
0000
1000
0000
0000
0000
,
0010
0010
0100
0100
,
0001
0000
0000
0000
0001
0000
0000
0001
0000
0000
0000
0000
0001
0000
0000
0000
,
0100
0100
0010
0010
,
0001
0000
0100
0000
0001
0000
1000
0001
,
1000
0001
1000
0000
0110
0000
1001
0000
,
1000
0001
1000
0110
,
0001
1000
1010
0011
,
1000
1000
0100
0001
,
2000
0000
0002
0000
,
3003
0000
0000
0000;

//---------------dance-single - HEAVY----------------
#NOTES:
     dance-single:
     HEAVY:
     Hard:
     8:
     0.476,0.438,0.153,0.020,0.092,309.000,15.000,2.000,0.000,0.000:
0000
0000
0000
0000
,
0000
0000
0000
0000
,
0000
0000
0000
0000
,
0000
0000
0000
0000
,
1000
0000
0000
1000
0000
0000
0001
0000
0000
0000
1000
0000
0000
0000
0001
0100
,
0001
0000
0000
0001
0000
0000
1000
0000
0000
0000
0001
0000
0000
0000
1000
0100
,
1000
0000
0000
0010
0000
0000
0100
0000
0000
0000
0001
0000
0000
0000
0010
0001
,
0010
0000
0000
0100
0000
0000
1000
0000
0000
0000
0001
0000
0000
0000
0000
0000
,
1000
0001
0100
1010
,
1000
0000
0001
0100
0001
1000
0001
0100
,
0001
1000
0100
0011
,
0001
0000
1000
0000
0100
1000
0000
0000
,
1000
0001
0100
1010
,
1000
0000
0001
0000
1000
0100
0001
0100
,
0000
0000
0000
0000
1000
0010
0100
0001
,
0100
0010
1000
0010
0100
0001
0100
0010
,
1000
0000
0001
1000
0100
0000
0100
1000
,
0001
0000
0001
1000
0100
1000
0000
0000
,
0001
0000
0001
1000
0010
0000
0010
1000
,
0001
0000
0001
1000
0010
1000
0000
0000
,
1000
0000
1000
0001
0100
0000
0100
0001
,
1000
0000
1000
0001
0100
0001
0000
0000
,
1000
0000
1000
0001
0010
0000
0010
0001
,
1000
1000
1001
0110
,
0000
1000
0000
0010
0000
0100
0001
1000
,
0000
1000
0000
0010
0100
0001
0010
0001
,
0000
1000
0000
0010
0000
0100
0001
1000
,
0000
1000
0000
0010
0000
0100
0000
0001
,
0000
0001
0000
0010
0000
0100
1000
0001
,
0000
0001
0000
0010
0000
0100
0000
1000
,
0000
0001
0000
0010
0000
0100
1000
0001
,
0000
0001
0000
0010
0000
0100
0000
0000
,
1000
0000
0001
1000
0000
0100
1000
0000
,
1000
0000
0000
0000
0001
0000
1000
0000
0000
0000
0100
1000
0100
0000
1000
0000
,
0100
0000
0001
1000
0000
0100
1000
0000
,
1000
0100
0001
0100
,
0001
0000
1000
0001
0000
0000
1001
0000
,
0001
0000
0100
0001
0000
1000
0001
0000
,
0001
0000
0010
0001
0000
0001
0000
0100
,
0001
0000
1000
0000
0010
0100
0001
1000
,
0010
1000
0100
0011
,
1000
0000
0100
1000
0010
0000
0101
0000
,
0010
1000
0100
0000
0001
0000
1010
0000
,
0001
1000
0001
1000
,
0100
1000
0010
0101
,
0001
0000
0010
0001
0100
0000
0011
0000
,
0100
0001
0010
0000
0001
0000
1100
0000
,
1000
0001
1000
0001
,
1000
0000
0000
0001
0000
0000
1000
0000
0000
0000
0001
0000
0000
0000
0100
0000
,
0010
0000
0000
1000
0000
0000
0010
0000
0000
0000
1000
0000
0000
0000
0001
0000
,
0010
0000
0000
0100
0000
0000
0010
0000
0000
0000
0100
0000
0000
0000
1000
0000
,
0001
0000
0000
0100
0000
0000
0001
0000
0000
0000
0100
0000
0000
0000
0001
0000
,
0001
0000
0000
1000
0000
0000
0001
0000
0000
0000
1000
0000
0000
0000
0100
0000
,
0010
0000
0000
0001
0000
0000
0010
0000
0000
0000
0001
0000
0000
0000
1000
0000
,
0010
0000
0000
0100
0000
0000
0010
0000
0000
0000
0100
0000
0000
0000
0001
0000
,
1000
0000
0000
0100
0000
0000
1000
0000
0000
0000
0100
0000
0000
0000
0001
0000
,
1000
0000
1000
0000
1000
0000
0000
1000
0000
0000
0001
0000
1000
0000
0000
0000
,
0010
0010
0010
0000
0100
0100
0100
0000
,
0001
0000
0001
0000
0001
0000
0000
0001
0000
0000
1000
0000
0001
0000
0000
0000
,
0100
0100
0100
0000
0010
0000
0010
0000
,
0001
0000
0100
0000
0001
0000
1000
0001
,
1000
0100
1000
0000
0110
0000
1001
0000
,
1000
0001
1000
0110
,
0001
0000
1000
0100
0010
0100
0001
0000
,
1000
1000
0010
0001
,
0020
0000
0200
0000
,
0330
0000
0000
0000
;
