#TITLE:TTFAF SOLO;
#SUBTITLE:stepxunit;
#ARTIST:DragonForce;
#TITLETRANSLIT:;
#SUBTITLETRANSLIT:;
#ARTISTTRANSLIT:;
#CREDIT:;
#BANNER:dragsolo-bn.png;
#BACKGROUND:dragsolo-bg-both.png;
#LYRICSPATH:;
#CDTITLE:xunit.png;
#MUSIC:DragSolo.mp3;
#OFFSET:0.000;
#SAMPLESTART:48.460;
#SAMPLELENGTH:22.400;
#SELECTABLE:YES;
#BPMS:0.000=100.000,24.000=200.000,248.000=100.000,276.000=200.000,404.000=100.000,416.000=200.000,680.000=800.000,712.000=100.000,724.000=400.000,728.000=100.000,740.000=400.000,744.000=170.000,872.000=200.000,1136.000=100.000,1168.000=200.000,1288.000=100.000,1300.000=200.000;
#STOPS:724.000=1.800
,740.000=3.040
;
#BGCHANGES:0.000=dragsolo-bg.png=1.000=0=0=1,
4.333=dragsolo-bg-both.png=1.000=0=0=1,
24.000=dragsolo-bg-herman.png=1.000=0=0=1,
88.000=dragsolo-bg-sam.png=1.000=0=0=1,
120.000=dragsolo-bg-herman.png=1.000=0=0=1,
184.000=dragsolo-bg-both.png=1.000=0=0=1,
248.000=dragsolo-bg-zing.png=1.000=0=0=1,
283.000=dragsolo-bg-zing-both.png=1.000=0=0=1,
339.000=dragsolo-bg-zing-both.png=1.000=0=0=1,
339.333=dragsolo-bg-both.png=1.000=0=0=1,
349.000=dragsolo-bg-both.png=1.000=0=0=1,
416.000=dragsolo-bg.png=1.000=0=0=1,
444.000=dragsolo-bg.png=1.000=0=0=1,
99999=-nosongbg-=1.000=0=0=0 // don't automatically add -songbackground-
;
// cache tags:
#FIRSTBEAT:24.000;
#LASTBEAT:446.000;
#SONGFILENAME:Songs/new encore/DragSolo/Through the Fire and Flames.sm;
#HASMUSIC:1;
#HASBANNER:1;
#MUSICLENGTH:153.616;
// end cache tags

//---------------dance-single - ----------------
#NOTES:
     dance-single:
     :
     Hard:
     12:
     1.000,1.000,0.612,1.000,1.000,1143.000,94.000,163.000,0.000,3.000:
0000
0000
0000
0000
,
0000
0000
0000
0000
,
0000
0000
0000
0000
,
0000
0000
0000
0000
,
0000
0000
0000
0000
,
0000
0000
0000
0000
,
0001
0010
0100
0010
0100
1000
0001
0010
0100
1000
0001
0010
0100
0010
0100
1000
,
0100
0010
0001
1000
0100
0010
0001
0010
0001
0100
0010
0100
2000
0000
0000
3000
,
0001
0010
0100
1000
0100
1000
0100
0010
0001
0010
0001
0100
0001
0100
0010
1000
,
0001
0100
0010
0100
0001
0010
0100
0010
2002
3003
2002
3003
2002
0000
0000
3003
,
1000
0001
1000
0010
1000
0100
0010
0001
0010
0001
0010
0100
1000
0100
0010
0001
,
1000
0100
1000
0010
1000
0100
0010
0001
0010
0001
0010
0100
2000
0000
3000
0000
,
0001
0010
0100
0010
0100
1000
0100
0010
0100
0010
0001
0010
0001
0010
0100
1000
,
0100
0010
0100
1000
0010
0100
0001
0010
0001
0010
0100
1000
0001
0010
0100
1000
,
2002
3003
0110
2002
3003
0110
1001
0110
,
0001
0010
0100
1000
0100
0010
2002
3003
,
1001
1002
0013
1010
1001
0220
0332
0003
,
2002
3003
2002
3000
0013
0000
0100
0000
2000
0000
3100
0000
0220
0000
0330
0000
,
0002
0023
0230
2300
3002
0013
0100
0010
0002
2003
3020
2030
3002
2003
3100
0020
,
0031
0010
0100
1000
0100
0020
0032
0023
0032
2003
3002
0023
2030
0000
3000
0000
,
0001
0100
0001
0100
0001
0100
0010
0100
0001
0100
0001
0100
0001
0100
0010
0100
,
0001
0100
0001
0100
0001
0100
0010
0100
2000
0000
0000
0000
0200
0000
3300
0000
,
0001
0000
0000
0010
0000
0000
0100
0000
0001
0000
0010
0000
0100
0000
1000
0000
0001
0000
0010
0000
0100
0000
1000
0000
0001
0000
0010
0000
0100
0000
1000
0000
,
1001
2002
3003
0100
0010
0001
0220
0330
,
1000
0010
0100
0001
1000
0100
0010
0100
1000
0010
0100
0001
,
0010
0100
0010
0100
0010
0000
0200
0000
0320
0000
0130
0000
1000
0000
0001
0000
,
1000
0100
0010
0001
1000
0100
0010
0001
1000
0100
0010
0001
1000
0100
0010
0001
,
1000
0100
0010
0001
0001
0010
0100
1000
0001
0010
0001
0100
2000
0000
3002
0003
,
0001
1000
0001
1000
0001
0100
0001
0100
2002
0000
0000
0000
0000
0000
0000
3003
,
0001
0010
0100
1000
0001
0010
0100
1000
2002
0000
0000
0000
0000
0000
3003
0000
,
2002
0000
0000
0000
0000
0000
3003
0000
2002
0000
0000
0000
3003
0000
0010
0100
,
1000
0000
0100
0000
0010
0000
0002
0000
0000
0000
0000
0000
0003
0000
0001
0010
,
1000
0100
0010
0001
0001
0010
0100
1000
,
1000
0010
0001
0100
2002
0000
0000
3003
,
0000
0000
0002
0003
0010
0000
0100
1000
,
2000
0000
3000
0200
0300
0020
0030
0001
,
0002
0013
0100
1000
0100
0010
0001
0020
,
0000
0030
0001
0010
0002
0013
0200
0300
,
0001
1000
0010
0200
0300
1000
0100
0010
,
0001
0000
0010
0000
0100
0000
1000
0000
0001
0010
0100
0010
0002
0000
0003
0000
,
0002
0013
0020
0130
0200
1300
2000
3100
,
0001
0001
0001
0100
0100
0100
0200
0300
,
0001
0000
0000
0010
0000
0000
0100
0000
0000
1000
0000
0000
0100
0000
0000
0010
0000
0000
0001
0000
0010
0000
0100
0000
1000
0000
0000
0100
0000
0000
0010
0000
0000
0001
0000
0000
0010
0000
0000
0100
0000
0000
1000
0000
0100
0000
0010
0000
,
0001
0010
0100
1000
0001
0010
0100
1000
0001
0100
0010
1000
0001
0000
0100
0000
,
0001
0000
0001
0010
0100
1000
0100
0010
1000
0100
0010
0001
1000
0100
0010
0001
,
1000
0100
0010
0001
1000
0100
0010
0001
0010
0100
1000
0100
0010
0001
0010
0000
,
0002
0000
0000
0000
0000
0003
0020
0000
0000
0030
0200
0000
0000
0300
1000
0000
,
0001
0010
0000
0200
0300
1000
0000
0010
,
0001
0010
0100
1000
0001
0100
0001
0010
2002
0000
0000
0000
0000
0000
3003
0000
,
0001
1000
0010
0200
0000
0000
0000
0300
,
0001
0001
1000
0001
0001
1000
0001
1000
,
0001
0010
0000
0100
0000
1000
2002
3003
,
1000
0010
0100
0001
1000
0010
0100
0001
1000
0010
0100
0001
1000
0010
0100
0001
,
0100
1000
0001
1000
0001
0010
0100
1000
0001
0100
0001
0100
0001
0010
0100
1000
,
0001
0001
1000
1000
0100
0100
1000
1000
0010
0010
1000
1000
0100
0100
1000
1000
,
0001
1000
0001
1000
0001
1000
0001
1000
0001
1000
0001
1000
0001
1000
0001
1000
0001
1000
0001
1000
0001
1000
0001
1000
,
0001
0010
0001
0100
1000
0100
0010
0001
0100
0010
0001
0010
0100
1000
0100
0010
,
0001
0001
0010
0100
1000
1000
0100
0100
0010
0100
0010
0001
2002
0000
3003
0000
,
0100
0010
0100
0020
0030
0001
0000
0001
,
0010
0100
0020
0000
0030
0000
0001
0000
0010
0000
0100
0000
2200
0000
3300
0000
,
0001
0010
0100
1000
0001
0010
0100
1000
0001
0100
0001
0100
0001
0100
0001
0100
,
0001
1000
0001
1000
0001
1000
0001
1000
0001
1000
0001
1000
0001
1000
0001
1000
0001
1000
0001
1000
0001
1000
0001
1000
,
0002
0000
0000
0000
0000
0020
0003
0000
0000
0000
0000
0200
0030
0000
0000
2000
0300
0000
0000
0000
0000
0200
3000
0000
0000
0000
0000
0020
0300
0000
0030
2002
,
0000
0000
0000
0000
3003
0002
0023
0230
,
2300
0000
0000
0000
0000
0200
3000
0000
0000
0000
0000
0020
0300
0000
0000
0002
0030
0000
0000
0000
0000
0220
0003
0000
0000
0000
0330
2002
0000
0000
3003
0220
,
0000
0000
0000
0000
0000
0000
0000
0000
0330
0000
0220
0330
0022
0033
0220
0330
,
2200
0000
0000
0000
3300
0220
0000
0000
0000
0000
0330
0022
0000
0000
0033
0220
0000
0000
0000
0000
0330
2020
0000
0000
0000
0000
3030
0202
0000
0000
0303
2002
,
0000
0000
0000
0000
3003
0022
0000
0000
0000
0000
0033
2200
0000
0000
3300
2002
0000
0000
0000
0000
0000
0000
0000
0000
0000
0000
0000
0000
3223
0000
0330
0000
,
0022
0000
0000
0000
0033
0220
0000
0000
0000
0000
0330
2200
0000
0000
3300
0220
0000
0000
0000
0000
0330
0022
0000
0000
0000
0000
0033
0000
0220
0000
0330
0000
,
1001
0000
0000
0000
,
0000
0000
0000
0000
,
0000
0000
0100
0000
1000
0100
1000
0000
0100
0000
0010
0000
0001
0010
0001
0000
,
0010
0000
0001
0000
0100
0001
0100
0000
0001
0000
0100
0000
0010
1000
0010
0000
,
0001
0000
1000
0000
0010
1000
0010
0000
1000
0000
0001
0000
0100
0001
0100
0000
,
0001
0000
0100
0000
1000
0100
1000
0000
0100
0000
1000
0000
0001
0010
0001
0000
,
0001
0010
0001
0010
0001
0010
0100
1000
0100
1000
0100
1000
0010
0100
0010
0100
,
0001
1000
0001
1000
0001
1000
0010
0001
0010
0001
0010
0001
0100
0010
0100
0010
,
1000
0100
0010
0001
0010
0100
1000
0001
0100
0010
1000
0001
0010
0001
0100
0010
,
0001
0010
0100
1000
0100
0010
0001
1000
0010
0100
0001
1000
0100
1000
0010
0100
,
1000
0000
0001
0000
0100
0001
0100
0000
0001
0000
1000
0000
0010
1000
0010
0000
,
1000
0000
0010
0000
0001
0010
0001
0000
0010
0000
0001
0000
1000
0100
1000
0000
,
0001
0010
0100
1000
0001
0010
0001
0010
0100
1000
0010
1000
0001
0100
0010
1000
,
0001
0010
0100
1000
0010
0100
0001
1000
0010
1000
0100
0010
0001
1000
0100
0010
,
0001
0010
0001
0010
0001
0010
0100
1000
0100
1000
0100
1000
0010
0100
0010
0100
,
1001
0000
0000
0000
,
0100
0010
0001
0010
0001
0010
0100
0010
0001
0010
0001
0010
0100
0010
0001
0010
,
0100
0010
0001
0010
0001
0010
0100
0010
0001
0010
0001
0010
0100
0010
0001
0010
,
0001
1000
0100
1000
0100
1000
0001
1000
0100
1000
0100
1000
0001
1000
0100
1000
,
0001
1000
0100
1000
0100
1000
0001
1000
0100
1000
0100
1000
0001
1000
0100
1000
,
0010
0100
1000
0100
1000
0100
0010
0100
1000
0100
1000
0100
0010
0100
1000
0100
,
0010
0100
1000
0100
1000
0100
0010
0100
1000
0100
1000
0100
0010
0100
1000
0100
,
0001
1000
0010
1000
0010
1000
0001
1000
0010
1000
0010
1000
0001
1000
0010
1000
,
0100
0001
0010
0001
0010
0001
0010
0001
0010
0100
0010
0100
0010
0001
0010
0100
,
1000
0001
0100
0001
0100
0001
1000
0001
0100
0001
0100
0001
1000
0001
0100
0001
,
1000
0001
0100
0001
0100
0001
1000
0001
0100
0001
0100
0001
1000
0001
0100
0001
,
0010
0001
0100
0001
0100
0001
0010
0001
0100
0001
0100
0001
0010
0001
0100
0001
,
0010
0001
0100
0001
0100
0001
0010
0001
0100
0001
0100
0001
0010
0001
0100
0001
,
0100
1000
0001
1000
0001
1000
0100
1000
0001
1000
0001
1000
0100
1000
0001
1000
,
0100
1000
0001
1000
0001
1000
0100
1000
0001
1000
0001
1000
0100
1000
0001
1000
,
0001
0000
0000
0010
0000
0000
0100
0000
0000
1000
0000
0000
0100
0000
0010
0000
0001
0000
0010
0000
0000
0100
0000
0000
1000
0000
0000
0010
0000
0000
0100
0000
0000
0001
0000
0000
1000
0000
0000
0010
0000
0000
0100
0000
0000
0001
0000
0000
,
1000
0000
0000
0100
0000
0000
0010
0000
0000
0001
0000
0000
0010
0000
0000
0100
0000
0000
0001
0000
0000
0010
0000
0000
1000
0000
0100
0000
0010
0000
0001
0000
0010
0000
0100
0000
1000
0000
0100
0000
0010
0000
0001
0000
0000
0010
0000
0000
,
1001
1001
0110
1001
0000
0110
0000
1001
0000
0110
0000
1001
1100
0110
0011
0110
,
1100
0110
0110
0110
0000
1001
0000
1001
0000
0110
0000
0101
0110
1010
0110
0101
,
1001
0110
1001
0110
0000
1001
0000
1001
0000
1001
0000
1001
0110
0110
0110
0000
,
2002
0000
0000
0000
,
0000
0000
0000
0000
,
0000
0000
0000
0000
,
0000
0000
0000
0000
0000
0000
0000
0000
0000
0000
0000
0000
0000
0000
0000
3003
,
1000
0100
0010
0100
1000
0100
0010
0100
,
2200
0000
3300
0000
,
0001
0000
0000
0010
0000
0000
0100
0000
0000
1000
0000
0000
0001
0000
0000
0010
0000
0000
0100
0000
0000
1000
0000
0000
0001
0000
0000
0000
0000
0000
0000
0000
0010
0000
0000
0000
0000
0000
0000
0000
1000
0000
0000
0000
0000
0000
0000
0000
,
2002
0000
3003
0000
;
