#TITLE:Save Me;
#SUBTITLE:(Smallville Opening Theme);
#ARTIST:Remy Zero;
#TITLETRANSLIT:;
#SUBTITLETRANSLIT:;
#ARTISTTRANSLIT:;
#CREDIT:;
#BANNER:Save Me (Smallville Opening Theme) BN.png;
#BACKGROUND:Save Me (Smallville Opening Theme) BG.png;
#LYRICSPATH:;
#CDTITLE:ncdx_cdtitle.png;
#MUSIC:Remy Zero - Save Me (Smallville Opening Theme).mp3;
#OFFSET:-5.080;
#SAMPLESTART:53.395;
#SAMPLELENGTH:17.000;
#SELECTABLE:YES;
#BPMS:0.000=192.460;
#STOPS:;
#BGCHANGES:;
// cache tags:
#FIRSTBEAT:0.000;
#LASTBEAT:264.000;
#SONGFILENAME:Songs/NC.DX Originals/Save Me (Smallville Opening Theme)/Save Me (Smallville Opening Theme).sm;
#HASMUSIC:1;
#HASBANNER:1;
#MUSICLENGTH:100.814;
// end cache tags

//---------------dance-single - basic----------------
#NOTES:
     dance-single:
     basic:
     Easy:
     3:
     0.265,0.295,0.248,0.149,0.000,147.000,25.000,15.000,0.000,0.000:
1001
0000
0010
0000
,
1000
0000
0000
0001
0000
0000
1000
0000
,
0010
0000
0010
0000
,
0100
0000
0000
0001
0000
0000
1000
0000
,
1001
0000
0100
0000
,
1000
0000
0100
1100
,
0100
0000
0001
0000
,
0100
0000
0001
0101
,
0001
0000
0100
0000
,
0010
0000
0100
0110
,
0100
0000
0010
0000
,
1000
0000
0001
1000
,
1001
0000
0010
0000
,
0001
0000
0010
0011
,
0010
0000
1000
0000
,
0010
0000
1000
1010
,
1000
0000
0010
0000
,
0100
0000
0010
0110
,
0010
0000
0001
0000
,
1000
0100
0010
0001
,
1002
0000
0103
0000
,
0001
0000
1000
0000
,
2001
0000
3100
0000
,
0001
0000
0010
0000
,
1002
0000
0013
0000
,
1000
0000
0010
0000
,
2001
0000
3010
0000
,
1000
0000
0100
0000
,
0120
0000
0030
0000
,
1000
0001
1000
0001
,
2100
0000
3000
0000
,
0001
0001
1000
1000
,
0020
0000
0130
0000
,
0000
0000
1000
0001
,
0200
0000
0310
0000
,
0000
0000
0001
1000
,
1002
0000
0003
0000
,
0000
0000
0001
0001
,
1000
0000
0100
0000
,
0010
0000
0001
0000
,
1001
1000
1001
0000
,
0001
0000
1000
0000
,
1001
0001
1001
0000
,
0001
0000
1000
0000
,
0010
0000
1000
0000
,
0100
0000
0001
0000
,
0010
0000
1000
0000
,
0001
0000
1000
0000
,
0110
0100
0110
0000
,
0010
0000
1000
0000
,
0110
0010
0110
0000
,
0100
0000
0001
0000
,
1000
0000
0100
0000
,
0001
0000
0010
0000
,
1000
0000
0100
0000
,
0001
0000
1000
0000
,
0002
0000
0103
0000
,
0010
0000
0010
0000
,
2000
0000
3010
0000
,
0100
0000
0100
0000
,
0020
0000
0130
0000
,
0001
0000
0001
0000
,
0200
0000
0310
0000
,
1000
0100
0010
0001
,
2002
0000
0000
0000
,
0000
0000
0000
0000
,
3003
0000
0000
0000
;

//---------------dance-single - ----------------
#NOTES:
     dance-single:
     :
     Hard:
     7:
     0.514,0.491,0.357,0.119,0.000,315.000,36.000,12.000,0.000,0.000:
1001
0010
1000
0001
,
0100
0001
0010
0001
0000
1000
0001
0010
,
0100
0100
1000
0010
,
1000
0001
0100
0001
0000
1000
0010
0000
,
1001
0000
0010
0000
0001
0000
1000
0100
,
1000
0000
0001
0100
0001
0000
0101
0000
,
0001
0000
1000
0000
0001
0000
1000
0001
,
1000
0000
0010
0100
0010
0000
0110
0000
,
0010
0000
1000
0000
0001
0000
0010
0100
,
1000
0000
1000
0100
0010
0000
1001
0000
,
0010
0000
1000
0000
0001
0000
1000
0001
,
0100
0000
0001
1000
0100
0000
1100
0000
,
1001
0000
0010
0000
1000
0000
0001
0100
,
0010
0000
1000
0010
0100
0000
0110
0000
,
0100
0000
0001
0000
0010
0000
0100
1000
,
0100
0000
0010
0001
0010
0000
0011
0000
,
0001
0000
0010
0000
0100
0000
1000
0100
,
0010
0000
0010
0100
1000
0000
1100
0000
,
0001
0000
1000
0000
0010
0000
1000
0100
,
0010
0000
0100
0010
0001
0000
0011
0000
,
1002
0100
1003
0010
,
0100
0010
1000
0001
0010
0100
1000
0000
,
2001
0100
3001
0010
,
0001
1000
0010
0100
0001
1000
0001
0000
,
2100
0010
3001
0010
,
0001
1000
0001
0100
0001
1000
0001
0000
,
0012
0100
1003
0010
,
0100
0001
1000
0100
0010
0001
1000
0000
,
0002
0000
0103
0000
,
1000
0010
0100
0001
,
2000
0000
3100
0000
,
0010
0000
0001
0000
1000
0010
0100
0000
,
1001
0100
1001
0010
,
1000
0001
0100
0010
1000
0010
0100
0000
,
1010
0100
1010
0100
,
1000
0001
0010
0001
1000
0001
0100
0000
,
0020
0000
0130
0000
,
1000
0001
0010
0001
,
1000
1000
0001
0001
,
1000
0100
0010
0001
,
1001
0100
1001
0010
,
1000
0001
0100
0001
1000
0001
0010
0000
,
0011
1000
0011
1000
,
0001
0100
0010
1000
0100
0010
0100
0000
,
1100
0010
1100
0010
,
1000
0010
0100
0001
1000
0001
0010
0000
,
0110
0001
0110
1000
,
0001
0010
0100
1000
0100
0010
0001
0000
,
1001
0100
1001
0010
,
0100
0010
0100
0001
1000
0001
1000
0000
,
0110
0001
0110
1000
,
0001
1000
0001
1000
0100
0010
0001
0000
,
0011
1000
0011
1000
,
0001
0100
0001
0100
0010
1000
0010
0000
,
1010
0100
1010
0100
,
1000
0100
0010
0001
0010
0100
1000
0000
,
0002
0100
0103
0000
,
0001
0010
1000
0100
,
0002
0100
0103
0000
,
0100
1000
0010
0001
,
0200
1000
1300
0000
,
0010
0001
0100
1000
,
0010
0001
1000
0001
,
1000
0100
0010
0001
0010
0100
1000
0000
,
2002
0000
0000
0000
,
0000
0000
0000
0000
,
3003
0000
0000
0000
;

//---------------dance-single - ----------------
#NOTES:
     dance-single:
     :
     Medium:
     5:
     0.395,0.360,0.307,0.089,0.000,239.000,31.000,9.000,0.000,0.000:
1001
0010
0100
0001
,
1000
0000
0001
1000
0000
1000
0001
0000
,
0010
0010
0001
1000
,
0010
0000
0100
0010
0000
0010
0100
0000
,
1001
0000
0010
0000
,
1000
0001
0100
0101
,
0001
0000
0010
0000
,
0001
1000
0100
1100
,
1000
0000
0001
0000
,
1000
0010
0100
0110
,
0010
0000
1000
0000
,
0001
0000
1000
0000
0100
0010
0001
0000
,
1001
0000
0010
0000
,
1000
0001
0100
0101
,
0001
0000
1000
0000
,
0001
1000
0010
1010
,
1000
0000
0010
0000
,
0001
0010
0100
0110
,
0010
0000
0100
0000
,
0001
0000
1000
0000
0001
0010
0100
0000
,
2001
0000
3100
0000
,
0010
0001
1000
0010
,
1002
0000
0103
0000
,
1000
0000
0010
0000
0100
0001
1000
0000
,
2001
0000
3010
0000
,
1000
0001
0010
0100
,
1002
0000
0013
0000
,
1000
0000
0001
0000
0100
0010
0100
0000
,
1001
0100
1001
0000
,
0100
0001
1000
0010
,
1010
0001
1010
0000
,
0100
0000
0001
0000
0010
0100
1000
0000
,
0001
0100
0001
1000
,
0010
0000
1000
0001
1000
0000
0100
0010
,
0100
1000
0001
0100
,
0001
0000
0010
0001
0010
0000
0100
0000
,
0110
1000
0110
0000
,
0001
1000
0010
0100
,
1000
1000
0100
0100
,
0010
0010
0001
0001
,
1001
0010
1001
0100
,
0001
1000
0010
0100
,
0001
0001
1000
1000
,
0010
0000
0010
0000
0100
0010
0100
0000
,
1001
0100
1001
0010
,
1000
0001
0100
0001
,
0010
0010
0100
0100
,
1000
0000
0001
0000
1000
0001
1000
0000
,
1100
0010
1100
0001
,
1000
0010
0100
0001
,
1000
1000
0010
0010
,
0100
0000
0100
0000
0001
0010
0001
0000
,
1001
0100
1001
0010
,
1000
0001
0010
0001
,
1000
0010
0100
0100
,
0010
0000
0010
0000
0001
1000
0001
0000
,
1002
0000
1003
0000
,
0100
0001
0010
1000
,
0210
0000
0310
0000
,
0001
0100
1000
0010
,
0102
0000
0103
0000
,
1000
0010
0100
0001
,
1000
1000
0010
0010
,
1000
0000
0001
0000
0010
0100
1000
0000
,
2002
0000
0000
0000
,
0000
0000
0000
0000
,
3003
0000
0000
0000
;
