#TITLE:MAX ReBorn part 3;
#SUBTITLE:;
#ARTIST:2mb vs DM Ashura vs Z vs J & S vs 100-200-400;
#TITLETRANSLIT:;
#SUBTITLETRANSLIT:;
#ARTISTTRANSLIT:;
#CREDIT:;
#BANNER:MAX ReBorn part 3-bn.png;
#BACKGROUND:MAX ReBorn part 3-bn.jpg;
#LYRICSPATH:;
#CDTITLE:cdtitle.png;
#MUSIC:MAX ReBorn part III.mp3;
#OFFSET:-0.460;
#SAMPLESTART:58.500;
#SAMPLELENGTH:12.900;
#SELECTABLE:YES;
#BPMS:0.000=300.000,224.000=280.000,256.000=300.000,352.000=340.000,480.000=170.000,481.500=110.000,482.000=90.000,482.500=80.000,483.000=60.000,484.000=200.001,500.000=399.999,612.000=100.000,616.000=200.000,624.000=399.998;
#STOPS:483.875=0.300
;
#BGCHANGES:;
// cache tags:
#FIRSTBEAT:4.000;
#LASTBEAT:651.000;
#SONGFILENAME:Songs/toune 3/MAX ReBorn part 3/MAX ReBorn part III.sm;
#HASMUSIC:1;
#HASBANNER:1;
#MUSICLENGTH:129.888;
// end cache tags

//---------------dance-single - ----------------
#NOTES:
     dance-single:
     :
     Easy:
     8:
     0.530,0.625,0.038,0.277,0.000,441.000,5.000,36.000,0.000,0.000:
0000
0000
0000
0000
,
0000
0000
0000
0000
,
0000
0000
0000
0000
,
0000
0000
0000
0000
,
0001
0100
1000
0100
,
0001
0100
1000
0100
,
0010
0100
1000
0100
,
0010
0100
0010
0100
,
0001
0100
1000
0100
,
0001
0010
1000
0010
,
0001
0100
0001
0100
,
0010
1000
0010
1000
,
0100
0010
0100
0010
,
1000
0001
1000
0001
,
1000
0100
1000
0100
,
0001
0100
0001
0100
,
1001
0010
0100
0010
,
1000
0100
0010
0100
,
0001
0010
0100
1000
,
0010
0100
0001
1000
,
0001
0100
0010
1000
,
0100
0001
1000
0010
,
1000
0100
0010
0100
,
1000
0010
0100
0001
,
0100
0000
0010
0000
,
1000
0000
0010
0000
,
0100
0001
0100
0000
,
0010
1000
0010
1000
,
0100
0000
0010
0000
,
0100
0000
0001
0000
,
0100
0010
0100
0000
,
1000
0010
0100
0001
,
0010
0000
0100
0000
,
1000
0000
0010
0000
,
0100
0001
0100
0000
,
0010
1000
0100
0010
,
0100
0000
0010
0000
,
0100
0000
1000
0000
,
0001
0100
0010
1000
,
0100
0010
0100
0010
,
2001
0000
3010
0000
,
0100
0000
0010
0000
,
1000
0010
0100
0000
,
0001
0100
0010
2000
,
3020
0000
1030
0000
,
0100
0000
0010
2000
,
3020
0000
0130
0000
,
1000
0010
0100
0001
,
0200
0000
0310
0000
,
1000
0000
0010
0000
,
0100
0000
0001
0000
,
0100
0000
0010
2000
,
3200
0000
0310
0000
,
1000
0010
0100
0001
,
1000
0010
0100
0001
,
0100
0010
1000
0100
,
0020
0000
0000
0000
,
0000
0000
0000
0030
,
2000
0000
3000
0002
,
0000
0003
0200
0300
,
0020
0000
0000
0000
,
0000
0000
0000
0030
,
2000
0000
0000
3020
,
0000
0000
0230
0000
,
0301
0100
0001
0000
,
0010
1000
0010
0000
,
0100
0010
0100
0000
,
0001
1000
0001
0010
,
0100
0010
0100
0000
,
0001
0100
0001
0000
,
0010
0100
1000
0100
,
0010
0100
0010
0001
,
1000
0000
0010
0000
0000
0100
0000
0000
,
0001
0000
0000
0100
0000
0000
0010
0000
,
1000
0000
0010
0000
0000
0100
0000
0000
,
0001
0000
0000
0010
0000
0000
0100
0000
,
0010
0000
1000
0000
0000
0010
0000
0000
,
0100
0000
0000
0001
0000
0000
0010
0000
,
0100
0000
0001
0000
0000
0010
0000
0000
,
0100
0000
0000
0010
0000
0000
0001
0000
,
0010
0000
0100
0000
0000
1000
0000
0000
,
0010
0000
0000
0100
0000
0000
0010
0000
,
1000
0000
0100
0000
0000
0010
0000
0000
,
0100
0000
0000
0001
0000
0000
0010
0000
,
0100
0000
0010
0000
0000
1000
0000
0000
,
0010
0000
0000
0100
0000
0000
0001
0000
,
0010
0000
0100
0000
0000
0010
0000
0000
,
1000
0000
0000
0010
0000
0000
0100
0000
,
0001
0100
0002
0000
,
0003
0100
0000
0010
,
0000
0100
1000
0010
,
0200
0000
0302
0000
,
1003
0010
0200
0000
,
0300
0010
0000
1000
,
0000
0010
0100
0001
,
0200
0000
0320
0000
,
1030
0100
2000
0000
,
3000
0010
0000
0100
,
0000
0001
0100
0010
,
2000
0000
3002
0000
,
0103
0010
2000
0000
,
3000
0100
0000
0010
,
0000
0100
0001
0100
,
0020
0000
1030
0100
,
0010
0000
0010
0100
,
0010
0000
0000
1000
0000
0000
0010
0000
,
0100
0000
0000
0001
0000
0000
0010
0000
,
0000
0010
0100
1000
,
0010
0000
0100
0010
,
1000
0000
0000
0010
0000
0000
0100
0000
,
0001
0000
0000
0010
0000
0000
0100
0000
,
0000
0010
1000
0010
,
0100
0000
0001
0100
,
0010
0000
0000
0100
0000
0000
1000
0000
,
0010
0000
0000
0100
0000
0000
0001
0000
,
0000
0010
0100
0010
,
1000
0000
0010
0100
,
0001
0000
0000
0010
0000
0000
0100
0000
,
0010
0000
0000
1000
0000
0000
0010
0000
,
0100
0001
1000
0010
,
0220
0000
0000
0000
0000
0000
0000
0330
,
0001
0100
0010
1000
,
0001
0010
0100
2000
,
0000
3100
0010
1000
,
0010
0100
0001
0010
,
0100
0000
0000
0010
,
0000
0000
1000
0000
,
0000
0100
0000
0000
,
0001
0000
0000
0010
,
0010
0000
0000
0100
,
0000
0000
1000
0000
,
0000
0010
0000
0000
,
0100
0000
1000
0000
,
0100
0000
0000
0010
,
0000
0000
0100
0000
,
0000
0001
0000
0000
,
1000
0000
0010
0000
,
0100
0000
0000
0010
,
0000
0000
0100
0000
,
0000
1000
0000
0000
,
0010
0100
1000
0010
,
0100
0000
0000
0001
,
0000
0100
0000
0010
,
0000
1000
0000
0010
,
0100
0000
0010
0100
,
0000
0001
0000
0100
,
0000
0010
0000
0100
,
1000
0000
0010
0100
,
0000
0001
0000
0100
,
0000
0010
0000
1000
,
0000
0010
0000
0100
,
0010
0100
0000
0010
,
0100
0010
1000
0100
,
0020
0000
0000
0000
2000
0000
0000
3030
,
0001
0000
0000
0010
0000
0010
0000
0100
,
0000
0010
0010
0100
,
0001
0010
0100
0000
,
0010
0100
0000
1000
,
0100
0000
0001
0100
,
0010
1000
0100
0010
,
2002
0000
3003
0000
,
0010
0100
1000
0202
,
0000
0303
0000
0000
;

//---------------dance-single - ----------------
#NOTES:
     dance-single:
     :
     Medium:
     9:
     0.685,0.940,0.146,0.354,0.073,558.000,19.000,46.000,0.000,0.000:
0000
0000
0000
0000
,
0000
0000
0000
0000
,
0000
0000
0000
0000
,
0000
0000
0000
0000
,
0001
0000
0100
0000
0000
0010
0000
0100
,
0000
0010
0000
0001
0000
0010
0000
0100
,
0000
1000
0000
0100
0000
0010
0000
0100
,
0010
1000
0100
0010
,
1001
0010
0100
0010
,
0100
0001
1000
0010
,
0100
0010
0100
1000
,
0010
0000
0100
0000
0010
0000
0001
0010
,
0001
0100
0010
1000
,
0010
0100
0001
1000
,
0010
0110
0100
0101
,
0010
1010
0100
1100
,
1001
0010
0100
0010
,
1000
0010
0100
0001
,
0100
0010
1000
0010
,
0100
0010
0100
0001
0100
0010
0100
0001
,
0100
0010
1000
0010
,
0100
0001
1000
0010
,
0100
0010
0001
0100
0010
0001
0100
0000
,
0010
0100
1000
0010
,
0100
0001
0100
0010
,
1000
0010
0100
0001
,
0100
0010
1000
0010
,
0100
0010
0001
0010
,
0100
1000
0010
0100
,
0010
0001
0100
0010
,
1000
0010
0100
0010
,
0001
0100
0010
0100
,
0001
0010
0100
0010
,
1000
0010
0100
0001
,
0100
0010
1000
0100
,
0010
0001
0010
0100
,
0010
0100
1000
0100
,
0010
0100
1000
0001
,
0100
0010
1000
0010
,
0100
0001
0100
0010
,
2001
0000
0000
3020
0000
0000
0030
0000
,
0100
1000
0010
0100
,
0001
0100
0010
1000
,
0001
0010
0100
2000
,
3002
0000
0000
0203
0000
0000
0300
0000
,
0010
0100
0010
0200
,
0302
0000
0000
2003
0000
0000
3000
0000
,
0010
0100
1000
0020
,
0230
0000
0000
0320
0000
0000
0030
0000
,
1000
0010
0100
0001
,
0100
0010
1000
0100
,
0010
0100
0001
0200
,
0302
0000
0000
0203
0000
0000
0300
0000
,
0010
0100
1000
0200
,
0302
0000
0000
0023
0000
0000
0030
0000
,
0001
0000
0100
0000
0010
0100
0010
0100
,
0020
0000
0000
0000
,
0000
0000
0000
0000
,
2030
0000
0000
3200
,
0000
0000
0320
0000
,
0032
0000
0000
0000
,
0000
0000
0000
0000
,
2003
0000
0000
3020
,
0000
0000
0230
0000
,
0301
0100
0001
0100
,
0010
1000
0010
1000
,
0010
0001
0010
0001
,
0100
1000
0100
1000
,
0001
0100
0010
1000
,
0001
1000
0010
0100
,
0001
0100
0010
1000
,
0010
0000
0100
0000
0001
0100
0010
1000
,
0100
0000
0010
0000
0000
0100
0000
0000
,
0001
0000
0000
0010
0000
0000
0110
0000
,
0001
0000
0010
0000
0000
0100
0000
0000
,
0010
0000
0000
1000
0000
0000
1100
0000
,
0010
0000
0100
0000
0000
0001
0000
0000
,
1000
0000
0000
0010
0000
0000
1100
0000
,
0010
0000
0001
0000
0000
0010
0000
0000
,
0100
0000
0000
1000
0000
0000
0101
0000
,
0010
0000
0100
0000
0000
0010
0000
0000
,
1000
0000
0000
0010
0000
0000
0011
0000
,
0100
0000
0010
0000
0000
0100
0000
0000
,
1000
0000
0000
0010
0000
0000
1010
0000
,
0100
0000
0010
0000
0000
0100
0000
0000
,
0001
0000
0000
0010
0000
0000
0110
0000
,
0010
0000
0100
0000
0000
0010
0000
0000
,
0001
0000
0000
0100
0000
0000
1001
0000
,
0010
0100
0020
0000
,
0030
1000
0000
0010
,
0000
0100
0001
0100
,
0020
0000
2030
0000
,
3010
0100
0002
0000
,
0003
1000
0000
0010
,
0000
0100
0010
1000
,
0200
0000
0320
0000
,
1030
0100
0020
0000
,
0030
1000
0000
0001
,
0000
0010
0100
0001
,
0200
0000
0302
0000
,
1003
0010
0200
0000
,
0300
1000
0000
0010
,
0000
1000
0100
0010
,
0002
0000
2003
0001
,
3010
0000
0010
0100
,
0001
0000
0000
0010
0000
0000
0100
0000
,
1000
0000
0000
0010
0000
0000
0100
0000
,
0000
0001
0100
0010
,
1000
0000
0010
0100
,
0001
0000
0000
0010
0000
0000
0100
0000
,
1000
0000
0000
0010
0000
0000
0100
0000
,
0000
0010
0100
1000
,
0010
0000
0100
0001
,
0010
0000
0000
0100
0000
0000
0010
0000
,
1000
0000
0000
0100
0000
0000
0010
0000
,
0000
0100
0001
0100
,
0010
0000
1000
0100
,
0010
0000
0000
0100
0000
0000
1000
0000
,
0010
0000
0000
0100
0000
0000
0001
0000
,
0010
0100
0010
1000
,
0220
0000
0000
0000
0000
0000
0000
0330
,
0001
0000
0010
0000
0100
0000
0001
0000
0010
0000
0100
0000
,
1000
0000
0100
0000
0010
0000
1000
0000
0100
0000
0010
0002
,
0000
0000
0000
0013
0000
0100
0000
1000
0000
0100
0000
0010
,
0000
1000
0000
0100
0010
0100
0010
0100
0010
0100
0010
0100
,
0001
0010
0100
1000
,
0001
0010
0100
1000
,
0001
0010
0100
1000
,
0001
0010
0100
1000
,
0001
0100
0010
1000
,
0001
0100
0010
1000
,
0001
0100
0010
1000
,
0010
0100
0001
0010
,
0100
0001
0010
0100
,
0001
0010
0100
0010
,
1000
0100
0010
0100
,
0010
0001
0010
0100
,
1000
0010
0100
0001
,
0010
0100
1000
0100
,
0010
0100
0010
0100
,
0001
0100
0010
1000
,
0110
0001
0100
0001
,
0010
1000
0010
1000
,
0100
0010
0100
0010
,
1000
0001
1000
0001
,
1000
0010
1000
0010
,
0001
0100
0001
0100
,
0010
0100
1000
0100
,
0010
0100
1000
0100
,
0001
0010
0100
1000
,
0100
0010
0100
0001
,
0100
0010
1000
0010
,
0100
0000
0010
0000
1000
0010
0100
0010
,
0002
0000
0000
0000
2000
0000
0000
3003
,
0010
0000
0010
0100
0000
0100
0000
0010
,
0000
0010
0100
0000
0100
0000
0010
0000
,
1000
0100
0010
0000
,
0100
0010
0000
0010
,
0001
0000
0001
0010
,
0100
0010
0100
1000
,
0220
0000
0330
0000
,
0001
0100
0010
2002
,
0000
0000
0000
3003
;

//---------------dance-single - ----------------
#NOTES:
     dance-single:
     :
     Hard:
     12:
     1.000,1.000,0.577,0.862,0.115,792.000,75.000,112.000,0.000,3.000:
0000
0000
0000
0000
,
0110
1100
0110
0101
,
0011
0110
1010
0110
,
0011
0110
1100
0110
,
0001
0000
0100
0000
0000
0110
0000
1100
,
0000
0110
0000
0101
0000
1010
0000
0011
,
0000
0110
0000
1100
0000
0110
0000
0100
,
0001
0010
0100
0010
,
1000
0000
0100
0000
0010
0001
0000
0010
,
0001
0000
0010
0000
0100
1000
0000
0100
,
1000
0000
0010
0000
0100
0010
0000
0100
,
0010
0100
0010
0001
0010
0100
0010
0100
,
0010
0000
0100
0000
1000
0100
0000
1000
,
0100
0000
0010
0000
0100
0001
0000
0100
,
0001
0000
0010
0000
0100
1000
0000
0100
,
0010
0100
0010
0001
0010
0100
0010
1000
,
0110
0000
0001
0100
0001
0100
0001
0100
,
0001
0000
0010
1000
0010
1000
0010
1000
,
0010
0000
0100
0010
0100
0010
0100
0010
,
1000
0010
1000
0001
1000
0100
1000
0010
,
1000
0000
0010
0100
0010
0100
0010
0100
,
0010
0000
0001
0100
0001
0100
0001
0100
,
0001
0010
0001
0010
1000
0100
1000
0000
,
0010
0100
0010
0100
0001
0010
0100
1000
,
0010
0000
0010
0000
0000
1000
0000
1000
,
0100
0000
0010
0000
0000
0010
0000
0010
,
0100
0000
0100
0000
0000
0001
0000
0001
,
0020
0230
2300
3200
,
0310
0000
0010
0000
0000
0010
0000
0010
,
0100
0000
0100
0000
0000
0100
0000
0100
,
0001
0000
0001
0000
0000
0001
0000
0001
,
2000
3020
0230
0302
,
1003
0000
0100
0000
0000
0010
0000
0010
,
0100
0000
0001
0000
0000
0001
0000
0100
,
0010
0000
0010
0000
0000
0001
0000
0001
,
0200
0320
2030
3200
,
0310
0000
0100
0000
0000
1000
0000
1000
,
0001
0000
0010
0000
0000
0100
0000
0100
,
0010
0000
1000
0000
0000
0100
0000
0100
,
0002
0023
0230
0320
,
1030
0100
1000
0100
0001
0010
0001
0010
,
0100
0001
0100
0001
0010
1000
0010
1000
,
0001
0010
0100
1000
0100
0010
0001
0010
,
0100
1000
0100
0010
0001
0010
0100
0010
,
0100
0001
0100
0001
0010
1000
0010
1000
,
0010
0001
0010
0001
0100
1000
0100
1000
,
0001
0010
0100
1000
0100
0010
0100
1000
,
0100
0010
0001
0010
0100
0010
0001
0010
,
0100
1000
0100
1000
0010
0001
0010
0001
,
1000
0010
1000
0010
0001
0100
0001
0100
,
0001
0010
0100
0010
0001
0010
0100
1000
,
0100
0010
0100
1000
0100
0010
0001
0010
,
1100
1100
0011
0011
,
0110
0110
1001
1001
,
0010
0100
0010
0000
0001
1000
0001
0000
,
0010
0100
0010
1000
0100
0010
0001
0010
,
0100
2000
0000
3100
0020
0000
0031
0200
,
0000
0310
2000
0000
3010
0000
0010
0000
,
0100
0020
0000
1030
0200
0000
0310
0002
,
0000
0013
0200
0000
0310
0000
0010
0000
,
1000
0200
0000
1300
0020
0000
0130
0002
,
0000
0013
0200
0000
0301
0000
0001
0000
,
0010
0200
0000
1300
0020
0000
0130
0002
,
0000
1003
0010
0100
0010
0001
0100
0010
,
1000
0100
1000
0000
0001
0010
0001
0000
,
0010
0100
0010
0000
1000
0010
1000
0000
,
0001
0100
0001
0000
0010
0100
0010
0000
,
0001
1000
0001
0000
1000
0001
1000
0000
,
0010
0100
0010
0000
0100
0010
0100
0000
,
0001
0100
0001
0000
0100
0001
0100
0000
,
0001
0010
0001
0000
1000
0100
1000
0000
,
0001
0100
0010
0001
0010
0100
0010
0100
,
1000
0000
0101
0000
0000
1100
0000
0000
,
0110
0000
0000
1010
0000
0000
0011
0000
,
0100
0000
1010
0000
0000
0110
0000
0000
,
0101
0000
0000
0110
0000
0000
1100
0000
,
0010
0000
0101
0000
0000
1100
0000
0000
,
0101
0000
0000
1100
0000
0000
0101
0000
,
0010
0000
0011
0000
0000
1010
0000
0000
,
0011
0000
0000
1010
0000
0000
0011
0000
,
1000
0000
0101
0000
0000
1010
0000
0000
,
0110
0000
0000
1010
0000
0000
0101
0000
,
0010
0000
1100
0000
0000
0110
0000
0000
,
0011
0000
0000
0110
0000
0000
1100
0000
,
0010
0000
1100
0000
0000
0110
0000
0000
,
1100
0000
0000
0110
0000
0000
0101
0000
,
0010
0000
2200
0000
3300
0202
0000
0303
,
0220
0000
0330
0202
0000
0303
2200
3300
,
0002
0203
0302
0003
,
1000
0100
2000
0000
0000
0000
3020
0000
,
0000
0230
0302
0023
,
0230
0000
0320
0000
,
2030
3200
2300
3000
,
0010
0100
0020
0000
0000
0000
0032
0000
,
0000
0203
0320
2030
,
3200
0000
0302
0000
,
2003
3020
2030
3000
,
0010
0100
0020
0000
0000
0000
0032
0000
,
0000
2003
3020
0032
,
0203
0000
0320
0000
,
2030
3002
2003
3000
,
0010
0100
0002
0000
0000
0000
2003
0000
,
0000
3020
0230
0302
,
0223
0000
0000
0330
2002
0000
3013
0100
,
0010
0000
0000
0000
1000
0000
0100
0010
,
0100
0000
0000
0001
0000
0000
0010
0000
,
0100
0000
0000
0010
0000
0000
0100
0000
,
0000
0000
1000
0000
0010
0000
0100
0010
,
0100
0000
0001
0000
0100
0000
0010
0100
,
0010
0000
0000
1000
0000
0000
0010
0000
,
0100
0000
0000
0001
0000
0000
0010
0000
,
0000
0000
1000
0000
0010
0000
0100
0001
,
0100
0000
0010
0000
1000
0000
0010
1000
,
0010
0000
0000
0100
0000
0000
0001
0000
,
0010
0000
0000
0100
0000
0000
0010
0000
,
0000
0000
1000
0000
0010
0000
0100
0010
,
0100
1000
0010
0100
,
0100
0010
0001
0100
,
0010
0100
1000
0000
0100
0001
0010
0000
,
0100
0010
0100
1000
0100
0010
0001
0100
,
2002
0000
0000
0000
0000
0000
0000
0000
0000
0000
0000
0000
0000
0000
0000
3003
,
0010
0100
1000
0010
0100
1000
0010
0100
1000
0010
0100
1000
,
0100
0010
0001
0100
0010
0001
0100
0010
0001
0100
0010
0002
,
0000
0000
0000
1003
0100
0010
1000
0100
0010
1000
0100
0010
,
0100
0010
0001
0100
0010
0001
0100
0010
0001
0100
0010
0001
,
1000
0000
0100
0000
0010
0100
0010
0100
,
0010
0000
0100
0000
0001
0100
0001
0100
,
0001
0000
0010
0000
1000
0010
1000
0010
,
1000
0000
0010
0000
0100
0010
0100
0010
,
0100
0000
0010
0000
1000
0001
1000
0001
,
1000
0000
0010
0000
0100
0001
0100
0001
,
0100
0000
0010
0000
1000
0100
1000
0100
,
1000
0000
0010
0000
0100
0010
0100
0010
,
0100
0000
0010
0000
0001
0010
0001
0010
,
0001
0000
0100
0000
0010
1000
0010
1000
,
0010
0000
0100
0000
0010
0100
0010
0100
,
0010
0000
1000
0000
0100
0001
0100
0001
,
0100
0000
0010
0000
0100
1000
0100
1000
,
0100
0000
0010
0000
0100
0001
0100
0001
,
0100
0000
0010
0000
1000
0010
1000
0010
,
2000
3200
0320
0032
,
1003
0010
1000
0010
,
0100
0010
0001
0010
,
0001
0100
0010
1000
,
0010
0100
0001
0010
,
0100
0010
1000
0010
,
0100
0001
0100
0010
,
1000
0001
0100
0010
,
1000
0001
0010
0100
,
0001
1000
0010
0100
,
0001
0010
0100
0001
,
0010
0100
0100
0100
,
0001
1000
0010
0100
1000
0010
0100
0001
,
0020
0000
0000
0000
2000
0000
0000
3030
,
0100
0000
0100
0001
0000
0001
0000
0010
,
0000
0010
0100
0000
0100
0000
1000
0000
,
0020
0230
0302
0003
,
2000
3020
0030
0200
,
0302
0003
0020
0230
,
2300
0000
3200
0000
0320
0000
0230
0300
,
2002
0000
3003
0000
,
0020
0230
2300
3202
,
0000
0000
0303
0000
;
