#TITLE:Lawn Wake III;
#SUBTITLE:;
#ARTIST:The Flashbulb;
#TITLETRANSLIT:;
#SUBTITLETRANSLIT:;
#ARTISTTRANSLIT:;
#CREDIT:;
#BANNER:lawnwakeiii-bn.png;
#BACKGROUND:lawnwakeiii-bg.png;
#LYRICSPATH:;
#CDTITLE:mootz cdtitle 2.png;
#MUSIC:Lawn Wake III v4.ogg;
#OFFSET:0.016;
#SAMPLESTART:92.400;
#SAMPLELENGTH:12.000;
#SELECTABLE:YES;
#BPMS:0.000=200.000,212.000=100.000,227.500=200.000,356.000=100.000;
#STOPS:227.500=0.150
;
#BGCHANGES:;
// cache tags:
#FIRSTBEAT:0.000;
#LASTBEAT:368.500;
#SONGFILENAME:Songs/SSSC Pack 2/Lawn Wake III - [Mootz]/Lawn Wake III.sm;
#HASMUSIC:1;
#HASBANNER:1;
#MUSICLENGTH:123.163;
// end cache tags

//---------------dance-single - Mootz----------------
#NOTES:
     dance-single:
     Mootz:
     Challenge:
     13:
     1.000,1.000,0.276,0.219,0.897,873.000,34.000,27.000,11.000,0.000:










2000
0000
0000
0000
3000
0001
0100
0001
0100
0010
1000
0010
1000
0000
0001
0000
,
0001
0000
1100
1000
0001
0000
1100
0000
,
0001
0000
1100
1000
0000
1010
1000
0001
,
0001
0000
0110
1000
0001
0000
0110
0000
,
1000
0000
0000
0000
0011
0000
0001
0000
0000
0000
0001
1000
0001
1000
0001
1000
,
0001
0001
0100
0010
1000
1000
0100
0010
,
0100
0000
0100
0000
0000
0000
1000
0000
0002
0000
0100
0003
0001
0000
1000
0000
,
0100
0000
0010
0100
1000
0000
0001
0000
0100
0000
0100
0000
0010
1000
0010
1000
,
0001
0000
0000
0100
0000
0000
0010
0000
0000
1000
0000
0000
0001
1000
0100
0010
,
0001
0001
0010
0100
1000
1000
0010
0100
,
0001
0000
0001
0000
0000
0000
1000
0000
0200
0000
0010
0300
0100
0000
1000
0000
,
0001
0000
0100
0010
1000
0000
0001
0000
1000
0000
1000
0000
0100
0010
0100
0010
,
0001
0000
0001
0010
0001
0000
0001
1000
0001
0000
0001
0100
0001
0000
0100
0000
,
0010
1000
0010
0000
1000
0000
0001
0000
0010
0100
0010
0000
0001
0000
1000
0000
,
0001
0100
0010
0000
0000
1000
0000
0000
1001
0000
0000
0000
1000
0000
0100
0010
,
0001
1000
0001
1000
0010
0000
0000
0110
0000
0000
0100
0001
1000
0100
0010
0000
,
0100
1000
0001
1000
0001
0100
0010
1000
0001
0000
0001
0000
0100
0010
1000
0000
,
0001
0000
0001
0000
1000
0000
0100
0010
0100
1000
0100
1000
0001
0000
1000
0000
,
0010
0100
0010
0100
0001
1000
0001
1000
0100
0010
0100
0010
0001
1000
0001
1000
,
0010
0000
0000
0100
0000
0000
0001
0000
0000
0100
0000
0000
0010
0000
0000
0000
0000
0000
1000
0000
0000
0001
0000
0000
1000
0000
0000
0000
0000
0000
0100
0000
0000
0000
0000
0000
0110
0000
0000
0000
0000
0000
0010
0000
0001
0000
0010
0000
,
0001
0000
1000
0000
0001
0010
0001
1000
0100
1000
0001
0000
1001
0000
0000
0000
,
1000
1000
0010
0100
0001
0001
0010
0100
,
0010
0010
0000
0001
1000
0001
1000
0010
,
0100
0100
0001
1000
0010
0010
0100
0001
,
1000
0000
1000
0010
1000
0000
1000
0001
1000
0000
0100
0010
0001
1000
0001
1000
,
0010
0000
0010
0000
0100
0000
0001
1000
0010
0100
0010
0100
0001
0000
1000
0000
,
0100
0000
0010
0100
0010
0000
0100
1000
0000
0001
1000
0000
1001
0000
1000
0000
,
0010
0000
0010
0000
0100
0000
0100
0000
0001
1000
0001
1000
0100
0000
0010
0000
,
0001
1000
0010
1000
0001
0000
1000
0001
0010
0000
0001
0010
0100
0000
1000
0001
,
1000
0000
0001
0000
0100
0000
0001
0100
0010
1000
0010
1000
0100
0000
0010
0000
,
0001
0000
0010
0001
1000
0000
0001
1000
0000
0010
1000
0000
0110
0000
0100
0000
,
0001
0000
0001
0000
1000
0000
1000
0000
0100
0010
0100
0010
0001
0000
0010
0000
,
0001
0000
0000
1000
0000
0000
0001
0000
0000
0000
0000
0000
0100
0000
0000
0000
0000
0000
0010
0000
1000
0000
0010
0000
1000
0000
0000
0000
0000
0000
0001
0000
0000
0010
0000
0000
0200
0000
0000
0000
0000
0000
0310
0000
0000
0000
0000
0000
,
0001
0000
0000
0000
0000
0000
0001
0000
0000
0000
0000
0000
1000
0000
0000
0000
0000
0000
0010
0000
0000
0100
0000
0000
0001
0000
0100
0000
0001
0000
0100
0000
0001
0000
0100
0000
0001
0000
0000
0000
0000
0000
1000
0000
0000
0000
0000
0000
,
0001
0000
1000
0001
0010
0000
0100
1000
0000
0001
1000
0000
0101
0000
0001
0000
,
0100
0000
0100
0000
0010
0000
0010
0000
1000
0001
1000
0001
0010
0000
0100
0000
,
0010
0001
1000
0000
0010
0000
1000
0010
0100
0000
0001
0010
0100
0000
1000
0001
,
2000
3000
0101
0001
1000
0001
0010
0100
,
0020
0031
1001
1000
0010
1000
0001
0100
,
0020
1030
1010
0010
0100
0001
0010
0001
,
2000
3100
1100
1000
0001
0101
0100
0010
,
2000
3000
0011
0001
1000
0001
0100
0010
,
0100
0001
1001
1000
0100
1000
0002
0013
,
0200
1300
2100
3100
0010
0001
0100
0001
,
1000
1000
0010
0100
0001
0011
0010
0100
,
1000
0000
0000
0000
0000
0000
0100
0000
0000
1000
0000
0000
0001
0000
0000
0000
0000
0000
1000
0000
0000
0000
0000
0000
0010
0000
0000
0000
0000
0000
0100
0000
0000
0000
0000
0000
0101
0000
0000
0000
0000
0000
0100
0000
0010
0000
0100
0000
,
0010
0000
1000
0001
1000
0000
0010
0000
0100
0000
0001
0000
1000
0000
0100
0000
,
0010
0000
0100
0010
0001
0000
1000
0000
0001
0000
1000
0000
0001
0100
0010
1000
,
0001
0000
0001
0100
0000
0100
0010
0000
0010
1000
0000
1000
0001
1000
0100
0010
,
0001
1000
1100
0100
0010
0001
1001
1000
,
0010
0100
0101
0001
1000
0100
0110
0100
,
1000
0000
0001
0100
0010
0000
1000
0000
0001
0000
1000
0000
0001
1000
0001
1000
,
0001
0000
0001
0010
0001
0000
0001
1000
0001
0000
0001
0100
0001
1000
0100
0010
,
0002
0000
MM23
0000
,
M23M
0000
23M0
0000
,
3MM2
0000
0000
0000
02M3
0000
0000
0001
,
M32M
1000
0000
0000
2M30
0000
0000
3000
,
0001
0000
0001
0000
0010
0000
0100
0000
1000
0001
1000
0000
0010
0000
0100
0000
,
0001
0000
0001
0000
0010
0000
0001
0000
0100
0010
0100
0000
0010
0000
1000
0000
,
0100
0000
0100
0000
0010
0000
0100
0000
1000
0001
1000
0000
0010
0000
0100
0000
,
0001
1000
0001
1000
0100
0000
0010
0000
0000
0100
1000
0001
1000
0000
0001
0000
,
0100
0000
0100
0000
0010
0000
1000
0000
0100
0010
0100
0000
0010
0000
0001
0000
,
1000
0000
1000
0000
0010
0000
1000
0000
0001
0010
0100
0000
1000
0000
0001
0000
,
0001
0000
0100
0000
0010
0000
0100
0000
0010
1000
0010
0000
1000
0000
0001
0000
,
0010
0100
0010
0100
1000
0000
0001
0000
0000
1000
0001
0000
0100
0000
0100
0000
,
0010
0000
0010
0000
1000
0000
0001
0010
0001
1000
0100
1000
0001
0000
1000
0000
,
0010
0100
0010
0100
0001
0000
1000
0000
0001
1000
0001
0000
0020
0000
0130
0000
,
1000
0000
1000
0000
0001
0000
1000
0010
1000
0001
0100
0001
1000
0010
1000
0000
,
0002
0000
0013
0002
0000
1003
0002
0000
0103
0001
0100
0001
1000
0000
0002
0000
,
1003
0000
1000
0000
0100
0000
0010
0001
1000
0001
1000
0000
0010
0000
0100
0000
,
0010
1000
0010
1000
0001
0010
0100
1000
0001
1000
0010
0100
0001
1000
0100
0010
,
0001
0000
1000
0001
1000
0000
0010
0000
0100
0000
0000
0001
0000
0000
0010
0000
,
0100
0000
0000
1000
0000
0000
0100
0000
0000
1000
0000
0000
0001
0000
1000
0000
0001
0000
1000
0000
0001
0000
1000
0000
0004
0000
0000
0000
0000
0000
0000
0000
0000
0000
0000
0000
4003
0000
0000
0000
0000
0000
0000
0000
0000
0000
0000
0000
,
3100
0000
0100
0000
0010
0000
0001
1000
0100
0010
0100
0010
0001
0000
1000
0000
,
0010
0000
0100
0010
0100
0000
0010
1000
0000
0001
1000
0000
1001
0000
1000
0000
,
0100
0000
0100
0000
0010
0000
0010
0000
0001
1000
0001
1000
0010
0000
0100
0000
,
0001
1000
0100
1000
0001
0000
1000
0001
0100
0010
0100
0010
1000
0000
0001
1000
,
0001
0000
1000
0000
0100
0000
1000
0100
0010
0001
0010
0001
0100
0000
0010
0000
,
1000
0000
0010
1000
0001
0000
1000
0001
0000
0010
0001
0000
0110
0000
0100
0000
,
1000
0000
1000
0000
0001
0000
0001
0000
0100
0010
0100
0010
1000
0000
0010
0000
,
1000
0000
0000
0001
0000
0000
1000
0000
0000
0000
0000
0000
0100
0000
0000
0000
0000
0000
0010
0000
0001
0000
0010
0000
0001
0000
0000
1000
0000
0000
0001
0000
0000
0100
0000
0000
0010
0000
0000
0000
0000
0000
1000
0000
0000
0001
0000
0000
,
1000
0000
0000
0000
0000
0000
0001
0000
0000
0000
0000
0000
1000
0000
0000
0000
0000
0000
0100
0000
0000
0010
0000
0000
0001
0000
0010
0000
0001
0000
0010
0000
0001
0000
0010
0000
0001
0000
0000
0000
0000
0000
1000
0000
0000
0000
0000
0000
,
0001
0000
1000
0001
0100
0000
0010
1000
0000
0001
1000
0000
0011
0000
0001
0000
,
0010
0000
0010
0000
0100
0000
0100
0000
1000
0001
1000
0001
0100
0000
0010
0000
,
0100
0001
1000
0001
0010
0000
0001
0010
0100
1000
0001
1000
0010
0000
0100
0001
,
1000
0000
1000
0000
0001
0000
1000
0100
0010
0001
0010
0001
1000
0000
1000
0000
,
0001
0100
0001
0000
0100
0000
0100
0000
0010
1000
0010
1000
0001
0000
0010
0100
,
1000
0000
0000
0000
0000
0000
0001
0000
0000
0000
0000
0000
1000
0000
0000
0000
0000
0000
0001
0000
0000
0100
0000
0000
0010
0000
0000
1000
0000
0000
0010
0000
0000
0000
0000
0000
0110
0000
0000
0000
0000
0000
0100
0000
0001
0000
0100
0000
,
0001
0000
1000
0000
0001
0000
0010
0001
0000
1000
0001
0000
2020
0000
0000
0030
,
3001
0000
0100
0000
,
0010
0000
1000
0000
,
0001
0000
0000
0000
0000
0000
0000
0010
,
0100
1000
0000
0000
0000
0000
0000
0000
;
