#TITLE:vertexbeta;
#SUBTITLE:;
#ARTIST:Unknown artist;
#TITLETRANSLIT:;
#SUBTITLETRANSLIT:;
#ARTISTTRANSLIT:;
#CREDIT:;
#BANNER:;
#BACKGROUND:;
#LYRICSPATH:;
#CDTITLE:;
#MUSIC:vertexbeta.mp3;
#OFFSET:0.000;
#SAMPLESTART:98.540;
#SAMPLELENGTH:12.000;
#SELECTABLE:YES;
#BPMS:0.000=200.000;
#STOPS:261.000=0.100
,262.000=0.100
,263.000=0.100
,263.500=0.100
,264.500=0.100
,266.000=0.100
,266.500=0.100
,267.500=0.100
,270.000=0.300
,289.000=0.100
,290.000=0.100
,291.000=0.100
,292.000=0.100
,293.000=0.100
,294.500=0.240
,296.000=0.100
,297.000=0.100
,297.500=0.260
,353.000=0.100
,354.000=0.100
,355.000=0.120
,355.500=0.100
,357.000=0.100
,358.000=0.240
,359.000=0.100
,360.000=0.100
,361.000=0.100
,361.500=0.100
;
#BGCHANGES:;
// cache tags:
#FIRSTBEAT:8.500;
#LASTBEAT:589.000;
#SONGFILENAME:Songs/toune 3/vertexbeta/vertexbeta.sm;
#HASMUSIC:1;
#HASBANNER:0;
#MUSICLENGTH:184.404;
// end cache tags

//---------------dance-single - ----------------
#NOTES:
     dance-single:
     :
     Challenge:
     13:
     0.946,1.000,1.000,0.152,0.469,873.000,307.000,28.000,164.000,14.000:
0000
0000
0000
0000
,
0000
0000
0000
0000
,
0000
1111
0000
0000
0000
1111
0000
0000
,
0000
1111
0000
0000
0000
0000
0000
0000
,
0000
1111
0000
0000
0000
1110
0000
0000
,
0000
0111
0000
0000
0000
0000
0000
0000
,
0000
1100
0000
0000
0000
0011
0000
0000
,
0000
1110
0000
0000
0000
0000
0000
1000
,
0100
1000
0000
0000
0000
0000
0000
0000
,
0000
0000
1000
0100
0010
0001
0010
0100
,
1000
0100
0010
0001
0100
1000
0100
0001
,
0010
1000
0010
0001
0010
0100
1000
0001
,
0010
0100
1000
1001
0011
0110
1100
0110
,
0011
1001
1000
0010
0100
0001
1000
0010
,
0100
1000
0100
0010
0001
1000
0010
0100
,
0001
1000
0100
0001
0010
0100
1000
0001
,
0010
0000
1000
0000
0001
0000
0100
0000
0010
0000
1000
0000
0010
0000
0000
1000
,
0001
0000
0000
1000
0000
0000
0000
0000
0000
0000
0000
0000
1000
0000
0000
0000
0100
0000
0000
0000
0010
0000
0000
0000
0001
0000
0000
0000
0010
0000
0000
0000
0100
0000
0000
0000
1000
0000
0000
0000
0001
0000
0000
0000
1000
0000
0000
0000
,
0010
0100
0001
0100
1000
0010
1000
0100
1000
0100
0010
0001
,
0010
0001
0010
0100
1000
0001
0010
0100
1000
0010
1000
0100
,
0010
0001
1000
0100
0010
0001
0100
0001
0010
0100
1000
0100
,
0010
0001
0010
0100
1000
0100
1000
0001
0010
0001
0100
0001
,
1000
0001
0100
0001
1000
0001
1000
0010
1000
0100
1000
0100
,
0010
0100
1000
0100
0010
0100
1000
0100
0010
0001
0010
0100
,
0010
0001
0010
0100
1000
0100
0010
0001
0010
0100
1000
0100
,
0010
0001
1000
0110
0000
1000
0100
0010
0001
0010
0100
1000
,
0001
1000
0100
1000
0100
0010
0100
0010
0001
0010
0001
0010
,
0001
0100
0001
0010
0001
0100
0001
1000
0001
0010
0100
1000
,
0010
0100
0001
1000
0010
0100
0001
0100
0010
1000
0010
0100
,
0001
0000
1000
0000
0010
0000
0100
0000
0001
0000
1000
0000
1010
0000
0000
0110
0000
0000
0101
0000
0000
0000
1000
0000
,
0100
0010
0001
0010
0100
1000
0100
0010
0001
0100
0010
0000
,
1000
0010
0100
0001
0100
0010
1000
0010
0100
0001
0100
0010
,
1000
0010
0100
0001
0100
0010
1000
0010
0100
0001
1000
0010
,
0100
1000
0000
1001
0000
0000
1001
0000
0000
0110
0000
0000
,
0110
1100
0110
0011
,
0110
1100
0011
1010
,
0110
0011
0110
1100
,
0110
0011
1100
0101
,
1010
0110
0110
1001
,
1001
1010
0101
1010
,
0011
0000
0000
0000
1100
0000
0000
0000
0011
0000
0000
0000
0001
0010
0100
1000
,
0100
0010
0001
0010
0000
0000
1000
0000
1010
0000
0000
0000
0110
0000
0000
0000
,
0011
0000
1100
0100
0110
0000
1001
0000
,
0110
0000
1100
0010
0011
0000
1100
0000
,
0110
0000
0011
0010
1010
0000
0110
0000
,
0011
0000
0110
0100
1100
0000
0110
0000
,
0011
0000
1100
1100
1100
0000
0110
0000
,
0011
0000
0011
1001
0110
0000
1010
0000
,
0011
0000
0000
0000
1000
0100
0010
0001
0010
0100
1000
0100
0010
0001
0010
0100
,
1000
0100
0010
0001
1100
0000
1000
0000
1001
0000
0000
0000
0110
0000
0000
0000
,
0011
0000
1100
0100
0110
0000
0011
0000
,
1001
0000
1100
0100
1100
0000
0110
0000
,
0011
0000
0110
0110
1001
0000
1010
0000
,
0101
0000
0110
1000
0011
0000
1010
0000
,
1010
0000
1010
0110
0011
0000
1000
0000
,
0001
0000
1000
0100
1000
0000
0010
0000
,
1000
0000
0000
0000
0000
0000
0000
0000
0000
0000
0000
0000
0110
0000
0000
0000
0000
0000
1100
0000
0000
0000
0000
0000
1000
0000
0000
0100
0000
0000
0010
0000
0000
0001
0000
0000
1000
0000
0000
0000
0010
0000
0000
0000
0100
0000
0000
0000
,
1000
0000
0110
0000
0110
0000
1001
0100
,
1001
0000
1100
M000
1100
0000
0011
0010
,
0110
0M00
1100
0M00
0110
00M0
0011
0010
,
0011
00M0
1100
0M00
0110
00M0
0011
0110
,
1100
0M00
1100
0000
0011
0000
1100
0110
,
0011
0000
1100
0000
1100
0000
0110
1100
,
0011
0000
1100
0000
0110
0000
0110
0100
,
0110
0000
0000
0000
10M0
0100
0010
M001
0010
0100
100M
0010
0100
M001
0100
0010
,
0000
0000
1100
MM00
0110
0MM0
MM11
11MM
,
MM00
1100
MM00
MM00
1100
M110
0MM0
1100
,
MM00
0000
0000
0000
0000
0000
0000
0000
0110
0000
0000
0000
0000
0000
0000
0000
0MM0
0000
0000
0000
0000
0000
0000
0000
0000
0000
0000
0000
0000
0000
0000
0000
M22M
0330
0000
0000
0000
0000
0000
0000
0000
0000
0000
0000
0000
0000
0000
0000
1000
0000
0000
0000
0000
0000
0000
0000
0010
0000
0000
0000
0000
0000
0000
0000
,
0100
0001
1000
0100
0001
0100
1000
0010
,
1000
0001
1000
0010
0100
0001
1000
0010
,
1000
0001
0010
0100
1000
0001
0010
0100
,
1000
0010
0100
0001
1000
0001
0100
0001
,
0000
0000
1100
MM00
0110
0MM0
1100
MM00
,
0110
0000
0000
0000
0000
0000
0000
0000
0MM0
0000
0000
0000
0000
0000
0000
0000
0110
0000
0000
0000
0000
0000
0000
0000
0MM0
0000
0000
0000
0000
0000
0000
0000
0MM0
0000
0000
0000
0000
0000
0000
0000
0220
0330
0000
0000
0000
0000
0000
0000
0MM0
0000
0000
0000
0000
0000
0000
0000
0000
0000
0000
0000
0000
0000
0000
0000
,
0110
0MM0
11M0
M110
0000
0000
0000
0000
,
1000
0100
0010
0001
0010
0100
1000
0100
,
0010
0001
0100
0010
1000
0001
0010
0100
,
1000
0100
0010
0001
0100
0010
1000
0010
,
0100
0001
1000
0001
0100
0010
0001
1000
,
0100
0000
0010
0000
0001
1000
0001
1000
0001
1000
0001
1000
0001
1000
0001
1000
,
0001
1000
0001
1000
0001
0000
0000
0000
1100
0000
0000
0000
0110
0000
0000
0000
,
0011
0110
1100
0000
0110
0000
0110
0100
,
0101
0000
0110
0000
0110
0000
1010
0100
,
0110
0000
1001
0000
0110
0000
1001
M11M
,
1MM1
0000
1100
0000
0110
0000
MM11
M11M
,
11MM
0000
0110
0000
1001
0000
1001
0011
,
1100
0000
1010
0000
0011
0000
1010
0011
,
1010
0000
1100
0000
0101
0000
1100
0110
,
0001
0000
1001
0000
1100
0000
0110
0011
,
0000
0000
0000
0000
0000
0000
0000
0000
0000
0000
0000
0000
0000
0000
0000
0000
1100
0000
0000
0000
0000
0000
0000
0000
0000
0000
0000
0000
0000
0000
0000
0000
0220
0330
0000
0000
0000
0000
0000
0000
0000
0000
0000
0000
0000
0000
0000
0000
1100
0000
0000
0000
0000
0000
0000
0000
0000
0000
0000
0000
0000
0000
0000
0000
,
0110
0000
1100
0011
0000
0000
1000
0100
,
0010
0001
0001
0010
0100
1000
1000
0100
,
0010
0001
0001
0010
0100
1000
0010
0100
,
0001
1000
0010
0100
0001
1000
0100
0010
,
0001
0000
0010
0000
0100
0000
0001
0010
0100
1000
0100
0010
0001
0010
0100
1000
,
0010
0100
0001
0010
0100
0000
0000
0000
1100
0000
0000
0000
0110
0000
0000
0000
,
0M11
011M
11M0
0000
0110
0000
1100
0000
,
M110
0M11
101M
0000
1100
0000
1001
0000
,
1MM1
M11M
11M0
0000
1100
0000
0110
0000
,
1MM1
M011
11MM
0000
1100
0000
0110
0000
,
0M11
011M
11M0
0000
1100
0000
0011
0000
,
11M0
M1MM
0MM1
0000
1100
0000
0011
0000
,
1100
0000
M110
0000
0110
0000
0000
0000
1100
0000
0000
0000
1000
M010
M100
M001
,
M100
M010
M100
M001
M100
0000
0000
0000
1100
0000
0000
0000
0110
0000
0000
0000
,
0011
M11M
11M0
M11M
0M11
0000
1100
0000
,
0101
0000
1M10
M110
1M10
M1M1
011M
0000
,
1100
0000
0110
0000
0011
1001
0110
1100
,
0011
0000
1000
0100
0010
0001
0100
0010
,
1000
0010
0100
0001
0010
0100
1000
0010
,
0100
0001
1000
0010
0100
0001
1000
0010
,
1000
0000
0001
0000
0100
0000
0001
0000
0010
0000
0100
0000
1000
0010
1000
0010
,
1000
0010
1000
0010
1000
0000
0000
0000
1100
0000
0000
0000
0110
0000
0000
0000
,
0M11
M11M
11M0
M11M
0M11
011M
0000
0000
,
1100
0000
0011
0000
0110
1MM0
M110
0M11
,
01MM
1100
0000
0000
1100
0000
0110
0000
,
1100
M110
0M11
011M
0M11
11MM
0000
0000
,
1100
0110
0011
0000
1100
1100
0011
0000
,
1000
0100
0010
0000
0001
0010
0100
0000
,
1100
M110
0M11
011M
11M0
M110
0000
0000
,
1000
0001
0010
0000
1000
0100
0010
0000
,
0001
001M
01M0
0M11
11MM
M100
0000
0000
,
1100
0110
0011
0000
0001
0010
0100
0000
,
1100
MM10
0110
0MM1
0011
11MM
0000
0000
,
1100
0100
0100
0000
0011
0010
0010
0000
,
1100
0100
0010
1000
0001
0001
0000
0000
,
1000
0010
0100
0000
0100
0010
1000
0000
,
1MMM
0000
MM1M
0000
M1MM
0000
M1MM
0000
MM1M
0000
1MMM
0000
1000
0001
0010
0100
,
1000
0010
0100
0001
2000
0000
0000
0000
0000
0000
0000
0000
0000
0000
0000
0000
,
0000
3000
0002
0000
0000
0000
2003
0000
,
0000
3220
0000
0000
,
0000
2332
0000
3203
,
0000
0302
0000
0000
,
0000
2003
0000
3020
,
0000
0230
0000
0000
,
0000
0000
2000
0000
0000
0300
0000
0000
,
0000
3002
0000
0000
,
0000
0203
0000
0010
,
0000
0320
0000
0000
,
0000
2000
0000
0002
,
0000
3233
0000
0000
,
0000
2300
0000
0111
,
0000
0000
0111
0000
3000
0000
0000
0100
,
1000
0100
0010
0001
0100
1000
0100
0001
,
0100
2002
0000
0000
,
0000
0000
0000
0000
,
0000
0000
0000
0000
,
0000
0000
0000
0000
,
0000
3003
0000
0000
;
