#TITLE:Master Exploder;
#SUBTITLE:The Pick of Destiny (2006);
#ARTIST:Tenacious D;
#TITLETRANSLIT:;
#SUBTITLETRANSLIT:;
#ARTISTTRANSLIT:;
#CREDIT:CBR.PNG;
#BANNER:masterexploderbn.png;
#BACKGROUND:masterexploderbg.png;
#LYRICSPATH:;
#CDTITLE:CBR.png;
#MUSIC:07-tenacious_d-master_exploder.mp3;
#OFFSET:-0.143;
#SAMPLESTART:99.980;
#SAMPLELENGTH:11.980;
#SELECTABLE:YES;
#BPMS:0.000=150.000;
#STOPS:;
#BGCHANGES:;
// cache tags:
#FIRSTBEAT:0.000;
#LASTBEAT:351.000;
#SONGFILENAME:Songs/Astronomic Metal Collection 2/(Coolboyrulez) Master Exploder/07-tenacious_d-master_exploder.sm;
#HASMUSIC:1;
#HASBANNER:1;
#MUSICLENGTH:144.848;
// end cache tags

//---------------dance-single - ----------------
#NOTES:
     dance-single:
     :
     Hard:
     11:
     1.000,1.000,1.000,0.338,1.000,847.000,249.000,49.000,0.000,3.000:
1000
0000
0000
0001
0000
0000
1000
0000
0000
0001
0000
0000
1000
0000
0000
0001
0000
0000
1000
0000
0000
0001
0000
0000
0110
0000
0000
0000
0000
0000
0000
0000
0000
0000
0000
0000
0100
0000
0000
0001
0000
0000
0010
0000
1000
0000
0100
0000
,
0011
0011
1000
0110
0001
1100
1100
0010
,
1000
0000
0000
0001
0000
0000
1000
0000
0000
0001
0000
0000
1000
0000
0000
0001
0000
0000
1000
0000
0000
0001
0000
0000
0110
0000
0000
0000
0000
0000
0000
0000
0000
0000
0000
0000
0100
0000
0000
0001
0000
0000
0010
0000
1000
0000
0100
0000
,
0011
0011
1000
0110
0001
1100
1100
0010
,
2000
0000
0000
0000
0010
3100
0000
0100
2000
0000
0000
0000
0001
0010
3100
0000
,
1000
0000
0000
0000
0000
0000
0010
0000
0000
0100
0000
0000
1000
0000
0000
0000
0000
0000
0100
0000
0000
0000
0000
0000
0010
0000
0000
0000
0000
0000
0001
0000
0000
0000
0000
0000
0001
0000
0010
0000
0000
0000
0010
0000
0100
0000
0000
0000
,
2000
0000
0000
0000
0010
3100
0000
0100
2000
0000
0000
0000
0001
0010
3100
0000
,
1000
0100
0010
0001
0010
0100
0010
0001
0100
0010
0001
0100
0010
0100
0001
0010
,
0200
0000
0000
0000
0310
0001
0010
0100
0001
0010
0100
0001
0100
0010
0001
0010
,
0100
0001
0010
0100
0001
0100
0010
0001
0010
0100
1000
0100
2000
0000
0000
3000
,
2000
0000
0000
0000
,
3200
0000
0000
0000
,
0320
0000
0000
0000
,
0032
0000
0000
0000
,
2003
0000
3200
0000
,
0320
0000
0032
0000
,
2003
3200
0320
0032
,
2003
3200
0320
0032
,
0000
0000
0023
0000
,
0000
0000
0000
0000
,
2032
0000
0000
0000
0000
0000
0000
0000
0000
0000
0000
0000
0000
0000
0000
0000
0000
0000
3003
0000
0000
0000
0000
0000
0110
0000
0000
0000
0000
0000
0000
0000
0000
0000
0000
0000
0100
0000
0000
0001
0000
0000
0010
0000
1000
0000
0100
0000
,
0011
0011
1000
0110
0001
1100
1100
0001
,
1000
0000
0000
0001
0000
0000
1000
0000
0000
0001
0000
0000
1000
0000
0000
0001
0000
0000
1000
0000
0000
0001
0000
0000
0110
0000
0000
0000
0000
0000
0000
0000
0000
0000
0000
0000
0100
0000
0000
0001
0000
0000
0010
0000
1000
0000
0100
0000
,
0011
0011
1000
0110
0001
1100
1100
0001
,
0100
0000
0000
0001
0000
0000
0100
0000
0000
0001
0000
0000
0100
0000
0000
0001
0000
0000
0100
0000
0000
0001
0000
0000
1010
0000
0000
0000
0000
0000
0000
0000
0000
0000
0000
0000
0100
0000
0000
0001
0000
0000
0010
0000
1000
0000
0100
0000
,
0011
0011
1000
0110
0001
1100
1100
0001
,
0010
0000
0000
1000
0000
0000
0010
0000
0000
1000
0000
0000
0010
0000
0000
1000
0000
0000
0010
0000
0000
1000
0000
0000
0101
0000
0000
0000
0000
0000
0000
0000
0000
0000
0000
0000
0100
0000
0000
0001
0000
0000
0010
0000
1000
0000
0100
0000
,
0011
0011
1000
0110
0001
1100
1100
0001
,
0100
0000
0000
0010
0000
0000
0100
0000
0000
0010
0000
0000
0100
0000
0000
0010
0000
0000
0100
0000
0000
0010
0000
0000
1001
0000
0000
0000
0000
0000
0000
0000
0000
0000
0000
0000
0100
0000
0000
0001
0000
0000
0010
0000
1000
0000
0100
0000
,
0011
0011
1000
0110
0001
1100
1100
0001
,
1000
0000
0000
0100
0000
0000
1000
0000
0000
0100
0000
0000
1000
0000
0000
0100
0000
0000
1000
0000
0000
0100
0000
0000
0011
0000
0000
0000
0000
0000
0000
0000
0000
0000
0000
0000
0100
0000
0000
0001
0000
0000
0010
0000
1000
0000
0100
0000
,
0011
0011
1000
0110
0001
1100
1100
0010
,
0001
0000
0000
0010
0000
0000
0001
0000
0000
0010
0000
0000
0001
0000
0000
0010
0000
0000
0001
0000
0000
0010
0000
0000
1100
0000
0000
0000
0000
0000
0000
0000
0000
0000
0000
0000
0100
0000
0000
0001
0000
0000
0010
0000
1000
0000
0100
0000
,
0011
0011
1000
0110
0001
1100
1100
0001
,
1000
0000
0000
1000
0010
0100
0010
0000
0000
0001
0000
0000
1000
0000
0000
0100
0000
0000
0010
0000
0000
0001
0000
0000
,
1000
0000
0000
1000
0010
0100
0010
0000
0000
0001
0000
0000
1000
0000
0000
0100
0000
0000
0010
0000
0000
0001
0000
0000
,
1000
0100
0010
0001
1000
0100
0010
0001
,
0002
0000
0000
0000
0000
0000
0000
0000
0000
0000
0000
0000
0000
0000
0000
0000
0023
0000
0000
0000
0000
0000
0000
0000
0032
0000
0000
0000
0000
0000
0000
0000
0000
0000
0000
0000
0000
0000
0000
0000
0023
0000
0000
0000
0000
0000
0000
0000
0032
0000
0000
0000
0000
0000
0000
0003
0002
0000
0000
0000
0000
0000
0000
0000
,
0000
0000
0000
0000
,
0013
0100
1000
0010
1000
0100
0010
1000
0010
0100
1000
0010
1000
0100
0010
0100
,
2000
0000
3200
2300
3200
0000
0000
0000
,
0000
0000
0000
0000
,
0311
1000
0001
1000
0011
1000
0001
1000
0011
0100
0010
0100
0011
0100
0010
0100
,
1001
0100
0001
0100
1001
0100
0001
0100
0011
1000
0010
1000
0011
1000
0010
1000
,
0101
1000
0001
1010
0001
1000
0011
1000
0011
0100
0010
0101
0010
0100
1010
0100
,
1001
0100
1001
0110
1001
0110
1001
0110
1001
0110
1001
0010
0100
1000
0010
0100
,
1010
0000
0000
0001
0000
0000
1000
0000
0000
0001
0000
0000
1100
0000
0000
0001
0000
0000
1000
0000
0000
0001
0000
0000
0110
0000
0000
0000
0000
0000
0000
0000
0000
0000
0000
0000
1100
0000
0000
0001
0000
0000
0010
0000
1000
0000
0100
0000
,
0011
0011
1001
0110
1001
1100
1100
0001
,
0110
0000
0000
0001
0000
0000
0100
0000
0000
0001
0000
0000
1100
0000
0000
0001
0000
0000
0100
0000
0000
0001
0000
0000
1010
0000
0000
0000
0000
0000
0000
0000
0000
0000
0000
0000
0110
0000
0000
0001
0000
0000
0010
0000
1000
0000
0100
0000
,
0011
0000
0000
0011
0000
0000
1001
0000
0000
0110
0000
0000
0101
0000
0000
1100
0000
0000
1100
0011
0000
0001
0000
0000
,
0110
0000
0000
1000
0000
0000
0010
0000
0000
1000
0000
0000
0010
0000
0000
1000
0000
0000
0010
0000
0000
1000
0000
0000
0101
0000
0000
0000
0000
0000
0000
0000
0000
0000
0000
0000
0100
0000
0000
0001
0000
0000
0010
0000
1000
0000
0100
0000
,
0011
0011
1000
0110
0011
1100
1100
0001
,
1100
0000
0000
0010
0000
0000
0100
0000
0000
0010
0000
0000
0100
0000
0000
0010
0000
0000
0100
0000
0000
0010
0000
0000
1001
0000
0000
0000
0000
0000
0000
0000
0000
0000
0000
0000
0100
0000
0000
0001
0000
0000
0010
0000
1000
0000
0100
0000
,
0011
0011
1000
0110
1001
1100
1100
0001
,
1010
0000
0000
0100
0000
0000
1000
0000
0000
0100
0000
0000
1000
0000
0000
0100
0000
0000
1000
0000
0000
0100
0000
0000
0011
0000
0000
0000
0000
0000
0000
0000
0000
0000
0000
0000
0100
0000
0000
0001
0000
0000
0010
0000
1000
0000
0100
0000
,
0011
0011
1000
0110
0101
1100
1100
0010
,
0101
0000
0000
0010
0000
0000
0001
0000
0000
0010
0000
0000
0001
0000
0000
0010
0000
0000
0001
0000
0000
0010
0000
0000
1100
0000
0000
0000
0000
0000
0000
0000
0000
0000
0000
0000
0100
0000
0000
0001
0000
0000
0010
0000
1000
0000
0100
0000
,
0011
0000
0000
0011
0000
0000
1000
0000
0000
0110
0000
0000
0101
0000
0000
1100
0000
0000
1100
0011
0000
0001
0000
0000
,
1010
0000
0000
0100
0000
0000
1000
0000
0000
0100
0000
0000
1010
0000
0000
0100
0000
0000
1000
0000
0000
0100
0000
0000
0011
0000
0000
0000
0000
0000
0000
0000
0000
0000
0000
0000
1100
0000
0000
0001
0000
0000
0010
0000
1000
0000
0100
0000
,
0011
0000
0011
0000
1001
0000
0110
0000
0101
0000
1100
0000
1100
0000
0001
0010
,
2001
0000
0000
0000
0010
3100
0000
0100
2000
0000
0000
0000
0001
0010
3100
0000
,
1000
0000
0000
0000
0000
0000
0010
0000
0000
0100
0000
0000
1000
0000
0000
0000
0000
0000
0100
0000
0000
0000
0000
0000
0010
0000
0000
0000
0000
0000
0001
0000
0000
0000
0000
0000
0001
0000
0010
0000
0000
0000
0010
0000
0100
0000
0000
0000
,
2000
0000
0000
0000
0010
3100
0000
0100
2000
0000
0000
0000
0001
0010
3100
0000
,
1000
0100
0010
0001
0010
0100
0010
0001
0100
0010
0001
0100
0010
0100
0001
0010
,
0200
0000
0000
0000
0310
0001
0010
0100
0001
0010
0100
0001
0100
0010
0001
0010
,
0100
0001
0010
0100
0001
0100
0010
0001
0110
0000
0000
1010
0000
0000
1100
0000
,
2000
0000
0000
0000
0010
3100
0000
0100
2000
0000
0000
0000
0001
0010
3100
0000
,
1000
0100
0010
0001
0010
0100
0010
0001
0100
0010
0001
0100
0010
0100
0001
0010
,
0200
0000
0000
0000
,
0000
0000
0000
0000
0000
0000
0000
0000
0320
0000
0000
0230
0000
0000
2300
0000
,
0200
3320
0230
0000
0000
0000
0000
0000
0000
0000
0000
0000
0000
0000
0000
0000
,
0310
1000
0100
0001
0100
1000
0100
0001
1000
0100
0001
1000
0100
1000
0101
1010
,
0101
0000
0000
0010
0000
0000
1000
0000
0000
0010
0000
0000
1100
0000
0000
0010
0000
0000
1000
0000
0000
0010
0000
0000
0101
0000
0000
0000
0000
0000
0000
0000
0000
0000
0000
0000
1100
0000
0000
0001
0000
0000
0010
0000
1000
0000
0100
0000
,
0011
0000
0011
0000
1001
0000
0110
0000
1001
0000
1100
0000
1100
0000
0010
1000
,
0110
0000
0000
0001
0000
0000
0100
0000
0000
0001
0000
0000
1100
0000
0000
0001
0000
0000
0100
0000
0000
0001
0000
0000
1010
0000
0000
0000
0000
0000
0000
0000
0000
0000
0000
0000
0110
0000
0000
0001
0000
0000
0010
0000
1000
0000
0100
0000
,
0011
0011
1001
0110
0101
1100
1100
0001
,
0110
0000
0000
1000
0000
0000
0010
0000
0000
1000
0000
0000
0011
0000
0000
1000
0000
0000
0010
0000
0000
1000
0000
0000
0101
0000
0000
0000
0000
0000
0000
0000
0000
0000
0000
0000
0110
0000
0000
0001
0000
0000
0010
0000
1000
0000
0100
0000
,
0011
0011
1100
0110
0011
1100
1100
0010
,
1100
0000
0000
0010
0000
0000
0100
0000
0000
0010
0000
0000
0101
0000
0000
0010
0000
0000
0100
0000
0000
0010
0000
0000
1001
0000
0000
0000
0000
0000
0000
0000
0000
0000
0000
0000
0110
0000
0000
0001
0000
0000
0010
0000
1000
0000
0100
0000
,
0011
0011
1100
0110
1001
1100
1100
0001
,
1010
0000
0000
0100
0000
0000
1000
0000
0000
0100
0000
0000
1001
0000
0000
0100
0000
0000
1000
0000
0000
0100
0000
0000
0011
0000
0000
0000
0000
0000
0000
0000
0000
0000
0000
0000
1100
0000
0000
0001
0000
0000
0010
0000
1000
0000
0100
0000
,
0011
0011
1001
0110
0101
1100
1100
0010
,
1000
0000
0000
0100
0000
0000
1010
0000
0000
0101
0000
0000
1010
0000
0000
0101
0000
0000
1010
0000
0000
0101
0000
0000
1010
0000
0000
0000
0000
0000
0000
0000
0000
0000
0000
0000
1100
0000
0000
0001
0000
0000
0010
0000
1000
0000
0100
0000
,
0011
0000
0011
0000
1001
0000
0110
0000
1001
0000
1100
0000
1100
0000
0101
0010
,
1100
0000
1000
0100
0011
0000
0001
0010
1100
0000
1000
0100
0011
0000
0001
0010
,
1100
0000
0000
0000
0000
0000
0010
0000
0000
0100
0000
0000
1001
0000
0000
0110
0000
0000
1001
0000
0000
0110
0000
0000
1001
0000
0000
0000
0000
0000
0100
0000
0000
0000
0000
0000
1100
0000
0011
0000
0000
0000
0001
0000
0000
0010
0000
0000
,
1100
0000
1000
0100
0011
0000
0001
0010
1100
0000
1000
0100
0011
0000
0001
0100
,
1010
0101
1010
0101
1010
0101
1010
0000
0011
0000
0110
0000
1001
0000
0000
0000
;
