#TITLE:Kokiri Forest;
#SUBTITLE:;
#ARTIST:Dr Slue;
#TITLETRANSLIT:;
#SUBTITLETRANSLIT:;
#ARTISTTRANSLIT:;
#CREDIT:StandardMode;
#BANNER:Kokiri Forest-bn.jpg;
#BACKGROUND:Kokiri Forest.jpg;
#LYRICSPATH:;
#CDTITLE:THE standardmode symbol.jpg;
#MUSIC:Fokiri Forest.mp3;
#OFFSET:0.000;
#SAMPLESTART:16.980;
#SAMPLELENGTH:17.010;
#SELECTABLE:YES;
#BPMS:0.000=140.830,6.250=120.830,6.500=100.830,6.750=80.830,7.000=60.830,7.250=40.830,7.500=20.830,8.000=140.830;
#STOPS:;
#BGCHANGES:;
// cache tags:
#FIRSTBEAT:1.000;
#LASTBEAT:223.500;
#SONGFILENAME:Songs/zelda et megaman/Kokiri Forest/Kokiri Forest.sm;
#HASMUSIC:1;
#HASBANNER:1;
#MUSICLENGTH:97.257;
// end cache tags

//---------------dance-single - ----------------
#NOTES:
     dance-single:
     :
     Medium:
     8:
     0.627,0.632,0.607,0.422,0.154,327.000,59.000,41.000,0.000,0.000:
0000
2000
3020
0000
,
0032
0203
2300
0000
,
3100
0011
1000
1000
0010
1100
0001
0001
,
1000
0110
1000
1000
0001
0110
0001
0001
,
0010
0000
1000
0000
0001
0000
0010
0000
0100
0000
0000
0011
0000
0000
0010
0000
,
0100
1000
0100
0000
0000
0000
0010
0001
0010
0000
0000
0000
1000
0000
0100
0000
,
0001
2000
0000
0000
0100
0010
0001
3010
,
0200
0000
0000
0302
0000
0000
0000
0000
,
0013
0000
0100
0000
0001
0000
0100
0000
0010
0000
0000
1100
0000
0000
0010
0000
,
0001
0010
0001
0000
0000
0000
1000
0100
1000
0000
0000
0000
0010
0000
1000
0000
,
0100
0002
0000
0000
1000
0100
0010
0103
,
2000
0000
0000
0000
0000
0000
0000
3000
,
0000
1001
1100
0011
1100
0101
1000
0000
,
0010
0000
0100
0000
0001
0000
0010
0000
2000
3000
0000
0000
0100
0000
0000
0000
,
0000
1010
1100
0011
1010
0101
0010
0000
,
0000
0000
0010
0000
0100
0000
0001
0000
2000
3000
0000
0000
0010
0000
0000
0000
,
0000
1010
0110
0101
1100
1001
0010
0000
,
0000
0000
0100
0000
0001
0000
1000
0000
0020
0030
0000
0000
0100
0000
0000
0000
,
0000
1001
1100
0011
1010
0101
0010
0000
,
0000
0000
1000
0000
0010
0000
0100
0000
0002
0003
0000
0000
1000
0000
0000
0000
,
0001
1100
0010
0010
1000
0011
0100
0100
,
0010
0101
1000
1000
0100
1010
0001
0001
,
1000
0100
1000
0000
0000
0000
0001
0010
0001
0000
0000
0000
1000
0100
2000
0000
,
0000
0000
0000
3001
0010
0100
1000
0100
,
2000
0000
0000
0000
0000
0000
0200
0000
0000
3300
0010
0001
0010
0001
0010
0001
,
2000
0000
0000
0200
0000
0000
0000
3300
,
0010
0001
0010
0000
0000
0000
0100
1000
0100
0000
0000
0000
0001
0010
0002
0000
,
0000
0000
0000
1003
0100
0010
0001
0010
,
0200
0000
0320
0000
,
0032
0000
0000
0000
0000
0000
0000
0003
,
1000
0000
0010
0000
1000
0000
0001
0000
0010
0000
0000
1100
0000
0000
0001
0000
,
1000
0100
1000
0000
0000
0000
0001
0010
0001
0000
0000
0000
1000
0000
0001
0000
,
0100
0002
0000
0000
0010
0100
1000
0103
,
0020
0000
0000
2030
0000
0000
0000
0000
,
3001
0000
0010
0000
1000
0000
0001
0000
0100
0000
0000
0011
0000
0000
1000
0000
,
0100
0010
0100
0000
0000
0000
0010
0100
0010
0000
0000
0000
1000
0000
0010
0000
,
0001
2000
0000
0000
0100
0010
0001
3010
,
0200
0000
0000
0000
,
0300
0101
0110
1001
1100
0101
1000
0000
,
0000
0000
1000
0000
0001
0000
0100
0000
2000
3000
0000
0000
0010
0000
0000
0000
,
0000
0110
1100
0101
1010
0110
0001
0000
,
0000
0000
1000
0000
0001
0000
0100
0000
0020
0030
0000
0000
1000
0000
0000
0000
,
0000
0101
1100
0110
1001
1010
0010
0000
,
0000
0000
0100
0000
0001
0000
1000
0000
0200
0300
0000
0000
0010
0000
0000
0000
,
0000
1100
1001
0011
1010
0101
1000
0000
,
0000
0000
0010
0000
1000
0000
0001
0000
2000
3000
0000
0000
0010
0000
0000
0000
,
1000
0011
0100
0100
0001
1100
0010
0010
,
0001
1010
0100
0100
1000
0101
0010
0010
,
0100
0010
0100
0000
0000
0000
0010
0100
0010
0000
0000
0000
1000
0100
2000
0000
,
0000
0000
0000
3001
0010
0100
1000
0100
,
0002
0000
0000
0000
0000
0000
0020
0000
0000
0033
1000
0100
1000
0100
1000
0100
,
0002
0000
0000
0020
0000
0000
0000
0033
,
0100
1000
0100
0000
0000
0000
0010
0001
0010
0000
0000
0000
0100
0010
0200
0000
,
0000
0000
0000
0301
1000
0010
0100
0001
,
2100
0000
0010
0000
0001
0000
0010
3000
0201
0000
0010
0000
0001
0000
0010
0300
,
1002
0100
0010
0100
1000
0100
0010
0103
;

//---------------dance-single - Copied from----------------
#NOTES:
     dance-single:
     Copied from:
     Easy:
     6:
     0.473,0.488,0.000,0.422,0.021,281.000,0.000,41.000,0.000,0.000:
0000
2000
3020
0000
,
0032
0203
2300
0000
,
3100
0001
1000
1000
0010
1000
0001
0001
,
1000
0010
1000
1000
0001
0100
0001
0001
,
0010
0000
1000
0000
0001
0000
0010
0000
0100
0000
0000
0001
0000
0000
0010
0000
,
0100
0100
0000
0010
0010
0000
1000
0100
,
0001
2000
0000
3000
0100
0100
0010
0010
,
0200
0000
0000
0302
0000
0000
0000
0000
,
0013
0000
0100
0000
0001
0000
0100
0000
0010
0000
0000
0100
0000
0000
0010
0000
,
0001
0001
0000
1000
1000
0000
0010
1000
,
0100
0002
0000
0003
1000
1000
0010
0010
,
2000
0000
0000
0000
0000
0000
0000
3000
,
0000
0001
0100
0010
1000
0001
1000
0000
,
0000
0000
0100
0000
0001
0000
0010
0000
2000
3000
0000
0000
0100
0000
0000
0000
,
0000
0010
0100
0001
1000
0100
0010
0000
,
0000
0000
0010
0000
0100
0000
0001
0000
2000
3000
0000
0000
0010
0000
0000
0000
,
0000
1000
0010
0001
0100
1000
0010
0000
,
0000
0000
0100
0000
0001
0000
1000
0000
0020
0030
0000
0000
0100
0000
0000
0000
,
0000
0001
0100
0010
1000
0001
0010
0000
,
0000
0000
1000
0000
0010
0000
0100
0000
0002
0003
0000
0000
1000
0000
0000
0000
,
0001
0100
0010
0010
1000
0010
0100
0100
,
0010
0001
1000
1000
0100
1000
0001
0001
,
1000
1000
0000
0001
0001
0000
1000
2000
,
0000
0000
0000
3001
0010
0100
1000
0100
,
2000
0000
0000
0000
0000
3000
0200
0000
0000
0000
0000
0000
0000
0000
0000
0300
,
2000
0000
0000
0000
0000
3000
0200
0000
0000
0000
0000
0000
0000
0000
0300
0000
,
0010
0010
0000
0100
0100
0000
0001
0002
,
0000
0000
0000
1003
0100
0010
0001
0010
,
0200
0000
0320
0000
,
0032
0000
0000
0000
0000
0000
0000
0003
,
1000
0000
0010
0000
1000
0000
0001
0000
0010
0000
0000
0100
0000
0000
0001
0000
,
1000
1000
0000
0001
0001
0000
1000
0001
,
0100
0002
0000
0000
0013
0100
1000
0100
,
0020
0000
0000
2030
0000
0000
0000
0000
,
3001
0000
0010
0000
1000
0000
0001
0000
0100
0000
0000
0001
0000
0000
1000
0000
,
0100
0100
0000
0010
0010
0000
1000
0010
,
0001
2000
0000
0000
3100
0010
0001
0010
,
0200
0000
0000
0000
,
0300
0001
0100
1000
0100
0001
1000
0000
,
0000
0000
1000
0000
0001
0000
0100
0000
2000
3000
0000
0000
0010
0000
0000
0000
,
0000
0010
1000
0100
0010
0100
0001
0000
,
0000
0000
1000
0000
0001
0000
0100
0000
0020
0030
0000
0000
1000
0000
0000
0000
,
0000
0001
1000
0010
0100
0001
0010
0000
,
0000
0000
0100
0000
0001
0000
1000
0000
0200
0300
0000
0000
0010
0000
0000
0000
,
0000
0100
1000
0010
0001
0100
0010
0000
,
0000
0000
0010
0000
1000
0000
0001
0000
2000
3000
0000
0000
0010
0000
0000
0000
,
1000
0001
0100
0100
0001
1000
0010
0010
,
0001
1000
0100
0100
1000
0001
0010
0010
,
1000
1000
0000
0001
0001
0000
1000
2000
,
0000
0000
0000
3001
0010
0100
1000
0100
,
0002
0000
0000
0000
0000
0003
0020
0000
0000
0000
0000
0000
0000
0000
0000
0030
,
0002
0000
0000
0000
0000
0003
0020
0000
0000
0000
0000
0000
0000
0000
0030
0000
,
0100
0100
0000
0001
0001
0000
0100
0200
,
0000
0000
0000
0301
1000
0010
0100
0001
,
2000
0000
0000
0000
0000
0000
0000
3000
0200
0000
0000
0000
0000
0000
0000
0300
,
0002
0000
0000
0000
0000
0000
0000
0003
;

//---------------dance-single - Copied from----------------
#NOTES:
     dance-single:
     Copied from:
     Hard:
     10:
     0.748,0.833,1.000,0.339,0.236,378.000,98.000,33.000,0.000,0.000:
0000
2000
3020
0000
,
0032
0203
2300
0000
,
3100
0011
1010
1010
0010
1100
0101
0101
,
1000
0110
1001
1001
0001
0110
1001
1001
,
0010
0000
1000
0000
0001
0000
0010
0000
0100
0000
0000
0011
0000
0000
1010
0000
,
0100
1000
0100
0000
0000
0000
0010
0001
0010
0000
0000
0000
1000
0000
0100
0000
,
0001
2000
0000
0000
0100
0010
0001
3010
,
0200
0000
0000
0302
1000
0100
0010
1000
,
0013
0000
0100
0000
0001
0000
0100
0000
0010
0000
0000
1100
0000
0000
0110
0000
,
0001
0010
0001
0000
0000
0000
1000
0100
1000
0000
0000
0000
0010
0000
1000
0000
,
0100
0002
0000
0000
1000
0100
0010
0103
,
2100
0010
0001
0010
0100
0010
0001
0010
,
3000
1001
1100
0011
1100
0101
1000
0000
,
0010
0000
0000
0000
0100
0000
0000
0000
0001
0000
0000
0000
0010
0000
0000
0000
1000
0100
1000
0000
0000
0000
0000
0000
0110
0000
0000
0000
0000
0000
0000
0000
,
0000
1010
1100
0011
1010
0101
0010
0000
,
0000
0000
0000
0000
0010
0000
0000
0000
0100
0000
0000
0000
0001
0000
0000
0000
1000
0100
1000
0000
0000
0000
0000
0000
0011
0000
0000
0000
0000
0000
0000
0000
,
0000
1010
0110
0101
1100
1001
0010
0000
,
0000
0000
0000
0000
0100
0000
0000
0000
0001
0000
0000
0000
1000
0000
0000
0000
0010
0100
0010
0000
0000
0000
0000
0000
1100
0000
0000
0000
0000
0000
0000
0000
,
0000
1001
1100
0011
1010
0101
0010
0000
,
0000
0000
0000
0000
1000
0000
0000
0000
0010
0000
0000
0000
0100
0000
0000
0000
0001
0010
0001
0000
0000
0000
0000
0000
1100
0000
0000
0000
0000
0000
0000
0000
,
0001
1100
0011
0011
1000
0011
1100
1100
,
0010
0101
1010
1010
0100
1010
0101
0101
,
1000
0100
1000
0000
0000
0000
0001
0010
0001
0000
0000
0000
1000
0100
2000
0000
,
0000
0000
0000
3001
0010
0100
1000
0100
,
2000
0000
0000
0000
0000
0000
0200
0000
0000
3300
0010
0001
0010
0001
0010
0001
,
2000
0000
0000
0200
0000
0000
0000
3300
,
0010
0001
0010
0000
0000
0000
0100
1000
0100
0000
0000
0000
0001
0010
0002
0000
,
0000
0000
0000
1003
0100
0010
0001
0010
,
0210
0001
0010
0001
0320
1000
0100
1000
,
0032
0010
0100
1000
0100
0010
0100
1003
,
1000
0000
0010
0000
1000
0000
0001
0000
0010
0000
0000
1100
0000
0000
0011
0000
,
1000
0100
1000
0000
0000
0000
0001
0010
0001
0000
0000
0000
1000
0000
0001
0000
,
0100
0002
0000
0000
0010
0100
1000
0103
,
0020
0000
0000
2030
0100
0010
0001
0010
,
3001
0000
0010
0000
1000
0000
0001
0000
0100
0000
0000
0011
0000
0000
1010
0000
,
0100
0010
0100
0000
0000
0000
0010
0100
0010
0000
0000
0000
1000
0000
0010
0000
,
0001
2000
0000
0000
0100
0010
0001
3010
,
0210
0001
0010
0001
0001
0010
0001
0010
,
0300
0101
0110
1001
1100
0101
1000
0000
,
0000
0000
0000
0000
1000
0000
0000
0000
0001
0000
0000
0000
0100
0000
0000
0000
1000
0100
1000
0000
0000
0000
0000
0000
1010
0000
0000
0000
0000
0000
0000
0000
,
0000
0110
1100
0101
1010
0110
0001
0000
,
0000
0000
0000
0000
1000
0000
0000
0000
0001
0000
0000
0000
0100
0000
0000
0000
0010
0001
0010
0000
0000
0000
0000
0000
1100
0000
0000
0000
0000
0000
0000
0000
,
0000
0101
1100
0110
1001
1010
0010
0000
,
0000
0000
0000
0000
0100
0000
0000
0000
0001
0000
0000
0000
1000
0000
0000
0000
0100
0010
0100
0000
0000
0000
0000
0000
0011
0000
0000
0000
0000
0000
0000
0000
,
0000
1100
1001
0011
1010
0101
1000
0000
,
0000
0000
0000
0000
0010
0000
0000
0000
1000
0000
0000
0000
0001
0000
0000
0000
1000
0100
1000
0000
0000
0000
0000
0000
0110
0000
0000
0000
0000
0000
0000
0000
,
1000
0011
0110
0110
0001
1100
0110
0110
,
0001
1010
0101
0101
1000
0101
1010
1010
,
0100
0010
0100
0000
0000
0000
0010
0100
0010
0000
0000
0000
1000
0100
2000
0000
,
0000
0000
0000
3001
0010
0100
1000
0100
,
0002
0000
0000
0000
0000
0000
0020
0000
0000
0033
1000
0100
1000
0100
1000
0100
,
0002
0000
0000
0020
0000
0000
0000
0033
,
0100
1000
0100
0000
0000
0000
0010
0001
0010
0000
0000
0000
0100
0010
0200
0000
,
0000
0000
0000
0301
1000
0010
0100
0001
,
2100
0000
0010
0000
0001
0000
0010
3000
0201
0000
0010
0000
0001
0000
0010
0300
,
1002
0100
0010
0100
1000
0100
0010
0103
;
