#TITLE:The Terminal;
#SUBTITLE:;
#ARTIST:Pendulum;
#TITLETRANSLIT:;
#SUBTITLETRANSLIT:;
#ARTISTTRANSLIT:;
#CREDIT:;
#BANNER:theterminalbn.png;
#BACKGROUND:theterminalbg.png;
#LYRICSPATH:;
#CDTITLE:;
#MUSIC:theterminal.ogg;
#OFFSET:1.395;
#SAMPLESTART:126.900;
#SAMPLELENGTH:22.070;
#SELECTABLE:YES;
#DISPLAYBPM:174.000;
#BPMS:0.000=174.000,248.000=217.000,250.000=271.000,252.000=340.000,254.000=424.000,256.000=530.000,258.000=662.000,260.000=784.000,283.000=174.000;
#STOPS:;
#BGCHANGES:;
// cache tags:
#FIRSTBEAT:4.000;
#LASTBEAT:1007.000;
#SONGFILENAME:Songs/Pendulum/The Terminal/theterminal.sm;
#HASMUSIC:1;
#HASBANNER:1;
#MUSICLENGTH:338.000;
// end cache tags

//---------------dance-single - I. Pyles----------------
#NOTES:
     dance-single:
     I. Pyles:
     Beginner:
     1:
     0.025,0.036,0.000,0.000,0.000,59.000,0.000,0.000,0.000,0.000:
0000
0000
0000
0000
,
0010
0000
0000
0000
,
0000
0000
0000
0000
,
0000
0000
0000
0000
,
0000
0000
0000
0000
,
0010
0000
0000
0000
,
0000
0000
0000
0000
,
0000
0000
0000
0000
,
0000
0000
0000
0000
,
0100
0000
0000
0000
,
0000
0000
0000
0000
,
0000
0000
0000
0000
,
0000
0000
0000
0000
,
0010
0000
0000
0000
,
0000
0000
0000
0000
,
0000
0000
0000
0000
,
0000
0000
0000
0000
,
1000
0000
0000
0000
,
0000
0000
0000
0000
,
0000
0000
0000
0000
,
0000
0000
0000
0000
,
0001
0000
0000
0000
,
0000
0000
0000
0000
,
0000
0000
0000
0000
,
0000
0000
0000
0000
,
0100
0000
0000
0000
,
0000
0000
0000
0000
,
0000
0000
0000
0000
,
0000
0000
0000
0000
,
1000
0000
0000
0000
,
0000
0000
0000
0000
,
0000
0000
0000
0000
,
0000
0000
0000
0000
,
0001
0000
0000
0000
,
0000
0000
0000
0000
,
0000
0000
0000
0000
,
0000
0000
0000
0000
,
0100
0000
0000
0000
,
0000
0000
0000
0000
,
0000
0000
0000
0000
,
0000
0000
0000
0000
,
0100
0000
0000
0000
,
0000
0000
0000
0000
,
0000
0000
0000
0000
,
0000
0000
0000
0000
,
0100
0000
0000
0000
,
0000
0000
0000
0000
,
0000
0000
0000
0000
,
0000
0000
0000
0000
,
0010
0000
0000
0000
,
0000
0000
0000
0000
,
0000
0000
0000
0000
,
0000
0000
0000
0000
,
0010
0000
0000
0000
,
0000
0000
0000
0000
,
0000
0000
0000
0000
,
0000
0000
0000
0000
,
0010
0000
0000
0000
,
0000
0000
0000
0000
,
0000
0000
0000
0000
,
0000
0000
0000
0000
,
0000
0000
0000
0000
,
0000
0000
0000
0000
,
0000
0000
0000
0000
,
0000
0000
0000
0000
,
0000
0000
0000
0000
,
0000
0000
0000
0000
,
0000
0000
0000
0000
,
0000
0000
0000
0000
,
0000
0000
0000
0000
,
0000
0000
0000
0000
,
0010
0000
0000
0000
,
0000
0000
0000
0000
,
0000
0000
0000
0000
,
0000
0000
0000
0000
,
1000
0000
0000
0000
,
0000
0000
0000
0000
,
0000
0000
0000
0000
,
0000
0000
0000
0000
,
0010
0000
0000
0000
,
0000
0000
0000
0000
,
0000
0000
0000
0000
,
0000
0000
0000
0000
,
0100
0000
0000
0000
,
0000
0000
0000
0000
,
0000
0000
0000
0000
,
0000
0000
0000
0000
,
1000
0000
0000
0000
,
0000
0000
0000
0000
,
0000
0000
0000
0000
,
0000
0000
0000
0000
,
0010
0000
0000
0000
,
0000
0000
0000
0000
,
0000
0000
0000
0000
,
0000
0000
0000
0000
,
0010
0000
0000
0000
,
0000
0000
0000
0000
,
0000
0000
0000
0000
,
0000
0000
0000
0000
,
1000
0000
0000
0000
,
0000
0000
0000
0000
,
0000
0000
0000
0000
,
0000
0000
0000
0000
,
1000
0000
0000
0000
,
0000
0000
0000
0000
,
0000
0000
0000
0000
,
0000
0000
0000
0000
,
0100
0000
0000
0000
,
0000
0000
0000
0000
,
0000
0000
0000
0000
,
0000
0000
0000
0000
,
0100
0000
0000
0000
,
0000
0000
0000
0000
,
0000
0000
0000
0000
,
0000
0000
0000
0000
,
1000
0000
0000
0000
,
0000
0000
0000
0000
,
0000
0000
0000
0000
,
0000
0000
0000
0000
,
0010
0000
0000
0000
,
0000
0000
0000
0000
,
0000
0000
0000
0000
,
0000
0000
0000
0000
,
0100
0000
0000
0000
,
0000
0000
0000
0000
,
0000
0000
0000
0000
,
0000
0000
0000
0000
,
0100
0000
0000
0000
,
0000
0000
0000
0000
,
0000
0000
0000
0000
,
0000
0000
0000
0000
,
0100
0000
0000
0000
,
0000
0000
0000
0000
,
0000
0000
0000
0000
,
0000
0000
0000
0000
,
0100
0000
0000
0000
,
0000
0000
0000
0000
,
0000
0000
0000
0000
,
0000
0000
0000
0000
,
0100
0000
0000
0000
,
0000
0000
0000
0000
,
0000
0000
0000
0000
,
0000
0000
0000
0000
,
0010
0000
0000
0000
,
0000
0000
0000
0000
,
0000
0000
0000
0000
,
0000
0000
0000
0000
,
1000
0000
0000
0000
,
0000
0000
0000
0000
,
0000
0000
0000
0000
,
0000
0000
0000
0000
,
1000
0000
0000
0000
,
0000
0000
0000
0000
,
0000
0000
0000
0000
,
0000
0000
0000
0000
,
0010
0000
0000
0000
,
0000
0000
0000
0000
,
0000
0000
0000
0000
,
0000
0000
0000
0000
,
1000
0000
0000
0000
,
0000
0000
0000
0000
,
0000
0000
0000
0000
,
0000
0000
0000
0000
,
1000
0000
0000
0000
,
0000
0000
0000
0000
,
0000
0000
0000
0000
,
0000
0000
0000
0000
,
1000
0000
0000
0000
,
0000
0000
0000
0000
,
0000
0000
0000
0000
,
0000
0000
0000
0000
,
1000
0000
0000
0000
,
0000
0000
0000
0000
,
0000
0000
0000
0000
,
0000
0000
0000
0000
,
0100
0000
0000
0000
,
0000
0000
0000
0000
,
0000
0000
0000
0000
,
0000
0000
0000
0000
,
1000
0000
0000
0000
,
0000
0000
0000
0000
,
0000
0000
0000
0000
,
0000
0000
0000
0000
,
0010
0000
0000
0000
,
0000
0000
0000
0000
,
0000
0000
0000
0000
,
0000
0000
0000
0000
,
0010
0000
0000
0000
,
0000
0000
0000
0000
,
0000
0000
0000
0000
,
0000
0000
0000
0000
,
1000
0000
0000
0000
,
0000
0000
0000
0000
,
0000
0000
0000
0000
,
0000
0000
0000
0000
,
1000
0000
0000
0000
,
0000
0000
0000
0000
,
0000
0000
0000
0000
,
0000
0000
0000
0000
,
0100
0000
0000
0000
,
0000
0000
0000
0000
,
0000
0000
0000
0000
,
0000
0000
0000
0000
,
0010
0000
0000
0000
,
0000
0000
0000
0000
,
0000
0000
0000
0000
,
0000
0000
0000
0000
,
0001
0000
0000
0000
,
0000
0000
0000
0000
,
0000
0000
0000
0000
,
0000
0000
0000
0000
,
1000
0000
0000
0000
,
0000
0000
0000
0000
,
0000
0000
0000
0000
,
0000
0000
0000
0000
,
0100
0000
0000
0000
,
0000
0000
0000
0000
,
0000
0000
0000
0000
,
0000
0000
0000
0000
,
0100
0000
0000
0000
,
0000
0000
0000
0000
,
0000
0000
0000
0000
,
0000
0000
0000
0000
,
1000
0000
0000
0000
,
0000
0000
0000
0000
,
0000
0000
0000
0000
,
0000
0000
0000
0000
,
1000
0000
0000
0000
,
0000
0000
0000
0000
,
0000
0000
0000
0000
,
0000
0000
0000
0000
,
1000
0000
0000
0000
,
0000
0000
0000
0000
,
0000
0000
0000
0000
,
0000
0000
0000
0000
,
0001
0000
0000
0000
,
0000
0000
0000
0000
,
0000
0000
0000
0000
,
0000
0000
0000
0000
,
1000
0000
0000
0000
,
0000
0000
0000
0000
,
0000
0000
0000
0000
,
0000
0000
0000
0000
,
1000
0000
0000
0000
;

//---------------dance-single - I. Pyles----------------
#NOTES:
     dance-single:
     I. Pyles:
     Easy:
     10:
     0.634,0.968,0.154,0.464,0.259,1292.000,52.000,157.000,136.000,0.000:
0000
0000
0000
0000
,
MMMM
M0MM
00MM
00MM
000M
000M
000M
000M
,
000M
0000
MM00
0000
,
00MM
0000
MM00
0000
,
00MM
0000
0000
0000
0000
0000
0000
0000
0000
0000
0000
0000
0000
0000
0000
0000
MM00
0000
0000
0000
0000
0000
0000
0000
0000
0000
0000
0000
0000
0000
M000
0M00
,
00M0
0000
MM00
0000
,
00MM
0000
MM00
0000
,
00MM
0000
MM00
0000
,
00MM
0000
MM00
0000
,
0001
0010
0100
0010
0001
0200
0300
0000
,
M000
0M00
00M0
0000
000M
00M0
0M00
0000
,
M000
0000
0M00
0000
20M0
0000
0000
0000
0M00
0000
00M0
0000
000M
3000
0000
0000
,
000M
0000
00M0
0000
0M02
0000
0000
0000
00M0
0000
0M00
0000
M000
0003
0000
0000
,
1000
0000
0001
0100
0010
0000
0100
0001
,
0010
0000
0000
0000
0100
0000
0020
0000
0000
0030
0001
0000
0000
0000
1000
0000
,
0010
0000
0010
0000
0100
0001
0010
0100
,
1000
0000
0000
0000
0001
0000
0200
0000
0000
0300
0100
0000
0000
0000
0000
0000
,
0001
0400
0000
0310
4000
0000
3001
0010
,
0000
0100
1000
1000
0001
0010
0100
0000
,
0010
0000
0000
0000
0001
0000
1000
0010
1000
0000
0001
0000
0100
0000
0000
0000
,
0010
0010
1000
0001
0010
0001
1000
0000
,
0004
0000
0013
0400
0000
1300
0001
0000
,
0000
0000
1000
0000
0100
0000
0010
0001
0010
0000
0100
0000
1000
0001
0000
0000
,
1000
1000
0010
0100
0010
1000
0001
0000
,
0000
0000
1000
0000
0100
0000
0010
0001
0010
0000
0100
0000
1000
0001
0000
0000
,
1000
0040
0000
0130
0004
0000
1003
0100
,
0000
0010
0001
0001
1000
0100
0010
0000
,
0100
0000
0000
0000
1000
0000
0001
0100
0001
0000
1000
0000
0010
0000
0000
0000
,
0100
0100
0001
1000
0100
1000
0001
0000
,
4000
0000
3100
0040
0000
0031
1000
0000
,
0000
0000
0001
0000
0010
0000
0100
1000
0100
0000
0010
0000
0001
1000
0000
0000
,
0001
0001
0100
0010
0100
0001
1000
0000
,
0000
0000
0001
0000
0010
0000
0100
1000
0100
0000
0010
0000
0001
1000
0000
0000
,
1002
0000
0020
0000
0030
2003
0000
0000
,
0000
0000
0020
0000
0030
0002
0000
3003
,
1000
1000
0010
0100
0010
1000
0001
0000
,
0010
0010
0001
0010
0100
0010
0001
0000
,
2001
0000
0200
0000
0300
3002
0000
0000
,
0000
0000
0200
0000
0300
2000
0000
3000
,
0000
0003
0002
0100
0103
0020
1000
1030
,
0002
0010
0023
0000
0230
1000
2300
0000
,
3002
0000
0020
0000
0030
2003
0000
0000
,
0000
0000
0020
0000
0030
0002
0000
3003
,
1000
1000
0010
0100
0010
1000
0001
0000
,
0010
0010
0001
0010
0100
0010
0001
0000
,
2001
0000
0200
0000
0300
3002
0000
0000
,
0000
0000
0200
0000
0300
2000
0000
3003
,
0000
0000
0000
MMMM
0000
0000
0000
0000
2000
0000
0000
0000
0001
0000
0000
0000
3001
0000
0000
0000
0020
0000
0000
0000
0100
0000
0000
0000
0130
0000
0000
0000
,
2000
0010
0010
3000
0200
0001
0001
0300
,
2000
0000
0200
0000
0300
3002
0000
0000
,
0000
0000
0200
0000
0300
2000
0000
3003
,
1000
1000
0010
0100
0010
1000
0001
0000
,
0010
0010
0001
0010
0100
0010
0001
0000
,
2000
0000
0200
0000
0300
3002
0000
0000
,
0000
0000
0200
0000
0300
2000
0000
3000
,
0000
0003
0002
0100
0103
0020
1000
1030
,
0002
0010
0013
0200
1000
1300
0001
0100
,
0020
0000
0000
0000
0000
0000
0000
0000
0000
0000
0000
0000
0000
0000
0000
0000
0000
0000
0000
0000
0000
0000
0000
0000
0030
0000
0000
0000
0000
0000
000M
00M0
,
0M00
0000
MM00
0000
,
00MM
0000
MM00
0000
,
00MM
0000
MM00
0000
,
00MM
0000
MM00
0000
,
00MM
0000
0000
0000
0000
0000
0000
0000
0000
0000
0000
0000
0000
0000
0000
0000
0000
0000
0000
0000
0000
MM00
0000
0000
0000
0000
0000
0000
0000
0000
0000
0000
,
0000
0000
0000
0000
0000
0000
0000
0000
0000
00MM
0000
0000
0000
0000
0000
0000
,
0000
0000
0000
0000
,
0000
0000
0000
MM00
0000
0000
0000
0000
0000
0000
0000
0000
0000
0000
0000
0000
0000
0000
0000
0000
0000
0000
0000
0000
0000
0000
0000
0000
0000
0000
0000
0000
,
0000
0000
0000
0000
,
0000
0000
0000
00MM
0000
0000
0000
0000
,
0000
0000
0000
0000
,
0000
0000
0000
0000
0000
MM00
0000
0000
,
0000
0000
0000
0000
,
1001
0000
0101
0000
,
1001
0000
1100
0000
,
1001
0000
0101
0000
,
1001
0000
1100
0000
,
1001
0000
0010
0000
2002
3003
0010
0000
,
1001
0000
0100
0000
2002
3003
0100
0000
,
1001
0000
0010
0000
2002
3003
0010
0000
,
1001
1001
1001
0000
,
1001
0000
1010
0000
,
1001
0000
0011
0000
,
1001
0000
1010
0000
,
1001
0000
0011
0000
,
1000
0100
0010
0002
2003
3002
2003
3010
,
0100
0010
0100
0002
2003
3002
2003
3002
,
0013
0100
0010
0002
2003
3002
2003
3010
,
0100
0010
0100
0002
0023
0230
2300
3000
,
0000
0000
0000
0000
,
1000
1000
1000
1000
,
1000
1000
1000
1000
,
1000
1000
1000
1000
,
0001
0010
0100
2000
3002
2003
3002
0103
,
0010
0100
0010
2000
3002
2003
3002
2003
,
3100
0010
0100
2000
3002
2003
3002
0103
,
0010
0100
0010
2000
3200
0320
0032
0003
,
1000
0100
1000
0100
1000
0100
1000
0100
,
0010
0100
0010
0100
0010
0100
0010
0100
,
1000
0001
1000
0100
1000
0001
1000
0010
,
0100
0001
0100
0001
0100
0000
0010
0000
1000
0001
1000
0001
0100
0000
0100
0000
,
1001
0001
0200
0000
0310
1000
0002
0000
,
0013
0000
0100
0000
0100
0000
0010
0001
1000
0000
0020
0000
0100
0000
0030
0000
,
0001
1000
0200
0000
0310
0001
2000
0000
,
3100
0000
0010
0000
0010
0000
0100
1000
0001
0000
0200
0000
0010
0000
0300
0000
,
0001
0000
0000
0000
0000
0000
0100
0000
0000
0000
0000
0010
1000
0000
0000
0000
0000
0010
0100
0000
0000
0000
0000
0000
,
0001
0000
0000
0000
0000
0000
1000
0000
0000
0000
0000
0001
0010
0000
0000
0000
0000
0100
0010
0000
0000
0000
0000
0000
,
0100
0000
0000
0000
0000
0000
1000
0000
0000
0000
0000
0001
0100
0000
0000
0000
0000
0010
0100
0000
0000
0000
0000
0000
,
0010
0000
0000
0000
0000
0000
1000
0000
0000
0000
0000
0001
1000
0000
0000
0000
0000
1000
0010
0000
0000
0000
0000
0000
,
1001
1000
0020
0000
0130
0001
2000
0000
,
3100
0000
0010
0000
0010
0000
0100
1000
0001
0000
0200
0000
0010
0000
0300
0000
,
1000
0001
0020
0000
0130
1000
0002
0000
,
0013
0000
0100
0000
0100
0000
0010
0001
1000
0000
0020
0000
0100
0000
0030
0000
,
0001
0000
0000
0000
0000
0000
0010
0000
0000
0000
0000
0100
1000
0000
0000
0000
0000
0100
0010
0000
0000
0000
0000
0000
,
0001
0000
0000
0000
0000
0000
1000
0000
0000
0000
0000
0001
0100
0000
0000
0000
0000
0010
0100
0000
0000
0000
0000
0000
,
0010
0000
0000
0000
0000
0000
1000
0000
0000
0000
0000
0001
0010
0000
0000
0000
0000
0100
0010
0000
0000
0000
0000
0000
,
0100
0000
0000
0000
1000
0000
0000
0001
1000
0001
1000
0001
1000
0000
0001
0000
,
1001
0000
0001
0100
0010
0000
0100
0010
,
1000
0000
1000
0001
0000
0001
0000
0010
,
0100
0000
0100
0000
1000
0001
0100
0001
,
1000
0000
0010
0100
0000
0100
0000
0000
,
0010
0000
0000
0000
0000
0000
0100
0000
0000
0000
0000
0010
1000
0000
0000
0000
0000
0010
0100
0000
0000
0000
0000
0000
,
0001
0000
0000
0000
0000
0000
1000
0000
0000
0000
0000
0001
0010
0000
0000
0000
0000
0100
0010
0000
0000
0000
0000
0000
,
0100
0000
0000
0000
0000
0000
1000
0000
0000
0000
0000
0001
0100
0000
0000
0000
0000
0010
0100
0000
0000
0000
0000
0000
,
0010
0000
0000
0000
0000
0000
1000
0000
0000
0000
0000
0001
1000
0000
0000
0000
0000
1000
0010
0000
0000
0000
0000
0000
,
1001
0000
1000
0010
0100
0000
0010
0100
,
0001
0000
0001
1000
0000
1000
0000
0100
,
0010
0000
0010
0000
0001
1000
0010
1000
,
0001
0000
0100
0010
0000
0010
0000
0000
,
0001
1000
0100
1000
0010
0100
0010
0100
,
0001
1000
0010
1000
0010
0100
0010
1000
,
0001
0100
0001
1000
0001
0010
0001
1000
,
0001
0100
0001
0100
0001
0000
1000
0000
0010
0100
0010
0100
0010
0000
1000
0000
,
1001
1000
0020
0000
0130
0001
2000
0000
,
3100
0000
0010
0000
0010
0000
0100
1000
0001
0000
0200
0000
0010
0000
0300
0000
,
1000
0001
0020
0000
0130
1000
0002
0000
,
0013
0000
0100
0000
0100
0000
0010
0001
1000
0000
0020
0000
0100
0000
0030
0000
,
1000
0000
0000
0000
0000
0000
0010
0000
0000
0000
0000
0100
0001
0000
0000
0000
0000
0100
0010
0000
0000
0000
0000
0000
,
1000
0000
0000
0000
0000
0000
0001
0000
0000
0000
0000
1000
0100
0000
0000
0000
0000
0010
0100
0000
0000
0000
0000
0000
,
0010
0000
0000
0000
0000
0000
0001
0000
0000
0000
0000
1000
0010
0000
0000
0000
0000
0100
0010
0000
0000
0000
0000
0000
,
0100
0000
0000
0000
0000
0000
0001
0000
0000
0000
0000
1000
0001
0000
0000
0000
0000
0001
0100
0000
0000
0000
0000
0000
,
1001
0001
0200
0000
0310
1000
0002
0000
,
0013
0000
0100
0000
0100
0000
0010
0001
1000
0000
0020
0000
0100
0000
0030
0000
,
0001
1000
0200
0000
0310
0001
2000
0000
,
3100
0000
0010
0000
0010
0000
0100
1000
0001
0000
0200
0000
0010
0000
0300
0000
,
1000
0000
0000
0000
0000
0000
0100
0000
0000
0000
0000
0010
0001
0000
0000
0000
0000
0010
0100
0000
0000
0000
0000
0000
,
1000
0000
0000
0000
0000
0000
0001
0000
0000
0000
0000
1000
0010
0000
0000
0000
0000
0100
0010
0000
0000
0000
0000
0000
,
0100
0000
0000
0000
0000
0000
0001
0000
0000
0000
0000
1000
0100
0000
0000
0000
0000
0010
0100
0000
0000
0000
0000
0000
,
0010
0000
0000
0000
0001
0000
0000
1000
0001
1000
0001
1000
0001
0000
1000
0000
,
1001
0000
1000
0010
0100
0000
0010
0100
,
0001
0000
0001
1000
0000
1000
0000
0100
,
0010
0000
0010
0000
0001
1000
0010
1000
,
0001
0000
0100
0010
0000
0010
0000
0000
,
0100
0000
0000
0000
0000
0000
0010
0000
0000
0000
0000
0100
0001
0000
0000
0000
0000
0100
0010
0000
0000
0000
0000
0000
,
1000
0000
0000
0000
0000
0000
0001
0000
0000
0000
0000
1000
0100
0000
0000
0000
0000
0010
0100
0000
0000
0000
0000
0000
,
0010
0000
0000
0000
0000
0000
0001
0000
0000
0000
0000
1000
0010
0000
0000
0000
0000
0100
0010
0000
0000
0000
0000
0000
,
0100
0000
0000
0000
0000
0000
0001
0000
0000
0000
0000
1000
0001
0000
0000
0000
0000
0001
0100
0000
0000
0000
0000
0000
,
1001
0000
0001
0100
0010
0000
0100
0010
,
1000
0000
1000
0001
0000
0001
0000
0010
,
0100
0000
0100
0000
1000
0001
0100
0001
,
1000
0000
0010
0100
0000
0100
0000
0000
,
1000
0001
0010
0001
0100
0010
0100
0010
,
1000
0001
0100
0001
0100
0010
0100
0001
,
1000
0010
1000
0001
1000
0100
1000
0001
,
0010
0001
0010
0001
0010
0000
0100
0000
1000
0001
1000
0001
0010
0000
0010
0000
,
0200
0000
0000
0000
,
0000
0000
0000
0000
,
0000
0000
0000
0000
,
0000
0000
0000
0300
,
M000
0M00
00M0
0000
0000
0000
0000
0000
0000
0000
0000
0000
0000
0000
0000
0000
0000
0000
0000
0000
0000
0000
0000
0000
0000
0000
0000
0000
0000
0000
0000
0000
,
0001
0000
0001
0000
,
0001
0000
0001
0000
,
0001
0000
0001
0000
,
1000
0100
0010
0002
2003
3002
2003
3010
,
0100
0010
0100
0002
2003
3002
2003
3002
,
0013
0100
0010
0002
2003
3002
2003
3010
,
0100
0010
0100
0002
0023
0230
2300
3000
,
0001
0010
0001
0010
0001
0010
0001
0010
,
0100
0010
0100
0010
0100
0010
0100
0010
,
0001
1000
0001
0010
0001
1000
0001
0100
,
0010
1000
0010
1000
0010
0000
0100
0000
0001
1000
0001
1000
0010
0000
0010
0000
,
1001
1000
0020
0000
0130
0001
2000
0000
,
3100
0000
0010
0000
0010
0000
0100
1000
0001
0000
0200
0000
0010
0000
0300
0000
,
1000
0001
0020
0000
0130
1000
0002
0000
,
0013
0000
0100
0000
0100
0000
0010
0001
1000
0000
0020
0000
0100
0000
0030
0000
,
1000
0000
0000
0000
0000
0000
0010
0000
0000
0000
0000
0100
0001
0000
0000
0000
0000
0100
0010
0000
0000
0000
0000
0000
,
1000
0000
0000
0000
0000
0000
0001
0000
0000
0000
0000
1000
0100
0000
0000
0000
0000
0010
0100
0000
0000
0000
0000
0000
,
0010
0000
0000
0000
0000
0000
0001
0000
0000
0000
0000
1000
0010
0000
0000
0000
0000
0100
0010
0000
0000
0000
0000
0000
,
0100
0000
0000
0000
0000
0000
0001
0000
0000
0000
0000
1000
0001
0000
0000
0000
0000
0001
0100
0000
0000
0000
0000
0000
,
1001
0001
0200
0000
0310
1000
0002
0000
,
0013
0000
0100
0000
0100
0000
0010
0001
1000
0000
0020
0000
0100
0000
0030
0000
,
0001
1000
0200
0000
0310
0001
2000
0000
,
3100
0000
0010
0000
0010
0000
0100
1000
0001
0000
0200
0000
0010
0000
0300
0000
,
1000
0000
0000
0000
0000
0000
0100
0000
0000
0000
0000
0010
0001
0000
0000
0000
0000
0010
0100
0000
0000
0000
0000
0000
,
1000
0000
0000
0000
0000
0000
0001
0000
0000
0000
0000
1000
0010
0000
0000
0000
0000
0100
0010
0000
0000
0000
0000
0000
,
0100
0000
0000
0000
0000
0000
0001
0000
0000
0000
0000
1000
0100
0000
0000
0000
0000
0010
0100
0000
0000
0000
0000
0000
,
0010
0000
0000
0000
0001
0000
0000
1000
0001
1000
0001
1000
0001
0000
1000
0000
,
1001
0000
1000
0010
0100
0000
0010
0100
,
0001
0000
0001
1000
0000
1000
0000
0100
,
0010
0000
0010
0000
0001
1000
0010
1000
,
0001
0000
0100
0010
0000
0010
0000
0000
,
0100
0000
0000
0000
0000
0000
0010
0000
0000
0000
0000
0100
0001
0000
0000
0000
0000
0100
0010
0000
0000
0000
0000
0000
,
1000
0000
0000
0000
0000
0000
0001
0000
0000
0000
0000
1000
0100
0000
0000
0000
0000
0010
0100
0000
0000
0000
0000
0000
,
0010
0000
0000
0000
0000
0000
0001
0000
0000
0000
0000
1000
0010
0000
0000
0000
0000
0100
0010
0000
0000
0000
0000
0000
,
0100
0000
0000
0000
0000
0000
0001
0000
0000
0000
0000
1000
0001
0000
0000
0000
0000
0001
0100
0000
0000
0000
0000
0000
,
1001
0000
0001
0100
0010
0000
0100
0010
,
1000
0000
1000
0001
0000
0001
0000
0010
,
0100
0000
0100
0000
1000
0001
0100
0001
,
1000
0000
0010
0100
0000
0100
0000
0000
,
1000
0001
0010
0001
0100
0010
0100
0010
,
1000
0001
0100
0001
0100
0010
0100
0001
,
1000
0010
1000
0001
1000
0100
1000
0001
,
1000
0010
1000
0010
1000
0000
0001
0000
0100
0010
0100
0010
0100
0000
0001
0000
,
1001
0001
0200
0000
0310
1000
0002
0000
,
0013
0000
0100
0000
0100
0000
0010
0001
1000
0000
0020
0000
0100
0000
0030
0000
,
0001
1000
0200
0000
0310
0001
2000
0000
,
3100
0000
0010
0000
0010
0000
0100
1000
0001
0000
0200
0000
0010
0000
0300
0000
,
0001
0000
0000
0000
0000
0000
0100
0000
0000
0000
0000
0010
1000
0000
0000
0000
0000
0010
0100
0000
0000
0000
0000
0000
,
0001
0000
0000
0000
0000
0000
1000
0000
0000
0000
0000
0001
0010
0000
0000
0000
0000
0100
0010
0000
0000
0000
0000
0000
,
0100
0000
0000
0000
0000
0000
1000
0000
0000
0000
0000
0001
0100
0000
0000
0000
0000
0010
0100
0000
0000
0000
0000
0000
,
0010
0000
0000
0000
0000
0000
1000
0000
0000
0000
0000
0001
1000
0000
0000
0000
0000
1000
0010
0000
0000
0000
0000
0000
,
1001
1000
0020
0000
0130
0001
2000
0000
,
3100
0000
0010
0000
0010
0000
0100
1000
0001
0000
0200
0000
0010
0000
0300
0000
,
1000
0001
0020
0000
0130
1000
0002
0000
,
0013
0000
0100
0000
0100
0000
0010
0001
1000
0000
0020
0000
0100
0000
0030
0000
,
0001
0000
0000
0000
0000
0000
0010
0000
0000
0000
0000
0100
1000
0000
0000
0000
0000
0100
0010
0000
0000
0000
0000
0000
,
0001
0000
0000
0000
0000
0000
1000
0000
0000
0000
0000
0001
0100
0000
0000
0000
0000
0010
0100
0000
0000
0000
0000
0000
,
0010
0000
0000
0000
0000
0000
1000
0000
0000
0000
0000
0001
0010
0000
0000
0000
0000
0100
0010
0000
0000
0000
0000
0000
,
0100
0000
0000
0000
1000
0000
0000
0001
1000
0001
1000
0001
1000
0000
0001
0000
,
1001
0000
0001
0100
0010
0000
0100
0010
,
1000
0000
1000
0001
0000
0001
0000
0010
,
0100
0000
0100
0000
1000
0001
0100
0001
,
1000
0000
0010
0100
0000
0100
0000
0000
,
0010
0000
0000
0000
0000
0000
0100
0000
0000
0000
0000
0010
1000
0000
0000
0000
0000
0010
0100
0000
0000
0000
0000
0000
,
0001
0000
0000
0000
0000
0000
1000
0000
0000
0000
0000
0001
0010
0000
0000
0000
0000
0100
0010
0000
0000
0000
0000
0000
,
0100
0000
0000
0000
0000
0000
1000
0000
0000
0000
0000
0001
0100
0000
0000
0000
0000
0010
0100
0000
0000
0000
0000
0000
,
0010
0000
0000
0000
0000
0000
1000
0000
0000
0000
0000
0001
1000
0000
0000
0000
0000
1000
0010
0000
0000
0000
0000
0000
,
1001
0000
1000
0010
0100
0000
0010
0100
,
0001
0000
0001
1000
0000
1000
0000
0100
,
0010
0000
0010
0000
0001
1000
0010
1000
,
0001
0000
0100
0010
0000
0010
0000
0000
,
0001
1000
0100
1000
0010
0100
0010
0100
,
0001
1000
0010
1000
0010
0100
0010
1000
,
0001
0100
0001
1000
0001
0010
0001
1000
,
0100
1000
0100
1000
0100
0000
0010
0000
0001
1000
0001
1000
0100
0000
0100
0000
,
0020
000M
M000
000M
M000
000M
M000
000M
,
M000
0000
0000
0000
000M
0000
0000
0000
M000
0000
0000
0000
0000
0000
000M
0000
0000
0000
M000
0000
0000
0000
0000
000M
0000
0000
0000
0000
0000
M000
0000
0000
,
0000
0000
000M
0000
0000
0000
0000
M000
0000
0000
0000
0000
000M
0000
0000
0000
0000
0000
M000
0000
0000
0000
0000
0000
000M
0000
0000
0000
0000
0000
0000
0000
,
0000
M000
0000
0000
0000
0000
0000
0000
0000
000M
0000
0000
0000
0000
0000
0000
M000
0000
0000
0000
0000
0000
0000
0000
000M
0000
0000
0000
0000
0000
0000
0000
,
M000
000M
M000
000M
,
0000
M000
0000
0000
0000
000M
0000
0000
0000
0000
M000
0000
0000
0000
0000
0000
,
000M
0000
0000
0000
0000
M000
0000
0000
0000
0000
000M
0000
0000
0000
0000
0000
,
M000
0000
0000
0000
0000
0000
000M
0000
0000
0000
0000
M000
0000
0000
0000
000M
,
0000
0000
0000
0000
M000
0000
0000
0000
0000
000M
0000
0000
0030
0000
0000
0000
;

//---------------dance-single - I. Pyles----------------
#NOTES:
     dance-single:
     I. Pyles:
     Medium:
     12:
     0.861,1.000,0.393,0.308,0.670,1797.000,133.000,104.000,170.000,3.000:
0000
0000
0000
0000
,
MMMM
M0MM
00MM
00MM
000M
000M
000M
000M
,
000M
0000
MM00
0000
,
00MM
0000
MM00
0000
,
00MM
0000
0000
0000
0000
0000
0000
0000
0000
0000
0000
0000
0000
0000
0000
0000
MM00
0000
0000
0000
0000
0000
0000
0000
0000
0000
0000
0000
0000
0000
M000
0M00
,
00M0
0000
MM00
0000
,
00MM
0000
MM00
0000
,
00MM
0000
MM00
0000
,
00MM
0000
MM00
0000
,
0001
0010
0100
0100
0001
0200
0300
0000
,
M000
0M00
00M0
0000
000M
00M0
0M00
0000
,
M000
0000
0M00
0000
20M0
0000
0000
0000
0M00
0000
00M0
0000
000M
3000
0000
0000
,
000M
0000
00M0
0000
0M02
0000
0000
0000
00M0
0000
0M00
0000
M000
0003
0000
0000
,
1000
0000
0001
0100
0010
0000
0100
0001
,
0010
0000
0000
0000
0100
0000
0020
0000
0000
0030
0010
0000
0000
0000
1000
0000
,
0010
0000
0010
0000
0100
0001
0010
0100
,
1000
0000
0000
0000
0001
0000
0200
0000
0000
0300
0100
0000
0000
0000
0000
0000
,
0001
1000
0100
1000
0100
1000
0010
0100
0001
0010
0001
0010
0100
1000
0010
0100
,
0010
0000
0010
0000
0100
0000
0010
1000
0010
1000
0010
0000
0100
0000
0000
0000
,
0010
0000
1000
0000
0000
0000
0010
1000
0010
1000
0010
0000
0100
0000
0000
0000
,
0010
0000
0010
0000
0100
0001
0100
0001
1000
0000
0001
0000
0010
0000
0000
0000
,
0100
1000
0010
0100
0010
0100
0001
0010
0100
0010
0100
0010
0001
0100
0010
1000
,
0001
0000
0001
0000
1000
0000
0100
0010
0100
0010
0100
0000
1000
0000
0000
0000
,
0001
0000
1000
0000
0000
0000
0100
0010
0100
0010
0100
0000
1000
0000
0000
0000
,
0001
0000
0001
0000
0100
0010
0100
0010
1000
0000
0001
0000
1000
0000
0000
0000
,
0001
1000
0010
1000
0010
1000
0100
0010
0001
0100
0001
0100
0010
1000
0100
0010
,
0100
0000
0100
0000
0010
0000
0100
1000
0100
1000
0100
0000
0010
0000
0000
0000
,
0100
0000
1000
0000
0000
0000
0100
1000
0100
1000
0100
0000
0010
0000
0000
0000
,
0100
0000
0100
0000
0010
0001
0010
0001
1000
0000
0001
0000
0100
0000
0000
0000
,
0010
1000
0100
0010
0100
0010
0001
0100
0010
0100
0010
0100
0001
0010
0100
1000
,
0001
0000
0001
0000
1000
0000
0010
0100
0010
0100
0010
0000
1000
0000
0000
0000
,
0001
0000
1000
0000
0000
0000
0010
0100
0010
0100
0010
0000
1000
0000
0000
0000
,
0001
0000
0001
0000
0010
0100
0010
0100
1000
0000
0001
0000
1000
0000
0000
0000
,
0001
0100
0001
0100
0010
1000
0010
1000
0010
1000
0010
0100
0010
0100
0010
0100
,
0001
0010
0001
0010
0100
1000
0100
1000
0100
1000
0100
0010
0100
0010
0100
0010
,
0001
0000
0001
0000
0100
0000
0010
1000
0010
1000
0010
0000
0100
0000
0000
0000
,
0001
0000
0100
0000
0000
0000
0010
1000
0010
1000
0010
0000
0100
0000
0000
0000
,
0010
1000
0010
1000
0001
0100
0001
0100
0001
0100
0010
0100
0010
0100
0010
0100
,
0001
0010
0001
0010
0100
1000
0100
1000
0100
1000
0100
0010
0100
0010
0100
0010
,
0001
0100
0001
0100
0010
1000
0010
1000
0010
1000
0100
0010
0100
0010
0100
0010
,
0001
0100
0001
0100
0001
0100
0001
0100
0010
1000
0010
1000
0010
1000
0010
1000
,
0001
0010
0001
0010
0100
1000
0100
1000
0100
1000
0100
0010
0100
0010
0100
0010
,
0001
0100
0001
0100
0010
1000
0010
1000
0010
1000
0010
0100
0010
0100
0010
0100
,
0001
0000
0001
0000
0010
0000
0100
1000
0100
1000
0100
0000
0010
0000
0000
0000
,
0001
0000
0010
0000
0000
0000
0100
1000
0100
1000
0100
0000
0010
0000
0000
0000
,
0100
1000
0100
1000
0001
0010
0001
0010
0001
0010
0100
0010
0100
0010
0100
0010
,
0001
0100
0001
0100
0010
1000
0010
1000
0010
1000
0010
0100
0010
0100
0010
0100
,
0000
0000
0000
MMMM
0000
0000
0000
0000
2000
0000
0000
0000
0001
0000
0000
0000
3001
0000
0000
0000
0020
0000
0000
0000
0100
0000
0000
0000
0130
0000
0000
0000
,
2000
0010
0010
3000
0200
0001
0001
0300
,
1000
0010
1000
0010
0100
0001
0100
0001
0100
0001
0100
0010
0100
0010
0100
0010
,
1000
0100
1000
0100
0010
0001
0010
0001
0010
0001
0010
0100
0010
0100
0010
0100
,
1000
0000
1000
0000
0010
0000
0100
0001
0100
0001
0100
0000
0010
0000
0000
0000
,
1000
0000
0010
0000
0000
0000
0100
0001
0100
0001
0100
0000
0010
0000
0000
0000
,
0100
0001
0100
0001
1000
0010
1000
0010
1000
0010
0100
0010
0100
0010
0100
0010
,
1000
0100
1000
0100
0010
0001
0010
0001
0010
0001
0010
0100
0010
0100
0010
0100
,
1000
0010
1000
0010
0100
0001
0100
0001
0100
0001
0010
0100
0010
0100
0010
0100
,
1000
0010
1000
0010
1000
0010
1000
0010
0100
0001
0100
0001
0100
0001
0100
0001
,
0020
0000
0000
0000
0000
0000
0000
0000
0000
0000
0000
0000
0000
0000
0000
0000
0000
0000
0000
0000
0000
0000
0000
0000
0000
0000
0000
0000
0030
0000
000M
00M0
,
0M00
0000
MM00
0000
,
00MM
0000
MM00
0000
,
00MM
0000
MM00
0000
,
00MM
0000
MM00
0000
,
00MM
0000
0000
0000
0000
0000
0000
0000
0000
0000
0000
0000
0000
0000
0000
0000
0000
0000
0000
0000
0000
MM00
0000
0000
0000
0000
0000
0000
0000
0000
0000
0000
,
0000
0000
0000
0000
0000
0000
0000
0000
0000
00MM
0000
0000
0000
0000
0000
0000
,
0000
0000
0000
0000
,
0000
0000
0000
MM00
0000
0000
0000
0000
0000
0000
0000
0000
0000
0000
0000
0000
0000
0000
0000
0000
0000
0000
0000
0000
0000
0000
0000
0000
0000
0000
0000
0000
,
0000
0000
0000
0000
,
0000
0000
0000
00MM
0000
0000
0000
0000
,
0000
0000
0000
0000
,
0000
0000
0000
0000
0000
MM00
0000
0000
,
0000
0000
0000
0000
,
1001
0000
0101
0000
,
1001
0000
1100
0000
,
1001
0000
0101
0000
,
1001
0000
1100
0000
,
1001
0000
0010
0000
2022
3033
0010
0000
,
1001
0000
0100
0000
2202
3303
0100
0000
,
1001
0000
0010
0000
2022
3033
0010
0000
,
1001
1001
1001
0000
,
1001
0000
1010
0000
,
1001
0000
0011
0000
,
1001
0000
1010
0000
,
1001
0000
0011
0000
,
1000
0100
0010
2000
3002
2003
3002
0103
,
0010
0100
0010
0002
0203
0302
2003
3020
,
0130
0001
0100
2000
3002
0023
0032
0103
,
0010
0100
0010
0002
0023
0230
2300
3000
,
0000
0000
0000
0000
,
1000
1000
1000
1000
,
1000
1000
1000
1000
,
1000
1000
1000
1000
,
0001
0010
0100
0002
2003
3002
2003
3010
,
0100
0010
0100
2000
3020
2030
3002
0203
,
0310
1000
0010
0002
2003
3200
2300
3010
,
0100
0010
0100
2000
3200
0320
0032
0003
,
1000
0100
1000
0100
1000
0100
1000
0100
,
0010
0100
0010
0100
0010
0100
0010
0100
,
1000
0001
1000
0100
1000
0001
1000
0010
,
1000
0100
0010
0001
1000
0010
0100
0001
1000
0100
0010
0001
1000
0001
1000
0000
,
1001
0000
0001
0000
1010
0000
0010
1000
0001
0000
0020
0000
0100
0000
0130
1000
,
0001
0000
0100
0000
1001
0000
0001
0100
0010
0000
0200
0000
0010
0000
0310
1000
,
0001
0000
0010
0000
1100
0000
0100
1000
0010
0000
0200
0000
0001
0000
0301
0010
,
0100
0000
1000
0000
0011
0000
0010
0001
0100
0000
0020
0000
1000
0000
1030
0000
,
0001
0000
0000
0000
0000
0000
0100
0000
0000
0000
0000
0010
1000
0000
0000
0000
0000
0010
0100
0000
0000
0000
0000
0000
,
0001
0000
0000
0000
0000
0000
1000
0000
0000
0000
0000
0001
0010
0000
0000
0000
0000
0100
0010
0000
0000
0000
0000
0000
,
0100
0000
0000
0000
0000
0000
1000
0000
0000
0000
0000
0001
0100
0000
0000
0000
0000
0010
0100
0000
0000
0000
0000
0000
,
0010
0000
0000
0000
0000
0000
1000
0000
0000
0000
0000
0001
1000
0000
0000
0000
0000
1000
0010
0000
0000
0000
0000
0000
,
1001
0000
0010
0000
1001
0000
0001
1000
0010
0000
0200
0000
0001
0000
0301
1000
,
0100
0000
0010
0000
1100
0000
0100
1000
0001
0000
0200
0000
0010
0000
0310
0100
,
0001
0000
0010
0000
1001
0000
1000
0001
0010
0000
0200
0000
1000
0000
1300
0001
,
0100
0000
0010
0000
0101
0000
0100
0010
1000
0000
0020
0000
0100
0000
0100
0030
,
0001
0000
0000
0000
0000
0000
0010
0000
0000
0000
0000
0100
1000
0000
0000
0000
0000
0100
0010
0000
0000
0000
0000
0000
,
0001
0000
0000
0000
0000
0000
1000
0000
0000
0000
0000
0001
0100
0000
0000
0000
0000
0010
0100
0000
0000
0000
0000
0000
,
0010
0000
0000
0000
0000
0000
1000
0000
0000
0000
0000
0001
0010
0000
0000
0000
0000
0100
0010
0000
0000
0000
0000
0000
,
0100
0000
0000
0000
1000
0000
0000
0010
0100
0010
0100
0001
1000
0000
0001
0000
,
0011
0000
0010
0000
1100
0000
0010
0000
0001
0000
0010
0000
1100
0000
0001
0100
,
0010
0000
1000
0000
0101
0000
1000
0000
0010
0000
1000
0000
0101
0000
1000
0010
,
0100
0000
0001
0000
1010
0000
0001
0000
0100
0000
0001
0000
1010
0000
0001
0010
,
0100
0000
1000
0000
0011
0000
1000
0000
0100
0000
1000
0000
0011
0000
1000
0100
,
0010
0000
0000
0000
0000
0000
0100
0000
0000
0000
0000
0010
0001
0000
0000
0000
0000
0010
0100
0000
0000
0000
0000
0000
,
1000
0000
0000
0000
0000
0000
0001
0000
0000
0000
0000
1000
0010
0000
0000
0000
0000
0100
0010
0000
0000
0000
0000
0000
,
0100
0000
0000
0000
0000
0000
0001
0000
0000
0000
0000
1000
0100
0000
0000
0000
0000
0010
0100
0000
0000
0000
0000
0000
,
0010
0000
0000
0000
0000
0000
0001
0000
0000
0000
0000
1000
0001
0000
0000
0000
0000
0001
0010
0000
0000
0000
0000
0000
,
0010
0000
0100
0000
0011
0000
0100
0000
1000
0000
0100
0000
0011
0000
1000
0010
,
0100
0000
0001
0000
1010
0000
0001
0000
0100
0000
0001
0000
1010
0000
0001
0100
,
0010
0000
1000
0000
0101
0000
1000
0000
0010
0000
1000
0000
0101
0000
1000
0100
,
0010
0000
0001
0000
1100
0000
0001
0000
0010
0000
0001
0000
1100
0000
0001
0010
,
0100
1000
0100
1000
0010
0100
0010
0100
,
0001
1000
0010
1000
0010
0100
0010
1000
,
0001
0100
0001
1000
0001
0010
0001
1000
,
0001
0010
0100
1000
0001
0100
0010
1000
0001
0010
0100
1000
0001
1000
0001
0000
,
1001
0000
0100
0000
1001
0000
1000
0001
0100
0000
0020
0000
1000
0000
1030
0001
,
0010
0000
0100
0000
0011
0000
0010
0001
1000
0000
0020
0000
0100
0000
0130
0010
,
1000
0000
0100
0000
1001
0000
0001
1000
0100
0000
0020
0000
0001
0000
0031
1000
,
0010
0000
0100
0000
1010
0000
0010
0100
0001
0000
0200
0000
0010
0000
0010
0300
,
1000
0000
0000
0000
0000
0000
0010
0000
0000
0000
0000
0100
0001
0000
0000
0000
0000
0100
0010
0000
0000
0000
0000
0000
,
1000
0000
0000
0000
0000
0000
0001
0000
0000
0000
0000
1000
0100
0000
0000
0000
0000
0010
0100
0000
0000
0000
0000
0000
,
0010
0000
0000
0000
0000
0000
0001
0000
0000
0000
0000
1000
0010
0000
0000
0000
0000
0100
0010
0000
0000
0000
0000
0000
,
0100
0000
0000
0000
0000
0000
0001
0000
0000
0000
0000
1000
0001
0000
0000
0000
0000
0001
0100
0000
0000
0000
0000
0000
,
1001
0000
0001
0000
0011
0000
0010
0001
1000
0000
0020
0000
0100
0000
0130
0001
,
1000
0000
0100
0000
1001
0000
1000
0100
0010
0000
0200
0000
0010
0000
0310
0001
,
1000
0000
0010
0000
0101
0000
0100
0001
0010
0000
0200
0000
1000
0000
1300
0010
,
0100
0000
0001
0000
1010
0000
0010
1000
0100
0000
0020
0000
0001
0000
0031
0000
,
1000
0000
0000
0000
0000
0000
0100
0000
0000
0000
0000
0010
0001
0000
0000
0000
0000
0010
0100
0000
0000
0000
0000
0000
,
1000
0000
0000
0000
0000
0000
0001
0000
0000
0000
0000
1000
0010
0000
0000
0000
0000
0100
0010
0000
0000
0000
0000
0000
,
0100
0000
0000
0000
0000
0000
0001
0000
0000
0000
0000
1000
0100
0000
0000
0000
0000
0010
0100
0000
0000
0000
0000
0000
,
0010
0000
0000
0000
0001
0000
0000
0100
0010
0100
0010
1000
0001
0000
1000
0000
,
1100
0000
0100
0000
0011
0000
0100
0000
1000
0000
0100
0000
0011
0000
1000
0010
,
0100
0000
0001
0000
1010
0000
0001
0000
0100
0000
0001
0000
1010
0000
0001
0100
,
0010
0000
1000
0000
0101
0000
1000
0000
0010
0000
1000
0000
0101
0000
1000
0100
,
0010
0000
0001
0000
1100
0000
0001
0000
0010
0000
0001
0000
1100
0000
0001
0010
,
0100
0000
0000
0000
0000
0000
0010
0000
0000
0000
0000
0100
1000
0000
0000
0000
0000
0100
0010
0000
0000
0000
0000
0000
,
0001
0000
0000
0000
0000
0000
1000
0000
0000
0000
0000
0001
0100
0000
0000
0000
0000
0010
0100
0000
0000
0000
0000
0000
,
0010
0000
0000
0000
0000
0000
1000
0000
0000
0000
0000
0001
0010
0000
0000
0000
0000
0100
0010
0000
0000
0000
0000
0000
,
0100
0000
0000
0000
0000
0000
1000
0000
0000
0000
0000
0001
1000
0000
0000
0000
0000
1000
0100
0000
0000
0000
0000
0000
,
0001
0000
0010
0000
1100
0000
0010
0000
0001
0000
0010
0000
1100
0000
0001
0100
,
0010
0000
1000
0000
0101
0000
1000
0000
0010
0000
1000
0000
0101
0000
1000
0010
,
0100
0000
0001
0000
1010
0000
0001
0000
0100
0000
0001
0000
1010
0000
0001
0010
,
0100
0000
1000
0000
0011
0000
1000
0000
0100
0000
1000
0000
0011
0000
1000
0100
,
0010
0001
0010
0001
0100
0010
0100
0010
,
1000
0001
0100
0001
0100
0010
0100
0001
,
1000
0010
1000
0001
1000
0100
1000
0001
,
100M
010M
001M
010M
100M
010M
001M
010M
100M
010M
001M
010M
100M
001M
100M
001M
,
020M
0000
0000
0000
,
0000
0000
0000
0000
,
0000
0000
0000
0000
,
0000
0000
0000
0000
0000
0000
0000
0000
0000
0000
0000
0000
0000
0000
0000
0300
,
M000
0M00
00M0
0000
0000
0000
0000
0000
0000
0000
0000
0000
0000
0000
0000
0000
0000
0000
0000
0000
0000
0000
0000
0000
0000
0000
0000
0000
0000
0000
0000
0000
,
0001
0000
0001
0000
,
0001
0000
0001
0000
,
0001
0000
0001
0000
,
1000
0100
0010
2000
3002
2003
3002
0103
,
0010
0100
0010
0002
0203
0302
2003
3020
,
0130
0001
0100
2000
3002
0023
0032
0103
,
0010
0100
0010
0002
0023
0230
2300
3000
,
0001
0010
0001
0010
0001
0010
0001
0010
,
0100
0010
0100
0010
0100
0010
0100
0010
,
0001
1000
0001
0010
0001
1000
0001
0100
,
0001
0010
0100
1000
0001
0100
0010
1000
0001
0010
0100
1000
0001
1000
0001
0000
,
1001
0000
1000
0000
0101
0000
0100
0001
1000
0000
0200
0000
0010
0000
0310
0001
,
1000
0000
0010
0000
1001
0000
1000
0010
0100
0000
0020
0000
0100
0000
0130
0001
,
1000
0000
0100
0000
0011
0000
0010
0001
0100
0000
0020
0000
1000
0000
1030
0100
,
0010
0000
0001
0000
1100
0000
0100
1000
0010
0000
0200
0000
0001
0000
0301
0000
,
1000
0000
0000
0000
0000
0000
0010
0000
0000
0000
0000
0100
0001
0000
0000
0000
0000
0100
0010
0000
0000
0000
0000
0000
,
1000
0000
0000
0000
0000
0000
0001
0000
0000
0000
0000
1000
0100
0000
0000
0000
0000
0010
0100
0000
0000
0000
0000
0000
,
0010
0000
0000
0000
0000
0000
0001
0000
0000
0000
0000
1000
0010
0000
0000
0000
0000
0100
0010
0000
0000
0000
0000
0000
,
0100
0000
0000
0000
0000
0000
0001
0000
0000
0000
0000
1000
0001
0000
0000
0000
0000
0001
0100
0000
0000
0000
0000
0000
,
1001
0000
0100
0000
1001
0000
1000
0001
0100
0000
0020
0000
1000
0000
1030
0001
,
0010
0000
0100
0000
0011
0000
0010
0001
1000
0000
0020
0000
0100
0000
0130
0010
,
1000
0000
0100
0000
1001
0000
0001
1000
0100
0000
0020
0000
0001
0000
0031
1000
,
0010
0000
0100
0000
1010
0000
0010
0100
0001
0000
0200
0000
0010
0000
0010
0300
,
1000
0000
0000
0000
0000
0000
0100
0000
0000
0000
0000
0010
0001
0000
0000
0000
0000
0010
0100
0000
0000
0000
0000
0000
,
1000
0000
0000
0000
0000
0000
0001
0000
0000
0000
0000
1000
0010
0000
0000
0000
0000
0100
0010
0000
0000
0000
0000
0000
,
0100
0000
0000
0000
0000
0000
0001
0000
0000
0000
0000
1000
0100
0000
0000
0000
0000
0010
0100
0000
0000
0000
0000
0000
,
0010
0000
0000
0000
0001
0000
0000
0100
0010
0100
0010
1000
0001
0000
1000
0000
,
1100
0000
0100
0000
0011
0000
0100
0000
1000
0000
0100
0000
0011
0000
1000
0010
,
0100
0000
0001
0000
1010
0000
0001
0000
0100
0000
0001
0000
1010
0000
0001
0100
,
0010
0000
1000
0000
0101
0000
1000
0000
0010
0000
1000
0000
0101
0000
1000
0100
,
0010
0000
0001
0000
1100
0000
0001
0000
0010
0000
0001
0000
1100
0000
0001
0010
,
0100
0000
0000
0000
0000
0000
0010
0000
0000
0000
0000
0100
1000
0000
0000
0000
0000
0100
0010
0000
0000
0000
0000
0000
,
0001
0000
0000
0000
0000
0000
1000
0000
0000
0000
0000
0001
0100
0000
0000
0000
0000
0010
0100
0000
0000
0000
0000
0000
,
0010
0000
0000
0000
0000
0000
1000
0000
0000
0000
0000
0001
0010
0000
0000
0000
0000
0100
0010
0000
0000
0000
0000
0000
,
0100
0000
0000
0000
0000
0000
1000
0000
0000
0000
0000
0001
1000
0000
0000
0000
0000
1000
0100
0000
0000
0000
0000
0000
,
0100
0000
0010
0000
1100
0000
0010
0000
0001
0000
0010
0000
1100
0000
0001
0100
,
0010
0000
1000
0000
0101
0000
1000
0000
0010
0000
1000
0000
0101
0000
1000
0010
,
0100
0000
0001
0000
1010
0000
0001
0000
0100
0000
0001
0000
1010
0000
0001
0010
,
0100
0000
1000
0000
0011
0000
1000
0000
0100
0000
1000
0000
0011
0000
1000
0100
,
0010
0001
0010
0001
0100
0010
0100
0010
,
1000
0001
0100
0001
0100
0010
0100
0001
,
1000
0010
1000
0001
1000
0100
1000
0001
,
1000
0100
0010
0001
1000
0010
0100
0001
1000
0100
0010
0001
1000
0001
1000
0000
,
1001
0000
0010
0000
1001
0000
0001
1000
0010
0000
0200
0000
0001
0000
0301
1000
,
0100
0000
0010
0000
1100
0000
0100
1000
0001
0000
0200
0000
0010
0000
0310
0100
,
0001
0000
0010
0000
1001
0000
1000
0001
0010
0000
0200
0000
1000
0000
1300
0001
,
0100
0000
0010
0000
0101
0000
0100
0010
1000
0000
0020
0000
0100
0000
0100
0030
,
0001
0000
0000
0000
0000
0000
0100
0000
0000
0000
0000
0010
1000
0000
0000
0000
0000
0010
0100
0000
0000
0000
0000
0000
,
0001
0000
0000
0000
0000
0000
1000
0000
0000
0000
0000
0001
0010
0000
0000
0000
0000
0100
0010
0000
0000
0000
0000
0000
,
0100
0000
0000
0000
0000
0000
1000
0000
0000
0000
0000
0001
0100
0000
0000
0000
0000
0010
0100
0000
0000
0000
0000
0000
,
0010
0000
0000
0000
0000
0000
1000
0000
0000
0000
0000
0001
1000
0000
0000
0000
0000
1000
0010
0000
0000
0000
0000
0000
,
1001
0000
1000
0000
1100
0000
0100
1000
0001
0000
0200
0000
0010
0000
0310
1000
,
0001
0000
0010
0000
1001
0000
0001
0010
0100
0000
0020
0000
0100
0000
0130
1000
,
0001
0000
0100
0000
1010
0000
0010
1000
0100
0000
0020
0000
0001
0000
0031
0100
,
0010
0000
1000
0000
0101
0000
0100
0001
0010
0000
0200
0000
1000
0000
1300
0000
,
0001
0000
0000
0000
0000
0000
0010
0000
0000
0000
0000
0100
1000
0000
0000
0000
0000
0100
0010
0000
0000
0000
0000
0000
,
0001
0000
0000
0000
0000
0000
1000
0000
0000
0000
0000
0001
0100
0000
0000
0000
0000
0010
0100
0000
0000
0000
0000
0000
,
0010
0000
0000
0000
0000
0000
1000
0000
0000
0000
0000
0001
0010
0000
0000
0000
0000
0100
0010
0000
0000
0000
0000
0000
,
0100
0000
0000
0000
1000
0000
0000
0010
0100
0010
0100
0001
1000
0000
0001
0000
,
0011
0000
0010
0000
1100
0000
0010
0000
0001
0000
0010
0000
1100
0000
0001
0100
,
0010
0000
1000
0000
0101
0000
1000
0000
0010
0000
1000
0000
0101
0000
1000
0010
,
0100
0000
0001
0000
1010
0000
0001
0000
0100
0000
0001
0000
1010
0000
0001
0010
,
0100
0000
1000
0000
0011
0000
1000
0000
0100
0000
1000
0000
0011
0000
1000
0100
,
0010
0000
0000
0000
0000
0000
0100
0000
0000
0000
0000
0010
0001
0000
0000
0000
0000
0010
0100
0000
0000
0000
0000
0000
,
1000
0000
0000
0000
0000
0000
0001
0000
0000
0000
0000
1000
0010
0000
0000
0000
0000
0100
0010
0000
0000
0000
0000
0000
,
0100
0000
0000
0000
0000
0000
0001
0000
0000
0000
0000
1000
0100
0000
0000
0000
0000
0010
0100
0000
0000
0000
0000
0000
,
0010
0000
0000
0000
0000
0000
0001
0000
0000
0000
0000
1000
0001
0000
0000
0000
0000
0001
0010
0000
0000
0000
0000
0000
,
1000
0000
0100
0000
0011
0000
0100
0000
1000
0000
0100
0000
0011
0000
1000
0010
,
0100
0000
0001
0000
1010
0000
0001
0000
0100
0000
0001
0000
1010
0000
0001
0100
,
0010
0000
1000
0000
0101
0000
1000
0000
0010
0000
1000
0000
0101
0000
1000
0100
,
0010
0000
0001
0000
1100
0000
0001
0000
0010
0000
0001
0000
1100
0000
0001
0010
,
0100
1000
0100
1000
0010
0100
0010
0100
,
0001
1000
0010
1000
0010
0100
0010
1000
,
0001
0100
0001
1000
0001
0010
0001
1000
,
M001
M010
M100
M010
M001
M010
M100
M010
M001
M010
M100
M010
M001
M100
M001
M100
,
002M
000M
M000
000M
M000
000M
M000
000M
,
M000
0000
0000
0000
000M
0000
0000
0000
M000
0000
0000
0000
0000
0000
000M
0000
0000
0000
M000
0000
0000
0000
0000
000M
0000
0000
0000
0000
0000
M000
0000
0000
,
0000
0000
000M
0000
0000
0000
0000
M000
0000
0000
0000
0000
000M
0000
0000
0000
0000
0000
M000
0000
0000
0000
0000
0000
000M
0000
0000
0000
0000
0000
0000
0000
,
0000
M000
0000
0000
0000
0000
0000
0000
0000
000M
0000
0000
0000
0000
0000
0000
M000
0000
0000
0000
0000
0000
0000
0000
000M
0000
0000
0000
0000
0000
0000
0000
,
M000
000M
M000
000M
,
0000
M000
0000
0000
0000
000M
0000
0000
0000
0000
M000
0000
0000
0000
0000
0000
,
000M
0000
0000
0000
0000
M000
0000
0000
0000
0000
000M
0000
0000
0000
0000
0000
,
M000
0000
0000
0000
0000
0000
000M
0000
0000
0000
0000
M000
0000
0000
0000
000M
,
0000
0000
0000
0000
M000
0000
0000
0000
0000
000M
0000
0000
0030
0000
0000
0000
;

//---------------dance-single - J. Patton----------------
#NOTES:
     dance-single:
     J. Patton:
     Hard:
     13:
     1.000,1.000,0.370,0.308,1.000,2381.000,125.000,104.000,170.000,3.000:
0000
0000
0000
0000
,
MMMM
M0MM
00MM
00MM
000M
000M
000M
000M
,
000M
0000
MM00
0000
,
00MM
0000
MM00
0000
,
00MM
0000
0000
0000
0000
0000
0000
0000
0000
0000
0000
0000
0000
0000
0000
0000
MM00
0000
0000
0000
0000
0000
0000
0000
0000
0000
0000
0000
0000
0000
M000
0M00
,
00M0
0000
MM00
0000
,
00MM
0000
MM00
0000
,
00MM
0000
MM00
0000
,
00MM
0000
MM00
0000
,
0001
0010
0100
0100
0001
0200
0300
0000
,
M000
0M00
00M0
0000
000M
00M0
0M00
0000
,
M000
0000
0M00
0000
20M0
0000
0000
0000
0M00
0000
00M0
0000
000M
3000
0000
0000
,
000M
0000
00M0
0000
0M02
0000
0000
0000
00M0
0000
0M00
0000
M000
0003
0000
0000
,
1000
0000
0001
0100
0010
0000
0100
0001
,
0010
0000
0000
0000
0100
0000
0020
0000
0000
0030
0010
0000
0000
0000
1000
0000
,
0010
0000
0010
0000
0100
0001
0010
0100
,
1000
0000
0000
0000
0001
0000
0200
0000
0000
0300
0100
0000
0000
0000
0000
0000
,
0001
1000
0100
1000
0100
1000
0010
0100
0001
0010
0001
0010
0100
1000
0010
0100
,
0010
0000
0010
0000
0100
0000
0010
1000
0010
1000
0010
0000
0100
0000
0000
0000
,
0010
0000
1000
0000
0000
0000
0010
1000
0010
1000
0010
0000
0100
0000
0000
0000
,
0010
0000
0010
0000
0100
0001
0100
0001
1000
0000
0001
0000
0010
0000
0000
0000
,
0100
1000
0010
0100
0010
0100
0001
0010
0100
0010
0100
0010
0001
0100
0010
1000
,
0001
0000
0001
0000
1000
0000
0100
0010
0100
0010
0100
0000
1000
0000
0000
0000
,
0001
0000
1000
0000
0000
0000
0100
0010
0100
0010
0100
0000
1000
0000
0000
0000
,
0001
0000
0001
0000
0100
0010
0100
0010
1000
0000
0001
0000
1000
0000
0000
0000
,
0001
1000
0010
1000
0010
1000
0100
0010
0001
0100
0001
0100
0010
1000
0100
0010
,
0100
0000
0100
0000
0010
0000
0100
1000
0100
1000
0100
0000
0010
0000
0000
0000
,
0100
0000
1000
0000
0000
0000
0100
1000
0100
1000
0100
0000
0010
0000
0000
0000
,
0100
0000
0100
0000
0010
0001
0010
0001
1000
0000
0001
0000
0100
0000
0000
0000
,
0010
1000
0100
0010
0100
0010
0001
0100
0010
0100
0010
0100
0001
0010
0100
1000
,
0001
0000
0001
0000
1000
0000
0010
0100
0010
0100
0010
0000
1000
0000
0000
0000
,
0001
0000
1000
0000
0000
0000
0010
0100
0010
0100
0010
0000
1000
0000
0000
0000
,
0001
0000
0001
0000
0010
0100
0010
0100
1000
0000
0001
0000
1000
0000
0000
0000
,
0001
0100
0001
0100
0010
1000
0010
1000
0010
1000
0010
0100
0010
0100
0010
0100
,
0001
0010
0001
0010
0100
1000
0100
1000
0100
1000
0100
0010
0100
0010
0100
0010
,
0001
0000
0001
0000
0100
0000
0010
1000
0010
1000
0010
0000
0100
0000
0000
0000
,
0001
0000
0100
0000
0000
0000
0010
1000
0010
1000
0010
0000
0100
0000
0000
0000
,
0010
1000
0010
1000
0001
0100
0001
0100
0001
0100
0010
0100
0010
0100
0010
0100
,
0001
0010
0001
0010
0100
1000
0100
1000
0100
1000
0100
0010
0100
0010
0100
0010
,
0001
0100
0001
0100
0010
1000
0010
1000
0010
1000
0100
0010
0100
0010
0100
0010
,
0001
0100
0001
0100
0001
0100
0001
0100
0010
1000
0010
1000
0010
1000
0010
1000
,
0001
0010
0001
0010
0100
1000
0100
1000
0100
1000
0100
0010
0100
0010
0100
0010
,
0001
0100
0001
0100
0010
1000
0010
1000
0010
1000
0010
0100
0010
0100
0010
0100
,
0001
0000
0001
0000
0010
0000
0100
1000
0100
1000
0100
0000
0010
0000
0000
0000
,
0001
0000
0010
0000
0000
0000
0100
1000
0100
1000
0100
0000
0010
0000
0000
0000
,
0100
1000
0100
1000
0001
0010
0001
0010
0001
0010
0100
0010
0100
0010
0100
0010
,
0001
0100
0001
0100
0010
1000
0010
1000
0010
1000
0010
0100
0010
0100
0010
0100
,
0000
0000
0000
MMMM
0000
0000
0000
0000
2000
0000
0000
0000
0001
0000
0000
0000
3001
0000
0000
0000
0020
0000
0000
0000
0100
0000
0000
0000
0130
0000
0000
0000
,
2000
0010
0010
3000
0200
0001
0001
0300
,
1000
0010
1000
0010
0100
0001
0100
0001
0100
0001
0100
0010
0100
0010
0100
0010
,
1000
0100
1000
0100
0010
0001
0010
0001
0010
0001
0010
0100
0010
0100
0010
0100
,
1000
0000
1000
0000
0010
0000
0100
0001
0100
0001
0100
0000
0010
0000
0000
0000
,
1000
0000
0010
0000
0000
0000
0100
0001
0100
0001
0100
0000
0010
0000
0000
0000
,
0100
0001
0100
0001
1000
0010
1000
0010
1000
0010
0100
0010
0100
0010
0100
0010
,
1000
0100
1000
0100
0010
0001
0010
0001
0010
0001
0010
0100
0010
0100
0010
0100
,
1000
0010
1000
0010
0100
0001
0100
0001
0100
0001
0010
0100
0010
0100
0010
0100
,
1000
0010
1000
0010
1000
0010
1000
0010
0100
0001
0100
0001
0100
0001
0100
0001
,
0020
0000
0000
0000
0000
0000
0000
0000
0000
0000
0000
0000
0000
0000
0000
0000
0000
0000
0000
0000
0000
0000
0000
0000
0000
0000
0000
0000
0030
0000
000M
00M0
,
0M00
0000
MM00
0000
,
00MM
0000
MM00
0000
,
00MM
0000
MM00
0000
,
00MM
0000
MM00
0000
,
00MM
0000
0000
0000
0000
0000
0000
0000
0000
0000
0000
0000
0000
0000
0000
0000
0000
0000
0000
0000
0000
MM00
0000
0000
0000
0000
0000
0000
0000
0000
0000
0000
,
0000
0000
0000
0000
0000
0000
0000
0000
0000
00MM
0000
0000
0000
0000
0000
0000
,
0000
0000
0000
0000
,
0000
0000
0000
MM00
0000
0000
0000
0000
0000
0000
0000
0000
0000
0000
0000
0000
0000
0000
0000
0000
0000
0000
0000
0000
0000
0000
0000
0000
0000
0000
0000
0000
,
0000
0000
0000
0000
,
0000
0000
0000
00MM
0000
0000
0000
0000
,
0000
0000
0000
0000
,
0000
0000
0000
0000
0000
MM00
0000
0000
,
0000
0000
0000
0000
,
1001
0000
0101
0000
,
1001
0000
1100
0000
,
1001
0000
0101
0000
,
1001
0000
1100
0000
,
1001
0000
0010
0000
2022
3033
0010
0000
,
1001
0000
0100
0000
2202
3303
0100
0000
,
1001
0000
0010
0000
2022
3033
0010
0000
,
1001
1001
1001
0000
,
1001
0000
1010
0000
,
1001
0000
0011
0000
,
1001
0000
1010
0000
,
1001
0000
0011
0000
,
1000
0100
0010
2000
3002
2003
3002
0103
,
0010
0100
0010
0002
0203
0302
2003
3020
,
0130
0001
0100
2000
3002
0023
0032
0103
,
0010
0100
0010
0002
0023
0230
2300
3000
,
0000
0000
0000
0000
,
1000
1000
1000
1000
,
1000
1000
1000
1000
,
1000
1000
1000
1000
,
0001
0010
0100
0002
2003
3002
2003
3010
,
0100
0010
0100
2000
3020
2030
3002
0203
,
0310
1000
0010
0002
2003
3200
2300
3010
,
0100
0010
0100
2000
3200
0320
0032
0003
,
1000
0100
1000
0100
1000
0100
1000
0100
,
0010
0100
0010
0100
0010
0100
0010
0100
,
1000
0001
0100
0001
0010
0001
1000
0100
0010
0001
0010
0001
1000
0001
0010
0001
,
1000
0010
0100
0001
0000
0000
0100
0010
1000
0001
0000
0000
1000
0100
0010
0001
0000
0000
0010
0100
1000
0001
0000
0000
,
1001
0000
0001
0000
1010
0000
0010
1000
0001
0000
0020
0000
0100
0000
0130
1000
,
0001
0000
0100
0000
1001
0000
0001
0100
0010
0000
0200
0000
0010
0000
0310
1000
,
0001
0000
0010
0000
1100
0000
0100
1000
0010
0000
0200
0000
0001
0000
0301
0010
,
0100
0000
1000
0000
0011
0000
0010
0001
0100
0000
0020
0000
1000
0000
1030
0000
,
0001
0010
0100
1000
0001
0100
0010
0100
0001
0100
0010
1000
0010
0100
0010
1000
,
0100
0010
0001
1000
0100
1000
0001
1000
0100
0010
0001
1000
0001
0010
0001
1000
,
0001
0100
0010
1000
0001
0010
0100
0010
0001
0010
0100
1000
0100
0010
0100
1000
,
0010
0100
0001
1000
0010
1000
0001
1000
0010
0100
0001
1000
0001
0100
0001
1000
,
0100
0000
0010
0000
1001
0000
0001
1000
0010
0000
0200
0000
0001
0000
0301
1000
,
0100
0000
0010
0000
1100
0000
0100
1000
0001
0000
0200
0000
0010
0000
0310
0100
,
0001
0000
0010
0000
1001
0000
1000
0001
0010
0000
0200
0000
1000
0000
1300
0001
,
0100
0000
0010
0000
0101
0000
0100
0010
1000
0000
0020
0000
0100
0000
0100
0030
,
0010
1000
0001
1000
0010
0100
0010
1000
0001
0010
0100
1000
0001
0010
0001
1000
,
0010
0100
0010
1000
0001
0100
0010
1000
0001
0100
0001
1000
0100
0010
0001
1000
,
0100
1000
0001
1000
0100
0010
0100
1000
0001
0100
0010
1000
0001
0100
0001
1000
,
0100
0010
0100
1000
0001
0010
0100
1000
0001
0100
0010
0100
0010
0100
0001
1000
,
0100
0000
0010
0000
1100
0000
0010
0000
0001
0000
0010
0000
1100
0000
0001
0100
,
0010
0000
1000
0000
0101
0000
1000
0000
0010
0000
1000
0000
0101
0000
1000
0010
,
0100
0000
0001
0000
1010
0000
0001
0000
0100
0000
0001
0000
1010
0000
0001
0010
,
0100
0000
1000
0000
0011
0000
1000
0000
0100
0000
1000
0000
0011
0000
1000
0100
,
0010
0001
1000
0100
0010
0001
0100
0001
0100
0010
0100
0001
1000
0001
0010
0100
,
1000
0001
0010
0100
0010
0001
1000
0010
0100
0010
1000
0001
0100
0010
1000
0001
,
0100
0001
1000
0010
0100
0001
0010
0001
0010
0100
0010
0001
1000
0001
0100
0010
,
1000
0001
0100
0010
0100
0001
1000
0100
0010
0100
1000
0001
0010
0100
1000
0001
,
0010
0000
0100
0000
0011
0000
0100
0000
1000
0000
0100
0000
0011
0000
1000
0010
,
0100
0000
0001
0000
1010
0000
0001
0000
0100
0000
0001
0000
1010
0000
0001
0100
,
0010
0000
1000
0000
0101
0000
1000
0000
0010
0000
1000
0000
0101
0000
1000
0100
,
0010
0000
0001
0000
1100
0000
0001
0000
0010
0000
0001
0000
1100
0000
0001
0010
,
0100
1000
0001
0010
0001
0010
0100
0010
0100
1000
0001
0100
0010
0100
0001
1000
,
0010
1000
0001
0100
0001
0100
0010
0100
0010
1000
0001
0010
0100
0010
0001
0100
,
0001
1000
0010
1000
0100
1000
0001
0010
0100
1000
0100
1000
0001
1000
0100
1000
,
0001
0010
0100
1000
0000
0000
0100
0010
0001
1000
0000
0000
0001
0100
0010
1000
0000
0000
0010
0100
0001
1000
0000
0000
,
1001
0000
0100
0000
1001
0000
1000
0001
0100
0000
0020
0000
1000
0000
1030
0001
,
0010
0000
0100
0000
0011
0000
0010
0001
1000
0000
0020
0000
0100
0000
0130
0010
,
1000
0000
0100
0000
1001
0000
0001
1000
0100
0000
0020
0000
0001
0000
0031
1000
,
0010
0000
0100
0000
1010
0000
0010
0100
0001
0000
0200
0000
0010
0000
0010
0300
,
0100
0001
1000
0001
0100
0010
0100
0001
1000
0100
0010
0001
1000
0100
1000
0001
,
0100
0010
0100
0001
1000
0010
0100
0001
1000
0010
1000
0001
0010
0100
1000
0001
,
0010
0001
1000
0001
0010
0100
0010
0001
1000
0010
0100
0001
1000
0010
1000
0001
,
0010
0100
0010
0001
1000
0100
0010
0001
1000
0010
0100
0001
0100
0010
1000
0001
,
0010
0000
0100
0000
0011
0000
0010
0001
1000
0000
0020
0000
0100
0000
0130
0001
,
1000
0000
0100
0000
1001
0000
1000
0100
0010
0000
0200
0000
0010
0000
0310
0001
,
1000
0000
0010
0000
0101
0000
0100
0001
0010
0000
0200
0000
1000
0000
1300
0010
,
0100
0000
0001
0000
1010
0000
0010
1000
0100
0000
0020
0000
0001
0000
0031
0000
,
1000
0010
0100
0001
1000
0100
0010
0100
1000
0100
0010
0001
0010
0100
0010
0001
,
0100
0010
1000
0001
0100
0001
1000
0001
0100
0010
1000
0001
1000
0010
1000
0001
,
1000
0100
0010
0001
1000
0010
0100
0010
1000
0010
0100
0001
0100
0010
0100
0001
,
0010
0100
1000
0001
0010
0001
1000
0001
0010
0100
1000
0001
1000
0100
1000
0001
,
0010
0000
0100
0000
0011
0000
0100
0000
1000
0000
0100
0000
0011
0000
1000
0010
,
0100
0000
0001
0000
1010
0000
0001
0000
0100
0000
0001
0000
1010
0000
0001
0100
,
0010
0000
1000
0000
0101
0000
1000
0000
0010
0000
1000
0000
0101
0000
1000
0100
,
0010
0000
0001
0000
1100
0000
0001
0000
0010
0000
0001
0000
1100
0000
0001
0010
,
0100
1000
0001
0010
0100
1000
0010
1000
0010
0100
0010
1000
0001
1000
0100
0010
,
0001
1000
0100
0010
0100
1000
0001
0100
0010
0100
0001
1000
0010
0100
0001
1000
,
0010
1000
0001
0100
0010
1000
0100
1000
0100
0010
0100
1000
0001
1000
0010
0100
,
0001
1000
0010
0100
0010
1000
0001
0010
0100
0010
0001
1000
0100
0010
0001
1000
,
0100
0000
0010
0000
1100
0000
0010
0000
0001
0000
0010
0000
1100
0000
0001
0100
,
0010
0000
1000
0000
0101
0000
1000
0000
0010
0000
1000
0000
0101
0000
1000
0010
,
0100
0000
0001
0000
1010
0000
0001
0000
0100
0000
0001
0000
1010
0000
0001
0010
,
0100
0000
1000
0000
0011
0000
1000
0000
0100
0000
1000
0000
0011
0000
1000
0100
,
0010
0001
1000
0100
0010
0001
0100
0001
0100
0010
0100
0001
1000
0001
0010
0100
,
1000
0001
0010
0100
0010
0001
1000
0010
0100
0010
1000
0001
0100
0010
1000
0001
,
0100
0001
1000
0010
0100
0001
0010
0001
0010
0100
0010
0001
1000
0001
0100
0010
,
100M
010M
001M
010M
100M
010M
001M
010M
100M
010M
001M
010M
100M
001M
100M
001M
,
020M
0000
0000
0000
,
0000
0000
0000
0000
,
0000
0000
0000
0000
,
0000
0000
0000
0000
0000
0000
0000
0000
0000
0000
0000
0000
0000
0000
0000
0300
,
M000
0M00
00M0
0000
0000
0000
0000
0000
0000
0000
0000
0000
0000
0000
0000
0000
0000
0000
0000
0000
0000
0000
0000
0000
0000
0000
0000
0000
0000
0000
0000
0000
,
0001
0000
0001
0000
,
0001
0000
0001
0000
,
0001
0000
0001
0000
,
1000
0100
0010
2000
3002
2003
3002
0103
,
0010
0100
0010
0002
0203
0302
2003
3020
,
0130
0001
0100
2000
3002
0023
0032
0103
,
0010
0100
0010
0002
0023
0230
2300
3000
,
0001
0010
0001
0010
0001
0010
0001
0010
,
0100
0010
0100
0010
0100
0010
0100
0010
,
0001
1000
0010
1000
0100
1000
0001
0010
0100
1000
0100
1000
0001
1000
0100
1000
,
0001
0100
0010
1000
0000
0000
0010
0100
0001
1000
0000
0000
0001
0010
0100
1000
0000
0000
0100
0010
0001
1000
0000
0000
,
1001
0000
1000
0000
0101
0000
0100
0001
1000
0000
0200
0000
0010
0000
0310
0001
,
1000
0000
0010
0000
1001
0000
1000
0010
0100
0000
0020
0000
0100
0000
0130
0001
,
1000
0000
0100
0000
0011
0000
0010
0001
0100
0000
0020
0000
1000
0000
1030
0100
,
0010
0000
0001
0000
1100
0000
0100
1000
0010
0000
0200
0000
0001
0000
0301
0000
,
1000
0100
0010
0001
1000
0010
0100
0010
1000
0010
0100
0001
0100
0010
0100
0001
,
0010
0100
1000
0001
0010
0001
1000
0001
0010
0100
1000
0001
1000
0100
1000
0001
,
1000
0010
0100
0001
1000
0100
0010
0100
1000
0100
0010
0001
0010
0100
0010
0001
,
0100
0010
1000
0001
0100
0001
1000
0001
0100
0010
1000
0001
1000
0010
1000
0001
,
0010
0000
0100
0000
1001
0000
1000
0001
0100
0000
0020
0000
1000
0000
1030
0001
,
0010
0000
0100
0000
0011
0000
0010
0001
1000
0000
0020
0000
0100
0000
0130
0010
,
1000
0000
0100
0000
1001
0000
0001
1000
0100
0000
0020
0000
0001
0000
0031
1000
,
0010
0000
0100
0000
1010
0000
0010
0100
0001
0000
0200
0000
0010
0000
0010
0300
,
0100
0001
1000
0001
0100
0010
0100
0001
1000
0100
0010
0001
1000
0100
1000
0001
,
0100
0010
0100
0001
1000
0010
0100
0001
1000
0010
1000
0001
0010
0100
1000
0001
,
0010
0001
1000
0001
0010
0100
0010
0001
1000
0010
0100
0001
1000
0010
1000
0001
,
0010
0100
0010
0001
1000
0100
0010
0001
1000
0010
0100
0010
0100
0010
1000
0001
,
0010
0000
0100
0000
0011
0000
0100
0000
1000
0000
0100
0000
0011
0000
1000
0010
,
0100
0000
0001
0000
1010
0000
0001
0000
0100
0000
0001
0000
1010
0000
0001
0100
,
0010
0000
1000
0000
0101
0000
1000
0000
0010
0000
1000
0000
0101
0000
1000
0100
,
0010
0000
0001
0000
1100
0000
0001
0000
0010
0000
0001
0000
1100
0000
0001
0010
,
0100
1000
0001
0010
0100
1000
0010
1000
0010
0100
0010
1000
0001
1000
0100
0010
,
0001
1000
0100
0010
0100
1000
0001
0100
0010
0100
0001
1000
0010
0100
0001
1000
,
0010
1000
0001
0100
0010
1000
0100
1000
0100
0010
0100
1000
0001
1000
0010
0100
,
0001
1000
0010
0100
0010
1000
0001
0010
0100
0010
0001
1000
0100
0010
0001
1000
,
0100
0000
0010
0000
1100
0000
0010
0000
0001
0000
0010
0000
1100
0000
0001
0100
,
0010
0000
1000
0000
0101
0000
1000
0000
0010
0000
1000
0000
0101
0000
1000
0010
,
0100
0000
0001
0000
1010
0000
0001
0000
0100
0000
0001
0000
1010
0000
0001
0010
,
0100
0000
1000
0000
0011
0000
1000
0000
0100
0000
1000
0000
0011
0000
1000
0100
,
0010
0001
1000
0100
1000
0100
0010
0100
0010
0001
1000
0010
0100
0010
1000
0001
,
0100
0001
1000
0010
1000
0010
0100
0010
0100
0001
1000
0100
0010
0100
1000
0010
,
1000
0001
0100
0001
0010
0001
1000
0100
0010
0001
0010
0001
1000
0001
0010
0001
,
1000
0100
0010
0001
0000
0000
0010
0100
1000
0001
0000
0000
1000
0010
0100
0001
0000
0000
0100
0010
1000
0001
0000
0000
,
1001
0000
0010
0000
1001
0000
0001
1000
0010
0000
0200
0000
0001
0000
0301
1000
,
0100
0000
0010
0000
1100
0000
0100
1000
0001
0000
0200
0000
0010
0000
0310
0100
,
0001
0000
0010
0000
1001
0000
1000
0001
0010
0000
0200
0000
1000
0000
1300
0001
,
0100
0000
0010
0000
0101
0000
0100
0010
1000
0000
0020
0000
0100
0000
0100
0030
,
0010
1000
0001
1000
0010
0100
0010
1000
0001
0010
0100
1000
0001
0010
0001
1000
,
0010
0100
0010
1000
0001
0100
0010
1000
0001
0100
0001
1000
0100
0010
0001
1000
,
0100
1000
0001
1000
0100
0010
0100
1000
0001
0100
0010
1000
0001
0100
0001
1000
,
0100
0010
0100
1000
0001
0010
0100
1000
0001
0100
0010
1000
0010
0100
0001
1000
,
0100
0000
0010
0000
1100
0000
0100
1000
0001
0000
0200
0000
0010
0000
0310
1000
,
0001
0000
0010
0000
1001
0000
0001
0010
0100
0000
0020
0000
0100
0000
0130
1000
,
0001
0000
0100
0000
1010
0000
0010
1000
0100
0000
0020
0000
0001
0000
0031
0100
,
0010
0000
1000
0000
0101
0000
0100
0001
0010
0000
0200
0000
1000
0000
1300
0000
,
0001
0100
0010
1000
0001
0010
0100
0010
0001
0010
0100
1000
0100
0010
0100
1000
,
0010
0100
0001
1000
0010
1000
0001
1000
0010
0100
0001
1000
0001
0100
0001
1000
,
0001
0010
0100
1000
0001
0100
0010
0100
0001
0100
0010
1000
0010
0100
0010
1000
,
0100
0010
0001
1000
0100
1000
0001
1000
0100
0010
0001
1000
0001
0010
0001
1000
,
0100
0000
0010
0000
1100
0000
0010
0000
0001
0000
0010
0000
1100
0000
0001
0100
,
0010
0000
1000
0000
0101
0000
1000
0000
0010
0000
1000
0000
0101
0000
1000
0010
,
0100
0000
0001
0000
1010
0000
0001
0000
0100
0000
0001
0000
1010
0000
0001
0010
,
0100
0000
1000
0000
0011
0000
1000
0000
0100
0000
1000
0000
0011
0000
1000
0100
,
0010
0001
1000
0100
0010
0001
0100
0001
0100
0010
0100
0001
1000
0001
0010
0100
,
1000
0001
0010
0100
0010
0001
1000
0010
0100
0010
1000
0001
0100
0010
1000
0001
,
0100
0001
1000
0010
0100
0001
0010
0001
0010
0100
0010
0001
1000
0001
0100
0010
,
1000
0001
0100
0010
0100
0001
1000
0100
0010
0100
1000
0001
0010
0100
1000
0001
,
0010
0000
0100
0000
0011
0000
0100
0000
1000
0000
0100
0000
0011
0000
1000
0010
,
0100
0000
0001
0000
1010
0000
0001
0000
0100
0000
0001
0000
1010
0000
0001
0100
,
0010
0000
1000
0000
0101
0000
1000
0000
0010
0000
1000
0000
0101
0000
1000
0100
,
0010
0000
0001
0000
1100
0000
0001
0000
0010
0000
0001
0000
1100
0000
0001
0010
,
0100
1000
0001
0010
0100
1000
0010
1000
0010
0100
0010
1000
0001
1000
0100
0010
,
0001
1000
0100
0010
0100
1000
0001
0100
0010
0100
0001
1000
0010
0100
0001
1000
,
0010
1000
0001
0100
0010
1000
0100
1000
0100
0010
0100
1000
0001
1000
0010
0100
,
M001
M010
M100
M010
M001
M010
M100
M010
M001
M010
M100
M010
M001
M100
M001
M100
,
M020
M000
000M
M000
000M
M000
000M
M000
,
000M
0000
0000
0000
M000
0000
0000
0000
000M
0000
0000
0000
0000
0000
M000
0000
0000
0000
000M
0000
0000
0000
0000
M000
0000
0000
0000
0000
0000
000M
0000
0000
,
0000
0000
M000
0000
0000
0000
0000
000M
0000
0000
0000
0000
M000
0000
0000
0000
0000
0000
000M
0000
0000
0000
0000
0000
M000
0000
0000
0000
0000
0000
0000
0000
,
0000
000M
0000
0000
0000
0000
0000
0000
0000
M000
0000
0000
0000
0000
0000
0000
000M
0000
0000
0000
0000
0000
0000
0000
M000
0000
0000
0000
0000
0000
0000
0000
,
000M
M000
000M
M000
,
0000
000M
0000
0000
0000
M000
0000
0000
0000
0000
000M
0000
0000
0000
0000
0000
,
M000
0000
0000
0000
0000
000M
0000
0000
0000
0000
M000
0000
0000
0000
0000
0000
,
000M
0000
0000
0000
0000
0000
M000
0000
0000
0000
0000
000M
0000
0000
0000
M000
,
0000
0000
0000
0000
000M
0000
0000
0000
0000
M000
0000
0000
0030
0000
0000
0000
;

//---------------dance-single - I. Pyles----------------
#NOTES:
     dance-single:
     I. Pyles:
     Challenge:
     14:
     1.000,1.000,0.370,0.308,1.000,2526.000,125.000,104.000,170.000,3.000:

0000
0000
0000
0000
,
MMMM
M0MM
00MM
00MM
000M
000M
000M
000M
,
000M
0000
MM00
0000
,
00MM
0000
MM00
0000
,
00MM
0000
0000
0000
0000
0000
0000
0000
0000
0000
0000
0000
0000
0000
0000
0000
MM00
0000
0000
0000
0000
0000
0000
0000
0000
0000
0000
0000
0000
0000
M000
0M00
,
00M0
0000
MM00
0000
,
00MM
0000
MM00
0000
,
00MM
0000
MM00
0000
,
00MM
0000
MM00
0000
,
0001
0010
0100
0100
0001
0200
0300
0000
,
M000
0M00
00M0
0000
000M
00M0
0M00
0000
,
M000
0000
0M00
0000
20M0
0000
0000
0000
0M00
0000
00M0
0000
000M
3000
0000
0000
,
000M
0000
00M0
0000
0M02
0000
0000
0000
00M0
0000
0M00
0000
M000
0003
0000
0000
,
1000
0000
0001
0100
0010
0000
0100
0001
,
0010
0000
0000
0000
0100
0000
0020
0000
0000
0030
0010
0000
0000
0000
1000
0000
,
0010
0000
0010
0000
0100
0001
0010
0100
,
1000
0000
0000
0000
0001
0000
0200
0000
0000
0300
0100
0000
0000
0000
0000
0000
,
0001
0100
0010
1000
0001
0100
0001
0100
0010
1000
0100
1000
0001
1000
0010
0100
,
0001
0100
0001
0100
0010
1000
0001
1000
0001
0010
0001
0010
0100
1000
0001
1000
,
0001
0100
0001
0100
0010
1000
0001
1000
0001
0010
0001
0010
0100
1000
0001
1000
,
0001
0100
0001
0100
0010
1000
0001
1000
0001
0010
0001
0010
0100
1000
0001
1000
,
0001
0010
0100
1000
0100
1000
0001
0100
0010
1000
0010
1000
0001
0010
0100
0010
,
0001
1000
0001
1000
0100
0010
0001
0010
0001
1000
0001
1000
0010
0100
0010
1000
,
0001
1000
0001
1000
0100
0010
0001
0010
0001
1000
0001
1000
0010
0100
0010
1000
,
0001
1000
0001
1000
0100
0010
0001
0010
0001
1000
0001
1000
0010
0100
0010
1000
,
0001
0010
0100
1000
0001
0010
0001
0010
0100
1000
0010
1000
0001
1000
0100
0010
,
0001
0010
0001
0010
0100
1000
0001
1000
0001
0100
0001
0100
0010
1000
0001
1000
,
0001
0010
0001
0010
0100
1000
0001
1000
0001
0100
0001
0100
0010
1000
0001
1000
,
0001
0010
0001
0010
0100
1000
0001
1000
0001
0100
0001
0100
0010
1000
0001
1000
,
0001
0100
0010
1000
0010
1000
0001
0010
0100
1000
0100
1000
0001
0100
0010
0100
,
0001
1000
0001
1000
0010
0100
0001
0100
0001
1000
0001
1000
0100
0010
0100
1000
,
0001
1000
0001
1000
0010
0100
0001
0100
0001
1000
0001
1000
0100
0010
0100
1000
,
0001
1000
0001
1000
0010
0100
0001
0100
0001
1000
0001
1000
0100
0010
0100
1000
,
0001
0100
0001
0100
0010
1000
0010
1000
0010
1000
0010
0100
0010
0100
0010
0100
,
0001
0010
0001
0010
0100
1000
0100
1000
0100
1000
0100
0010
0100
0010
0100
0010
,
0001
1000
0100
1000
0001
0010
0100
0010
0001
0100
0010
0100
0001
1000
0001
0100
,
0001
1000
0100
1000
0001
0010
0100
0010
0001
0100
0010
0100
0001
1000
0001
0100
,
0010
1000
0010
1000
0001
0100
0001
0100
0001
0100
0010
0100
0010
0100
0010
0100
,
0001
0010
0001
0010
0100
1000
0100
1000
0100
1000
0100
0010
0100
0010
0100
0010
,
0001
0100
0001
0100
0010
1000
0010
1000
0010
1000
0100
0010
0100
0010
0100
0010
,
0001
0100
0001
0100
0001
0100
0001
0100
0010
1000
0010
1000
0010
1000
0010
1000
,
0001
0010
0001
0010
0100
1000
0100
1000
0100
1000
0100
0010
0100
0010
0100
0010
,
0001
0100
0001
0100
0010
1000
0010
1000
0010
1000
0010
0100
0010
0100
0010
0100
,
0001
1000
0010
1000
0001
0100
0010
0100
0001
0010
0100
0010
0001
1000
0001
0010
,
0001
1000
0010
1000
0001
0100
0010
0100
0001
0010
0100
0010
0001
1000
0001
0010
,
0100
1000
0100
1000
0001
0010
0001
0010
0001
0010
0100
0010
0100
0010
0100
0010
,
0001
0100
0001
0100
0010
1000
0010
1000
0010
1000
0010
0100
0010
0100
0010
0100
,
0000
0000
0000
MMMM
0000
0000
0000
0000
2000
0000
0000
0000
0001
0000
0000
0000
3001
0000
0000
0000
0020
0000
0000
0000
0100
0000
0000
0000
0130
0000
0000
0000
,
2000
0010
0010
3000
0200
0001
0001
0300
,
1000
0010
1000
0010
0100
0001
0100
0001
0100
0001
0100
0010
0100
0010
0100
0010
,
1000
0100
1000
0100
0010
0001
0010
0001
0010
0001
0010
0100
0010
0100
0010
0100
,
1000
0001
0010
0001
1000
0100
0010
0100
1000
0010
0100
0010
1000
0001
1000
0010
,
1000
0001
0010
0001
1000
0100
0010
0100
1000
0010
0100
0010
1000
0001
1000
0010
,
0100
0001
0100
0001
1000
0010
1000
0010
1000
0010
0100
0010
0100
0010
0100
0010
,
1000
0100
1000
0100
0010
0001
0010
0001
0010
0001
0010
0100
0010
0100
0010
0100
,
1000
0010
1000
0010
0100
0001
0100
0001
0100
0001
0010
0100
0010
0100
0010
0100
,
1000
0010
1000
0010
1000
0010
1000
0010
0100
0001
0100
0001
0100
0001
0100
0001
,
0020
0000
0000
0000
0000
0000
0000
0000
0000
0000
0000
0000
0000
0000
0000
0000
0000
0000
0000
0000
0000
0000
0000
0000
0000
0000
0000
0000
0030
0000
000M
00M0
,
0M00
0000
MM00
0000
,
00MM
0000
MM00
0000
,
00MM
0000
MM00
0000
,
00MM
0000
MM00
0000
,
00MM
0000
0000
0000
0000
0000
0000
0000
0000
0000
0000
0000
0000
0000
0000
0000
0000
0000
0000
0000
0000
MM00
0000
0000
0000
0000
0000
0000
0000
0000
0000
0000
,
0000
0000
0000
0000
0000
0000
0000
0000
0000
00MM
0000
0000
0000
0000
0000
0000
,
0000
0000
0000
0000
,
0000
0000
0000
MM00
0000
0000
0000
0000
0000
0000
0000
0000
0000
0000
0000
0000
0000
0000
0000
0000
0000
0000
0000
0000
0000
0000
0000
0000
0000
0000
0000
0000
,
0000
0000
0000
0000
,
0000
0000
0000
00MM
0000
0000
0000
0000
,
0000
0000
0000
0000
,
0000
0000
0000
0000
0000
MM00
0000
0000
,
0000
0000
0000
0000
,
1001
0000
0101
0000
,
1001
0000
1100
0000
,
1001
0000
0101
0000
,
1001
0000
1100
0000
,
1001
0000
0010
0000
2022
3033
0010
0000
,
1001
0000
0100
0000
2202
3303
0100
0000
,
1001
0000
0010
0000
2022
3033
0010
0000
,
1001
1001
1001
0000
,
1001
0000
1010
0000
,
1001
0000
0011
0000
,
1001
0000
1010
0000
,
1001
0000
0011
0000
,
1000
0100
0010
2000
3002
2003
3002
0103
,
0010
0100
0010
0002
0203
0302
2003
3020
,
0130
0001
0100
2000
3002
0023
0032
0103
,
0010
0100
0010
0002
0023
0230
2300
3000
,
0000
0000
0000
0000
,
1000
1000
1000
1000
,
1000
1000
1000
1000
,
1000
1000
1000
1000
,
0001
0010
0100
0002
2003
3002
2003
3010
,
0100
0010
0100
2000
3020
2030
3002
0203
,
0310
1000
0010
0002
2003
3200
2300
3010
,
0100
0010
0100
2000
3200
0320
0032
0003
,
1000
0100
1000
0100
1000
0100
1000
0100
,
0010
0100
0010
0100
0010
0100
0010
0100
,
1000
0001
0100
0001
0010
0001
1000
0100
0010
0001
0010
0001
1000
0001
0010
0001
,
1000
0000
0100
0000
0010
0000
0001
0000
0000
1000
0000
0000
0001
0000
0100
0000
0010
0000
1000
0000
0000
0001
0000
0000
1000
0000
0100
0000
0010
0000
0001
0000
0000
1000
0000
0000
0001
0000
0100
0000
0010
0000
1000
0000
0000
0000
0000
0000
,
1001
0000
0001
0000
1010
0000
0010
1000
0001
0000
0020
0000
0100
0000
0130
1000
,
0001
0000
0100
0000
1001
0000
0001
0100
0010
0000
0200
0000
0010
0000
0310
1000
,
0001
0000
0010
0000
1100
0000
0100
1000
0010
0000
0200
0000
0001
0000
0301
0010
,
0100
0000
1000
0000
0011
0000
0010
0001
0100
0000
0020
0000
1000
0000
1030
0000
,
0001
0010
0100
1000
0001
0100
0010
0100
0001
0100
0010
1000
0010
0100
0010
1000
,
0100
0010
0001
1000
0100
1000
0001
1000
0100
0010
0001
1000
0001
0010
0001
1000
,
0001
0100
0010
1000
0001
0010
0100
0010
0001
0010
0100
1000
0100
0010
0100
1000
,
0010
0100
0001
1000
0010
1000
0001
1000
0010
0100
0001
1000
0001
0100
0001
1000
,
0100
0000
0010
0000
1001
0000
0001
1000
0010
0000
0200
0000
0001
0000
0301
1000
,
0100
0000
0010
0000
1100
0000
0100
1000
0001
0000
0200
0000
0010
0000
0310
0100
,
0001
0000
0010
0000
1001
0000
1000
0001
0010
0000
0200
0000
1000
0000
1300
0001
,
0100
0000
0010
0000
0101
0000
0100
0010
1000
0000
0020
0000
0100
0000
0100
0030
,
0010
1000
0001
1000
0010
0100
0010
1000
0001
0010
0100
1000
0001
0010
0001
1000
,
0010
0100
0010
1000
0001
0100
0010
1000
0001
0100
0001
1000
0100
0010
0001
1000
,
0100
1000
0001
1000
0100
0010
0100
1000
0001
0100
0010
1000
0001
0100
0001
1000
,
0100
0010
0100
1000
0001
0010
0100
1000
0001
0100
0010
0100
0010
0100
0001
1000
,
0100
0000
0010
0000
1100
0000
0010
0000
0001
0000
0010
0000
1100
0000
0001
0100
,
0010
0000
1000
0000
0101
0000
1000
0000
0010
0000
1000
0000
0101
0000
1000
0010
,
0100
0000
0001
0000
1010
0000
0001
0000
0100
0000
0001
0000
1010
0000
0001
0010
,
0100
0000
1000
0000
0011
0000
1000
0000
0100
0000
1000
0000
0011
0000
1000
0100
,
0010
0001
1000
0100
0010
0001
0100
0001
0100
0010
0100
0001
1000
0001
0010
0100
,
1000
0001
0010
0100
0010
0001
1000
0010
0100
0010
1000
0001
0100
0010
1000
0001
,
0100
0001
1000
0010
0100
0001
0010
0001
0010
0100
0010
0001
1000
0001
0100
0010
,
1000
0001
0100
0010
0100
0001
1000
0100
0010
0100
1000
0001
0010
0100
1000
0001
,
0010
0000
0100
0000
0011
0000
0100
0000
1000
0000
0100
0000
0011
0000
1000
0010
,
0100
0000
0001
0000
1010
0000
0001
0000
0100
0000
0001
0000
1010
0000
0001
0100
,
0010
0000
1000
0000
0101
0000
1000
0000
0010
0000
1000
0000
0101
0000
1000
0100
,
0010
0000
0001
0000
1100
0000
0001
0000
0010
0000
0001
0000
1100
0000
0001
0010
,
0100
1000
0001
0010
0001
0010
0100
0010
0100
1000
0001
0100
0010
0100
0001
1000
,
0010
1000
0001
0100
0001
0100
0010
0100
0010
1000
0001
0010
0100
0010
0001
0100
,
0001
1000
0010
1000
0100
1000
0001
0010
0100
1000
0100
1000
0001
1000
0100
1000
,
0001
0000
0010
0000
0100
0000
1000
0000
0000
0001
0000
0000
1000
0000
0010
0000
0100
0000
0001
0000
0000
1000
0000
0000
0001
0000
0010
0000
0100
0000
1000
0000
0000
0001
0000
0000
1000
0000
0010
0000
0100
0000
0001
0000
0000
0000
0000
0000
,
1001
0000
0100
0000
1001
0000
1000
0001
0100
0000
0020
0000
1000
0000
1030
0001
,
0010
0000
0100
0000
0011
0000
0010
0001
1000
0000
0020
0000
0100
0000
0130
0010
,
1000
0000
0100
0000
1001
0000
0001
1000
0100
0000
0020
0000
0001
0000
0031
1000
,
0010
0000
0100
0000
1010
0000
0010
0100
0001
0000
0200
0000
0010
0000
0010
0300
,
0100
0001
1000
0001
0100
0010
0100
0001
1000
0100
0010
0001
1000
0100
1000
0001
,
0100
0010
0100
0001
1000
0010
0100
0001
1000
0010
1000
0001
0010
0100
1000
0001
,
0010
0001
1000
0001
0010
0100
0010
0001
1000
0010
0100
0001
1000
0010
1000
0001
,
0010
0100
0010
0001
1000
0100
0010
0001
1000
0010
0100
0001
0100
0010
1000
0001
,
0010
0000
0100
0000
0011
0000
0010
0001
1000
0000
0020
0000
0100
0000
0130
0001
,
1000
0000
0100
0000
1001
0000
1000
0100
0010
0000
0200
0000
0010
0000
0310
0001
,
1000
0000
0010
0000
0101
0000
0100
0001
0010
0000
0200
0000
1000
0000
1300
0010
,
0100
0000
0001
0000
1010
0000
0010
1000
0100
0000
0020
0000
0001
0000
0031
0000
,
1000
0010
0100
0001
1000
0100
0010
0100
1000
0100
0010
0001
0010
0100
0010
0001
,
0100
0010
1000
0001
0100
0001
1000
0001
0100
0010
1000
0001
1000
0010
1000
0001
,
1000
0100
0010
0001
1000
0010
0100
0010
1000
0010
0100
0001
0100
0010
0100
0001
,
0010
0100
1000
0001
0010
0001
1000
0001
0010
0100
1000
0001
1000
0100
1000
0001
,
0010
0000
0100
0000
0011
0000
0100
0000
1000
0000
0100
0000
0011
0000
1000
0010
,
0100
0000
0001
0000
1010
0000
0001
0000
0100
0000
0001
0000
1010
0000
0001
0100
,
0010
0000
1000
0000
0101
0000
1000
0000
0010
0000
1000
0000
0101
0000
1000
0100
,
0010
0000
0001
0000
1100
0000
0001
0000
0010
0000
0001
0000
1100
0000
0001
0010
,
0100
1000
0001
0010
0100
1000
0010
1000
0010
0100
0010
1000
0001
1000
0100
0010
,
0001
1000
0100
0010
0100
1000
0001
0100
0010
0100
0001
1000
0010
0100
0001
1000
,
0010
1000
0001
0100
0010
1000
0100
1000
0100
0010
0100
1000
0001
1000
0010
0100
,
0001
1000
0010
0100
0010
1000
0001
0010
0100
0010
0001
1000
0100
0010
0001
1000
,
0100
0000
0010
0000
1100
0000
0010
0000
0001
0000
0010
0000
1100
0000
0001
0100
,
0010
0000
1000
0000
0101
0000
1000
0000
0010
0000
1000
0000
0101
0000
1000
0010
,
0100
0000
0001
0000
1010
0000
0001
0000
0100
0000
0001
0000
1010
0000
0001
0010
,
0100
0000
1000
0000
0011
0000
1000
0000
0100
0000
1000
0000
0011
0000
1000
0100
,
0010
0001
1000
0100
0010
0001
0100
0001
0100
0010
0100
0001
1000
0001
0010
0100
,
1000
0001
0010
0100
0010
0001
1000
0010
0100
0010
1000
0001
0100
0010
1000
0001
,
0100
0001
1000
0010
0100
0001
0010
0001
0010
0100
0010
0001
1000
0001
0100
0010
,
100M
010M
001M
010M
100M
010M
001M
010M
100M
010M
001M
010M
100M
001M
100M
001M
,
020M
0000
0000
0000
,
0000
0000
0000
0000
,
0000
0000
0000
0000
,
0000
0000
0000
0000
0000
0000
0000
0000
0000
0000
0000
0000
0000
0000
0000
0300
,
M000
0M00
00M0
0000
0000
0000
0000
0000
0000
0000
0000
0000
0000
0000
0000
0000
0000
0000
0000
0000
0000
0000
0000
0000
0000
0000
0000
0000
0000
0000
0000
0000
,
0001
0000
0001
0000
,
0001
0000
0001
0000
,
0001
0000
0001
0000
,
1000
0100
0010
2000
3002
2003
3002
0103
,
0010
0100
0010
0002
0203
0302
2003
3020
,
0130
0001
0100
2000
3002
0023
0032
0103
,
0010
0100
0010
0002
0023
0230
2300
3000
,
0001
0010
0001
0010
0001
0010
0001
0010
,
0100
0010
0100
0010
0100
0010
0100
0010
,
0001
1000
0010
1000
0100
1000
0001
0010
0100
1000
0100
1000
0001
1000
0100
1000
,
0001
0000
0010
0000
0100
0000
1000
0000
0000
0001
0000
0000
1000
0000
0010
0000
0100
0000
0001
0000
0000
1000
0000
0000
0001
0000
0010
0000
0100
0000
1000
0000
0000
0001
0000
0000
1000
0000
0010
0000
0100
0000
0001
0000
0000
0000
0000
0000
,
1001
0000
1000
0000
0101
0000
0100
0001
1000
0000
0200
0000
0010
0000
0310
0001
,
1000
0000
0010
0000
1001
0000
1000
0010
0100
0000
0020
0000
0100
0000
0130
0001
,
1000
0000
0100
0000
0011
0000
0010
0001
0100
0000
0020
0000
1000
0000
1030
0100
,
0010
0000
0001
0000
1100
0000
0100
1000
0010
0000
0200
0000
0001
0000
0301
0000
,
1000
0100
0010
0001
1000
0010
0100
0010
1000
0010
0100
0001
0100
0010
0100
0001
,
0010
0100
1000
0001
0010
0001
1000
0001
0010
0100
1000
0001
1000
0100
1000
0001
,
1000
0010
0100
0001
1000
0100
0010
0100
1000
0100
0010
0001
0010
0100
0010
0001
,
0100
0010
1000
0001
0100
0001
1000
0001
0100
0010
1000
0001
1000
0010
1000
0001
,
0010
0000
0100
0000
1001
0000
1000
0001
0100
0000
0020
0000
1000
0000
1030
0001
,
0010
0000
0100
0000
0011
0000
0010
0001
1000
0000
0020
0000
0100
0000
0130
0010
,
1000
0000
0100
0000
1001
0000
0001
1000
0100
0000
0020
0000
0001
0000
0031
1000
,
0010
0000
0100
0000
1010
0000
0010
0100
0001
0000
0200
0000
0010
0000
0010
0300
,
0100
0001
1000
0001
0100
0010
0100
0001
1000
0100
0010
0001
1000
0100
1000
0001
,
0100
0010
0100
0001
1000
0010
0100
0001
1000
0010
1000
0001
0010
0100
1000
0001
,
0010
0001
1000
0001
0010
0100
0010
0001
1000
0010
0100
0001
1000
0010
1000
0001
,
0010
0100
0010
0001
1000
0100
0010
0001
1000
0010
0100
0010
0100
0010
1000
0001
,
0010
0000
0100
0000
0011
0000
0100
0000
1000
0000
0100
0000
0011
0000
1000
0010
,
0100
0000
0001
0000
1010
0000
0001
0000
0100
0000
0001
0000
1010
0000
0001
0100
,
0010
0000
1000
0000
0101
0000
1000
0000
0010
0000
1000
0000
0101
0000
1000
0100
,
0010
0000
0001
0000
1100
0000
0001
0000
0010
0000
0001
0000
1100
0000
0001
0010
,
0100
1000
0001
0010
0100
1000
0010
1000
0010
0100
0010
1000
0001
1000
0100
0010
,
0001
1000
0100
0010
0100
1000
0001
0100
0010
0100
0001
1000
0010
0100
0001
1000
,
0010
1000
0001
0100
0010
1000
0100
1000
0100
0010
0100
1000
0001
1000
0010
0100
,
0001
1000
0010
0100
0010
1000
0001
0010
0100
0010
0001
1000
0100
0010
0001
1000
,
0100
0000
0010
0000
1100
0000
0010
0000
0001
0000
0010
0000
1100
0000
0001
0100
,
0010
0000
1000
0000
0101
0000
1000
0000
0010
0000
1000
0000
0101
0000
1000
0010
,
0100
0000
0001
0000
1010
0000
0001
0000
0100
0000
0001
0000
1010
0000
0001
0010
,
0100
0000
1000
0000
0011
0000
1000
0000
0100
0000
1000
0000
0011
0000
1000
0100
,
0010
0001
1000
0100
1000
0100
0010
0100
0010
0001
1000
0010
0100
0010
1000
0001
,
0100
0001
1000
0010
1000
0010
0100
0010
0100
0001
1000
0100
0010
0100
1000
0010
,
1000
0001
0100
0001
0010
0001
1000
0100
0010
0001
0010
0001
1000
0001
0010
0001
,
1000
0000
0100
0000
0010
0000
0001
0000
0000
1000
0000
0000
0001
0000
0100
0000
0010
0000
1000
0000
0000
0001
0000
0000
1000
0000
0100
0000
0010
0000
0001
0000
0000
1000
0000
0000
0001
0000
0100
0000
0010
0000
1000
0000
0000
0000
0000
0000
,
1001
0000
0010
0000
1001
0000
0001
1000
0010
0000
0200
0000
0001
0000
0301
1000
,
0100
0000
0010
0000
1100
0000
0100
1000
0001
0000
0200
0000
0010
0000
0310
0100
,
0001
0000
0010
0000
1001
0000
1000
0001
0010
0000
0200
0000
1000
0000
1300
0001
,
0100
0000
0010
0000
0101
0000
0100
0010
1000
0000
0020
0000
0100
0000
0100
0030
,
0010
1000
0001
1000
0010
0100
0010
1000
0001
0010
0100
1000
0001
0010
0001
1000
,
0010
0100
0010
1000
0001
0100
0010
1000
0001
0100
0001
1000
0100
0010
0001
1000
,
0100
1000
0001
1000
0100
0010
0100
1000
0001
0100
0010
1000
0001
0100
0001
1000
,
0100
0010
0100
1000
0001
0010
0100
1000
0001
0100
0010
1000
0010
0100
0001
1000
,
0100
0000
0010
0000
1100
0000
0100
1000
0001
0000
0200
0000
0010
0000
0310
1000
,
0001
0000
0010
0000
1001
0000
0001
0010
0100
0000
0020
0000
0100
0000
0130
1000
,
0001
0000
0100
0000
1010
0000
0010
1000
0100
0000
0020
0000
0001
0000
0031
0100
,
0010
0000
1000
0000
0101
0000
0100
0001
0010
0000
0200
0000
1000
0000
1300
0000
,
0001
0100
0010
1000
0001
0010
0100
0010
0001
0010
0100
1000
0100
0010
0100
1000
,
0010
0100
0001
1000
0010
1000
0001
1000
0010
0100
0001
1000
0001
0100
0001
1000
,
0001
0010
0100
1000
0001
0100
0010
0100
0001
0100
0010
1000
0010
0100
0010
1000
,
0100
0010
0001
1000
0100
1000
0001
1000
0100
0010
0001
1000
0001
0010
0001
1000
,
0100
0000
0010
0000
1100
0000
0010
0000
0001
0000
0010
0000
1100
0000
0001
0100
,
0010
0000
1000
0000
0101
0000
1000
0000
0010
0000
1000
0000
0101
0000
1000
0010
,
0100
0000
0001
0000
1010
0000
0001
0000
0100
0000
0001
0000
1010
0000
0001
0010
,
0100
0000
1000
0000
0011
0000
1000
0000
0100
0000
1000
0000
0011
0000
1000
0100
,
0010
0001
1000
0100
0010
0001
0100
0001
0100
0010
0100
0001
1000
0001
0010
0100
,
1000
0001
0010
0100
0010
0001
1000
0010
0100
0010
1000
0001
0100
0010
1000
0001
,
0100
0001
1000
0010
0100
0001
0010
0001
0010
0100
0010
0001
1000
0001
0100
0010
,
1000
0001
0100
0010
0100
0001
1000
0100
0010
0100
1000
0001
0010
0100
1000
0001
,
0010
0000
0100
0000
0011
0000
0100
0000
1000
0000
0100
0000
0011
0000
1000
0010
,
0100
0000
0001
0000
1010
0000
0001
0000
0100
0000
0001
0000
1010
0000
0001
0100
,
0010
0000
1000
0000
0101
0000
1000
0000
0010
0000
1000
0000
0101
0000
1000
0100
,
0010
0000
0001
0000
1100
0000
0001
0000
0010
0000
0001
0000
1100
0000
0001
0010
,
0100
1000
0001
0010
0100
1000
0010
1000
0010
0100
0010
1000
0001
1000
0100
0010
,
0001
1000
0100
0010
0100
1000
0001
0100
0010
0100
0001
1000
0010
0100
0001
1000
,
0010
1000
0001
0100
0010
1000
0100
1000
0100
0010
0100
1000
0001
1000
0010
0100
,
M001
M010
M100
M010
M001
M010
M100
M010
M001
M010
M100
M010
M001
M100
M001
M100
,
M020
M000
000M
M000
000M
M000
000M
M000
,
000M
0000
0000
0000
M000
0000
0000
0000
000M
0000
0000
0000
0000
0000
M000
0000
0000
0000
000M
0000
0000
0000
0000
M000
0000
0000
0000
0000
0000
000M
0000
0000
,
0000
0000
M000
0000
0000
0000
0000
000M
0000
0000
0000
0000
M000
0000
0000
0000
0000
0000
000M
0000
0000
0000
0000
0000
M000
0000
0000
0000
0000
0000
0000
0000
,
0000
000M
0000
0000
0000
0000
0000
0000
0000
M000
0000
0000
0000
0000
0000
0000
000M
0000
0000
0000
0000
0000
0000
0000
M000
0000
0000
0000
0000
0000
0000
0000
,
000M
M000
000M
M000
,
0000
000M
0000
0000
0000
M000
0000
0000
0000
0000
000M
0000
0000
0000
0000
0000
,
M000
0000
0000
0000
0000
000M
0000
0000
0000
0000
M000
0000
0000
0000
0000
0000
,
000M
0000
0000
0000
0000
0000
M000
0000
0000
0000
0000
000M
0000
0000
0000
M000
,
0000
0000
0000
0000
000M
0000
0000
0000
0000
M000
0000
0000
0030
0000
0000
0000
;
