#TITLE:Fantasy Impromptu;
#SUBTITLE:;
#ARTIST:DM Ashura vs. Chopin;
#TITLETRANSLIT:;
#SUBTITLETRANSLIT:;
#ARTISTTRANSLIT:;
#CREDIT:;
#BANNER:Fantasy Impromptu - banner.jpg;
#BACKGROUND:Fantasy Impromptu - bg.jpg;
#LYRICSPATH:;
#CDTITLE:pfx - icon.png;
#MUSIC:Fantasy Impromptu.mp3;
#OFFSET:-0.036;
#SAMPLESTART:88.450;
#SAMPLELENGTH:12.000;
#SELECTABLE:YES;
#BPMS:0.000=168.000,232.000=176.000,248.000=179.999,312.000=189.999;
#STOPS:;
#BGCHANGES:;
// cache tags:
#FIRSTBEAT:0.000;
#LASTBEAT:356.000;
#SONGFILENAME:Songs/IzzySM Keyboard Mega Pack/Fantasy Impromptu/Final Impromptu.sm;
#HASMUSIC:1;
#HASBANNER:1;
#MUSICLENGTH:127.378;
// end cache tags

//---------------dance-single - ----------------
#NOTES:
     dance-single:
     :
     Hard:
     10:
     1.000,1.000,0.141,0.455,1.000,982.000,18.000,58.000,0.000,0.000:  // measure 1
1000
1000
0011
1000
1000
1000
0110
0001
,  // measure 2
0001
0001
1100
0010
0010
0010
1001
0100
,  // measure 3
0011
1000
0110
0001
1100
0010
0101
1000
,  // measure 4
0110
0001
1010
0100
0011
1000
0110
0001
,  // measure 5
1001
0100
0010
0100
1000
0001
0010
0100
0010
0001
1000
0100
0010
0001
0100
0010
,  // measure 6
0000
0001
0010
0100
0010
0001
1000
0100
0010
0100
1000
0001
0010
0100
1000
0010
,  // measure 7
0000
1000
0010
0100
0010
1000
0010
0100
0001
0010
0100
1000
0001
0010
0100
1000
,  // measure 8
0001
0100
0010
1000
0001
0100
0010
1000
0001
1000
0010
0100
0001
1000
0010
0100
,  // measure 9
0000
1000
0100
0010
0001
0010
0100
1000
0001
0010
0100
1000
0100
0010
0001
1000
,  // measure 10
0000
0001
0010
0100
1000
0100
0010
0001
1000
0100
0010
0001
0010
0100
1000
0001
,  // measure 11
0010
0001
0010
0100
1000
0010
0100
0001
0100
0010
1000
0100
0010
0001
1000
0100
,  // measure 12
0010
0001
0010
0100
1000
0100
0010
0001
0010
0001
0010
0100
1000
0100
1000
0100
,  // measure 13
0010
0001
0010
0000
0100
1000
0100
0000
0010
0100
0010
0000
1000
0100
1000
0000
,  // measure 14
0001
1000
0001
1000
0100
1000
0001
0010
0001
1000
0100
1000
0010
0100
0010
0000
,  // measure 15
1000
0100
1000
0000
0001
0010
0001
0000
0100
0010
0100
0000
1000
0001
1000
0000
,  // measure 16
0001
0010
0001
0100
0010
0100
1000
0001
1000
0010
0100
0010
1000
0100
1000
0000
,  // measure 17
0010
0100
0010
0000
1000
0100
1000
0000
0001
0100
0001
0000
1000
0001
1000
0000
,  // measure 18
1000
0100
1000
0001
0010
0001
0100
0010
0100
0001
1000
0001
0010
0100
0010
0000
,  // measure 19
1000
0001
1000
0000
0100
0010
0100
0000
0001
0010
0001
0010
0100
1000
0100
1000
,  // measure 20
0001
0010
0001
0010
0100
1000
0100
1000
0100
1000
0100
1000
0100
1000
0100
1000
,  // measure 21
0001
0100
0010
0100
0001
0100
0010
1000
0100
1000
0010
1000
0100
1000
0010
0100
,  // measure 22
0001
0100
0010
0100
0001
0100
0001
0010
0100
0010
0001
0010
0100
0010
0001
0000
,  // measure 23
0001
0100
0010
0100
0001
0100
0010
1000
0100
1000
0010
1000
0100
1000
0010
0100
,  // measure 24
0001
0100
0010
0100
0001
0100
0001
0010
0100
0010
0001
0010
0100
0010
0001
0000
,  // measure 25
0000
0100
1000
0010
1000
0100
0010
0001
0010
0100
0010
0001
0100
0010
0100
0001
,  // measure 26
0000
0010
0001
0100
0001
0010
0100
1000
0100
0010
0100
1000
0010
0100
0010
1000
,  // measure 27
0000
1000
0100
0010
0001
1000
0100
0010
0001
0010
0100
1000
0001
0010
0100
1000
,  // measure 28
0001
0100
0010
1000
0001
0100
0010
1000
0001
0010
0100
1000
0001
0010
0100
1000
,  // measure 29
0000
1000
0001
0100
0010
1000
0001
0100
0001
0100
0001
1000
0010
0100
0001
1000
,  // measure 30
0001
1000
0001
0100
0010
1000
0010
0100
0010
0100
0010
1000
0100
0010
0001
1000
,  // measure 31
0000
0001
1000
0010
0100
0001
1000
0010
1000
0010
1000
0001
0100
0010
1000
0001
,  // measure 32
1000
0001
1000
0010
0100
0001
0100
0010
0100
0010
0100
0001
0010
0100
1000
0100
,  // measure 33
1000
0001
0010
0001
0010
0001
0010
0100
1000
0001
0010
0100
1000
0001
0010
0100
,  // measure 34
1000
0010
0100
0001
0010
0100
1000
0001
0010
0100
1000
0001
0010
0100
1000
0000
,  // measure 35
1001
0000
0001
0010
0100
1000
0001
0010
0100
1000
0001
0010
0100
1000
0001
0010
,  // measure 36
0100
1000
0001
0100
0010
1000
0001
0100
0010
1000
0001
0100
0010
1000
0001
0100
,  // measure 37
0010
1000
0000
0001
0010
0001
0010
0100
1000
0100
1000
0010
0100
0010
0100
0001
,  // measure 38
1000
0001
1000
0100
0010
0100
0010
0001
0100
0001
0100
0010
1000
0010
1001
0100
,  // measure 39
0001
0100
0010
0100
0010
1000
0010
0000
1000
0100
1000
0000
0001
0010
0001
0000
,  // measure 40
1000
0001
1000
0000
0010
0100
0010
0000
1000
0100
1000
0000
0001
0010
0001
0000
,  // measure 41
1000
0100
1000
0100
1000
0100
0010
0001
0010
0100
1000
0001
0010
0100
1000
0001
,  // measure 42
1000
0100
1000
0100
1000
0100
0010
0001
0010
0100
1000
0001
0010
0100
1000
0000
,  // measure 43
2002
0000
0000
0000
0003
0000
3000
0000
0002
0003
2000
3000
0020
0030
0200
0300
,  // measure 44
0002
0000
0000
0003
0020
0000
0000
0000
,  // measure 45
0032
0000
0000
0000
0023
0000
0000
0000
0230
0000
0000
0000
0320
0000
0030
0001
,  // measure 46
2000
0000
0000
0000
0000
3000
0000
0000
0200
0000
0000
0000
0000
0000
0000
0000
,  // measure 47
0000
0000
0000
0000
0000
0000
0300
0000
0020
0030
0002
0003
2000
3000
0200
0300
,  // measure 48
0020
0032
0023
0230
,  // measure 49
2300
0000
0000
0000
3001
0100
0001
1000
0020
0000
0000
0000
0000
0000
1030
0000
,  // measure 50
2000
0000
0000
0000
,  // measure 51
3002
0000
0000
0000
0000
0000
0000
0000
1003
0000
0000
1000
0100
0000
0000
0010
,  // measure 52
0002
0000
0000
0000
0023
0000
0000
0000
0000
0000
0031
1000
0010
0100
0001
1000
,  // measure 53
0020
0000
0000
0000
0000
0000
0030
1000
0100
0000
0000
0100
0010
0000
0000
0010
,  // measure 54
0002
0000
0000
0003
0000
0000
0000
0000
2000
0000
0000
0000
0000
0000
0000
0000
,  // measure 55
0000
0000
0000
0000
0000
0000
3000
0000
0002
0003
0200
0300
0020
0030
2000
3000
,  // measure 56
0002
0203
0320
2030
,  // measure 57
3002
0000
0000
0003
1000
0010
0100
0001
0020
0000
0000
0000
0000
0000
0031
0000
,  // measure 58
0002
0000
0000
0000
0000
0000
0000
0003
,  // measure 59
1000
0001
0010
0001
1000
0010
0100
0010
1000
0001
0010
0001
1000
0010
0100
0010
,  // measure 60
1000
0001
0010
0001
1000
0010
0100
0010
1000
0001
0010
0001
1000
0010
0000
0000
,  // measure 61
0001
1000
0100
1000
0001
0100
0010
0100
0001
1000
0100
1000
0001
0100
0010
0100
,  // measure 62
0001
1000
0100
1000
0001
0100
0010
0100
0001
1000
0100
1000
0001
0100
0000
0000
,  // measure 63
0000
0100
0010
0001
0010
0100
1000
0100
0010
0001
0010
0100
1000
0100
0010
0001
,  // measure 64
0000
0001
0010
0100
1000
0100
0010
0001
0010
0100
1000
0100
0010
0001
0010
0100
,  // measure 65
0000
1000
0001
1000
0010
1000
0100
0010
0001
0010
0100
1000
0001
0010
0100
1000
,  // measure 66
0001
0100
0010
1000
0001
0100
0010
1000
0001
0010
0100
1000
0001
0010
0100
1000
,  // measure 67
0000
1000
0001
0100
0010
1000
0001
0100
0001
0100
0001
1000
0010
0100
0001
1000
,  // measure 68
0001
1000
0001
0100
0010
1000
0010
0100
0010
0100
0010
1000
0100
0010
0001
1000
,  // measure 69
0000
0001
1000
0010
0100
0001
1000
0010
1000
0010
1000
0001
0100
0010
1000
0001
,  // measure 70
1000
0001
1000
0010
0100
0001
0100
0010
0100
0010
0100
0001
0010
0100
1000
0001
,  // measure 71
0000
1000
0100
1000
0001
0010
0100
1000
0001
0010
0100
1000
0001
0010
0100
1000
,  // measure 72
0010
0100
0010
0100
0001
0010
0100
1000
0001
0010
0100
1000
0001
0010
0100
1000
,  // measure 73
0001
0000
0001
0010
0100
1000
0001
0010
0100
1000
0001
0010
0100
1000
0001
0010
,  // measure 74
0100
1000
0001
0010
0100
1000
0001
0010
0100
1000
0001
0100
0010
1000
0001
0100
,  // measure 75
0010
1000
0000
0000
0000
0001
0010
0001
0010
0100
1000
0100
1000
0010
0100
0010
,  // measure 76
0100
0001
1000
0001
1000
0100
0010
0100
0010
0001
0100
0001
0100
0010
1000
0010
,  // measure 77
1001
0100
0001
0100
0010
0100
0010
0000
0010
1000
0010
0000
0100
0001
0100
0000
,  // measure 78
0010
0100
0010
0000
1000
0001
1000
0000
0001
0010
0001
0000
1000
0010
1000
0000
,  // measure 79
0002
0000
0000
0000
,  // measure 80
0000
0000
0000
0000
,  // measure 81
2003
0000
0000
0000
,  // measure 82
3020
0230
0302
2003
,  // measure 83
3200
0000
0000
0000
,  // measure 84
0320
0000
0000
0000
,  // measure 85
0032
0000
0023
0000
,  // measure 86
0230
0000
2300
3200
,  // measure 87
0320
0000
0000
0000
,  // measure 88
0000
0000
0000
0000
0000
0000
0000
0030
,  // measure 89
2002
0000
0000
0000
,  // measure 90
3003
0000
0000
0000
;
