#TITLE:Charging Swarm Of Mousketeers;
#SUBTITLE:;
#ARTIST:Nero's Day At Disneyland;
#TITLETRANSLIT:;
#SUBTITLETRANSLIT:;
#ARTISTTRANSLIT:;
#CREDIT:;
#BANNER:../fallback - bn.png;
#BACKGROUND:../fallback - bg.png;
#LYRICSPATH:;
#CDTITLE:;
#MUSIC:Charging Swarm Of Mousketeers.ogg;
#OFFSET:-0.656;
#SAMPLESTART:44.358;
#SAMPLELENGTH:12.000;
#SELECTABLE:YES;
#DISPLAYBPM:225.000;
#BPMS:0.000=225.000,120.000=900.000,120.500=28.125,120.563=225.000,128.000=337.500,130.000=225.000,137.500=450.000,137.750=112.500,137.875=225.000,138.000=337.500,138.500=225.000,152.000=337.500,156.000=225.000,202.000=337.500,203.500=225.000,284.000=112.500,292.000=225.000,300.000=112.500,304.000=225.480;
#STOPS:128.000=0.044
,128.500=0.044
,129.000=0.045
,129.500=0.044
,138.000=0.044
,152.000=0.044
,152.500=0.044
,153.000=0.045
,153.500=0.044
,154.000=0.044
,154.500=0.044
,155.000=0.045
,155.500=0.044
,202.000=0.044
,202.500=0.044
,203.000=0.044
;
#BGCHANGES:;
// cache tags:
#FIRSTBEAT:9.500;
#LASTBEAT:360.000;
#SONGFILENAME:Songs/Beast Aoreo BEAST!/Charging Swarm of Mousketeers - [Aoreo]/Charging.sm;
#HASMUSIC:1;
#HASBANNER:1;
#MUSICLENGTH:103.641;
// end cache tags

//---------------dance-single - J. Nero----------------
#NOTES:
     dance-single:
     J. Nero:
     Challenge:
     14:
     1.000,1.000,0.502,0.328,0.632,694.000,52.000,34.000,27.000,0.000:
0000
0000
0000
0000
,
0000
0000
0000
0000
,
0000
0000
0000
MMMM
0000
0000
0000
0000
,
MMMM
0000
0000
MMMM
,
0000
0000
0000
0000
,
1001
0000
0001
0010
0100
1000
0010
0100
,
0001
0010
0100
1000
0010
0100
0001
1000
,
1001
0000
0001
0100
0010
1000
0100
0010
,
0001
0000
0100
0000
0010
0000
1000
0000
0001
0000
0100
0000
0001
1000
0001
1000
,
0101
1000
0001
1000
0001
0010
0100
1000
0100
1000
0100
1000
0100
0010
0001
0100
,
0010
1000
0001
0100
0010
1000
0100
1000
0100
0010
0001
0100
0001
1000
0001
1000
,
0101
1000
0001
1000
0001
0100
0001
0100
0010
1000
0010
0100
0001
1000
0001
1000
,
0001
0010
0100
1000
0010
0100
0001
1000
0100
1000
0010
0100
0001
1000
0001
1000
,
0011
1000
0001
0100
0040
1000
0000
0130
,
0001
0010
0100
1000
0004
0100
0000
1003
,
0010
0100
0001
0010
0200
1000
0320
0100
,
0031
0010
0100
1000
0001
0001
0001
0001
,
0100
0010
1000
0100
0040
0001
0000
0130
,
0010
0100
1000
0010
0400
0001
0000
0310
,
1000
0100
1000
0001
0200
0010
2300
0001
,
3010
0100
1000
0010
0100
0100
0100
0100
,
0002
0003
2000
3000
0200
0300
2000
3001
,
0010
0000
0000
0000
0000
0000
0100
0000
0000
0000
0000
0000
1000
0000
0000
0000
0000
0000
0001
0000
0000
0000
0000
0000
1000
0000
0000
0001
0000
0000
1000
0000
0000
0001
0000
0000
1000
0000
0001
0000
1000
0000
0001
0000
1000
0000
0001
0000
,
2000
3000
0002
0003
0020
0030
0200
0300
,
2000
3000
0020
0030
0200
0300
0002
0003
,
1001
1000
0010
0100
0004
0010
0000
0103
,
0010
1000
0100
0010
0004
0100
0000
1003
,
1010
0010
0100
0001
0020
0100
2030
0010
,
3100
0000
0001
0000
0010
0000
0100
0000
1000
0001
1000
0000
0001
0000
0100
0000
,
0040
0000
0030
0000
4000
0000
3004
0000
0003
0000
0400
0000
0310
1000
0010
0100
,
0002
0000
0003
0000
1000
0100
0010
0100
1000
0010
0100
0001
0010
0100
0010
0001
,
0100
0000
0000
0000
0001
0010
0001
0000
0100
0000
0001
0010
0100
0000
1000
0000
,
0001
1000
0010
0100
0001
1000
1000
1000
,
0010
0000
0100
0000
0001
0000
0010
0000
0100
0000
1000
0001
1000
0000
0001
0000
,
0100
0010
1000
0004
0103
0100
0010
1000
,
0001
0010
0100
1000
0100
1000
0010
0100
0001
0000
0101
0000
0000
0000
0000
0000
,
0100
0000
0000
0110
0000
0000
0000
0000
0000
0000
0000
0000
0010
0000
0000
0000
1000
0000
0020
0000
0000
0000
0030
0000
,
0100
0001
0010
0100
1000
0010
0100
0001
,
1000
1000
0010
0010
0100
0100
0001
0001
,
0010
0100
1000
0010
0100
0001
1000
0001
,
0100
0010
1000
0001
2002
3003
0000
0000
,
0004
0000
0103
0000
0001
0010
0100
0010
0001
0000
4000
0000
3001
0100
0010
1000
,
0100
0000
1000
0000
0010
0000
0100
0001
0100
0001
0010
0100
1000
0010
0100
0001
,
1000
1000
0010
0010
0100
0100
0001
0001
,
0010
0000
0010
0000
0100
0000
0100
0000
1000
0001
1000
0001
1000
0001
1000
0001
,
1000
0000
0000
0001
1000
0100
1000
0010
,
0100
0100
0100
0100
0100
0001
0001
0001
,
0001
0010
0100
1000
0010
0000
0000
0000
0110
0000
0000
0000
0100
0000
0000
0000
,
0101
0000
0001
0000
0010
0000
0010
0000
0100
1000
0100
1000
0100
1000
0001
1000
,
0001
0010
0100
1000
0010
0000
0000
0000
0110
0000
0000
0000
0100
0000
0000
0000
,
0101
0001
0010
0100
1000
0010
1000
0001
,
0100
0001
0100
0001
0100
0000
0000
0000
0101
0000
0000
0000
0010
0000
0000
0000
,
1100
0000
1000
0000
0010
0000
0010
0000
0100
0010
0100
0001
0010
0100
1000
0010
,
0200
0000
0320
0000
2030
0000
0000
3002
0000
0000
0000
0000
,
0023
0000
0000
0000
0000
0230
0000
0000
0000
2300
0000
3000
,
1001
0000
0001
0100
0010
1000
0100
0010
,
0001
0010
0100
1000
0010
0100
0001
1000
,
1001
0000
0001
0100
0010
1000
0100
0010
,
0001
0000
0100
0000
0010
0000
1000
0000
0100
0000
0010
0000
0100
1000
0100
1000
,
0101
1000
0100
1000
0100
0010
0100
0010
0001
0010
0001
0010
0001
0100
0001
0100
,
0001
0100
0001
0100
0010
1000
0010
1000
0001
1000
0001
1000
0100
1000
0100
1000
,
0101
1000
0100
1000
0001
0100
0001
0100
0010
1000
0010
0100
0001
1000
0001
1000
,
0001
0010
0100
1000
0010
0100
0001
1000
0100
1000
0010
0100
0001
1000
0001
1000
,
0011
1000
0001
0100
0040
1000
0000
0130
,
0001
0010
0100
1000
0004
0100
0000
1003
,
0010
0100
0001
0010
0200
1000
0320
0100
,
0031
0010
0100
1000
0001
0001
0001
0001
,
0100
0010
1000
0100
0040
0001
0000
0130
,
0010
0100
1000
0010
0400
0001
0000
0310
,
1000
0100
1000
0001
0200
0010
2300
0001
,
3010
0100
1000
0010
0100
0100
0100
0100
,
0001
0101
0110
1010
,
1100
0000
0100
0000
0010
0001
0100
0001
,
1MM1
0000
1000
0001
0010
0100
1000
0010
,
0100
0001
1000
0100
1000
0010
0100
0001
,
2000
0000
000M
00M0
0M00
00M0
000M
0M00
00M0
000M
0M00
000M
00M0
0M00
000M
0000
,
3010
0110
0100
1001
,
0001
0010
0100
1000
0010
0100
0001
1000
,
1100
0100
0011
0001
,
1001
0000
0000
0000
1000
0000
0010
0100
0010
0000
0100
0000
0001
0000
1000
0000
,
0100
0100
1000
1000
0010
0010
0100
0100
,
0001
0001
0010
0010
0100
0100
1000
1000
,
1010
0010
0101
1000
,
0110
0000
0000
0000
0010
0000
0100
0001
0100
0000
0001
0000
0010
0000
0100
0000
,
1000
1000
0010
0010
0100
0100
0001
0001
,
1000
1000
0010
0010
0100
0100
0001
0001
,
0011
0010
0110
0100
,
1100
0000
0000
0000
0100
0000
1000
0100
1000
0000
0010
0000
0100
0000
0001
0000
,
0100
0100
0010
0010
1000
1000
0001
0001
,
0100
0100
0010
0010
0100
0100
0001
0001
,
1001
0000
0000
0000
;
