#TITLE:The One-7-D's;
#SUBTITLE:(T.X.R);
#ARTIST:D.T.L;
#TITLETRANSLIT:;
#SUBTITLETRANSLIT:;
#ARTISTTRANSLIT:;
#CREDIT:RevenG v. Desire, Tatsh, CJ Crew feat. Christian D;
#BANNER:;
#BACKGROUND:The One-7-D's - BG.PNG;
#LYRICSPATH:;
#CDTITLE:;
#MUSIC:The 170.MP3;
#OFFSET:-0.060;
#SAMPLESTART:100.000;
#SAMPLELENGTH:12.000;
#SELECTABLE:YES;
#BPMS:0.000=170.000;
#STOPS:;
#BGCHANGES:;
// cache tags:
#FIRSTBEAT:16.000;
#LASTBEAT:344.000;
#SONGFILENAME:Songs/toune 6/The One-7-D's/The 170.sm;
#HASMUSIC:1;
#HASBANNER:0;
#MUSICLENGTH:122.174;
// end cache tags

//---------------dance-single - ----------------
#NOTES:
     dance-single:
     :
     Challenge:
     10:
     0.709,0.774,0.458,0.090,0.454,539.000,56.000,11.000,0.000,0.000:
0000
0000
0000
0000
,
0000
0000
0000
0000
,
0000
0000
0000
0000
,
0000
0000
0000
0000
,
0010
0100
0000
0000
0010
0000
1000
0000
0000
0000
0100
0000
0001
0000
0001
0000
,
1000
0100
0000
0000
1000
0000
0001
0000
0000
0000
0010
0000
0100
0000
0100
0000
,
0001
0010
0000
0000
0001
0000
0100
0000
0000
0000
0010
0000
1000
0000
1000
0000
,
0100
0010
0000
0000
0100
0000
1000
0000
0000
0000
0010
0000
0001
0000
0001
0000
,
1000
0100
0000
0000
1000
0000
0010
0000
0000
0000
0100
0000
1000
0000
1000
0000
,
0010
0001
0000
0000
0010
0000
1000
0000
0000
0000
0100
0000
0010
0000
0010
0000
,
0001
0100
0001
0100
1000
0010
0001
0010
,
0000
1000
0100
0001
0100
1000
0100
1000
,
0000
0010
0001
0100
1000
0010
1000
0010
,
0000
0100
0101
0000
1010
1000
0011
0100
,
0002
0010
0000
0103
0010
1000
0010
0100
,
0020
0001
0000
0130
1000
0100
0010
0001
,
0200
1000
0000
0310
1000
0100
1000
0001
,
2000
0100
0000
3010
0001
0100
0010
0100
,
0001
0000
0000
0010
0001
0000
0000
0000
0110
0000
0000
0000
1010
0000
0000
0100
,
0001
0000
0000
0000
0000
0000
0000
0000
0000
0010
0000
0000
0100
0000
0000
0000
0000
0000
0000
0000
0000
0000
0000
0000
1001
0000
0000
0000
0000
0000
0000
0000
0000
0010
0000
0000
0001
0000
0000
0000
0000
0000
0000
0000
0100
0000
0000
0000
,
1010
0000
0000
0000
0011
0000
0000
0100
1000
0000
0000
0000
0101
0000
0000
0100
,
0010
0000
0000
1000
0100
0000
0000
0000
0101
0000
0000
0000
1100
0000
0000
0010
,
0100
0000
0000
0000
0000
0000
0000
0000
0000
0000
0000
0000
0011
0000
0000
0000
0000
0000
0000
0000
0000
0000
0000
0000
1010
0000
0000
0000
0000
0000
0000
0000
0000
0100
0000
0000
0010
0000
0000
0000
0000
0000
0000
0000
1000
0000
0000
0000
,
0101
0000
0000
0000
0000
0000
0000
0000
0000
0010
0000
0000
1000
0000
0000
0000
0000
0000
0000
0000
0000
0010
0000
0000
0001
0000
0000
0000
0000
0000
0000
0000
0000
0000
0000
0000
1001
0000
0000
0000
0000
0000
0000
0000
0001
0000
0000
0000
,
0110
0000
0000
0000
0000
0000
0000
0000
0000
0010
0000
0000
0001
0000
0000
0000
0000
0000
0000
0000
0000
0000
0000
0000
1001
0000
0000
0000
0000
0000
0000
0000
0000
0010
0000
0000
1000
0000
0000
0000
0000
0000
0000
0000
0010
0000
0000
0000
,
0101
0000
0000
0000
0000
0000
0000
0000
0000
0010
0000
0000
0100
0000
0000
0000
0000
0000
0000
0000
0000
0010
0000
0000
0001
0000
0000
0000
0000
0000
0000
0000
0000
0001
0000
0000
1000
0000
0000
0000
0000
0000
0000
0000
0010
0000
0000
0000
,
1001
0000
0000
0000
0101
0000
0000
0000
0110
0000
0000
0000
1100
0000
0000
0010
,
1000
0000
0000
0000
0000
0000
0000
0000
0000
0000
0000
0000
0101
0000
0000
0000
0000
0000
0000
0000
0000
0010
0000
0000
0100
0000
0000
0000
0000
0000
0000
0000
0000
1000
0000
0000
0001
0000
0000
0000
0000
0000
0000
0000
1000
0000
0000
0000
,
0101
0000
0000
0000
0000
0000
0000
0000
0000
0000
0000
0000
0011
0000
0000
0000
0000
0000
0000
0000
0000
0100
0000
0000
1000
0000
0000
0000
0000
0000
0000
0000
0000
0010
0000
0000
0001
0000
0000
0000
0000
0000
0000
0000
0010
0000
0000
0000
,
0101
0100
1000
0010
0100
0001
0010
0001
,
1000
0000
0000
0000
0110
0000
0000
0000
0001
0000
1000
0100
0000
0010
0001
0000
,
0100
0000
1001
0000
0010
0010
1000
1000
,
0001
0000
0000
0000
0110
0000
0000
0000
1000
0000
0001
0100
0000
0010
1000
0000
,
0100
0000
0000
0000
1001
0000
0000
0000
0010
1000
0000
0001
0000
1000
0000
0001
,
0100
0000
0000
0000
1001
0000
0000
0000
0010
0000
0001
0100
0000
0010
1000
0000
,
0001
0000
0000
0000
0110
0000
0000
0000
1000
0100
0000
0010
0000
0100
0000
0010
,
0001
0000
1000
0000
0001
0000
0010
0100
0000
1000
0010
0000
0100
0000
0100
0000
,
0001
1000
0001
0000
0010
0000
0100
0000
1000
0000
0100
0000
0010
0000
0001
0000
,
1000
0001
1000
0000
0100
0000
0010
0000
0001
0000
0010
0000
0100
0000
1000
0000
,
0010
0100
0010
0000
0100
0010
0100
0000
0001
1000
0001
0000
1000
0001
1000
0000
,
0020
0100
0001
0130
,
1010
0011
1001
0110
,
0200
0001
1000
0310
,
0011
1001
0110
1010
,
0001
0100
1000
0100
0001
0100
0010
0100
,
0001
0010
0001
0100
1000
0100
0001
0010
,
0100
0010
0001
1000
0001
0010
1000
0100
,
1000
0010
0100
1000
0100
0010
0100
0010
,
0100
0100
1000
1000
0001
0001
0010
0010
,
0100
0000
0000
1000
0000
0000
0001
0000
0000
0010
0000
0000
2000
0000
0002
0000
,
0000
0000
3003
0000
,
0010
0000
1000
0000
0100
0000
0001
0000
0100
0000
1000
0000
0010
0000
0100
0010
,
0001
0000
0100
0000
1000
0000
0100
0000
0001
0000
0010
0000
0100
0000
1000
0100
,
0010
0000
0000
0000
,
1001
0000
0000
0000
0010
0010
0010
0000
,
0001
1000
0001
0000
0100
0000
0010
0000
1000
0001
1000
0000
0010
0000
0100
0000
,
0001
0010
0001
0000
0100
0000
1000
0000
0100
0010
0100
0000
0010
0000
0001
0000
,
0000
0100
0000
0010
0000
1000
0000
0020
,
0000
0000
0000
0000
0000
0000
0000
0030
,
0000
1001
1001
0000
0010
0100
1000
0000
,
0101
0000
0000
0000
0000
0000
1000
0100
0010
0000
0100
0000
0001
0000
0000
0000
,
0000
0000
0000
0000
0000
0000
0100
0010
0100
0000
0000
0000
0011
0000
0000
0000
,
1001
0000
0000
0000
0100
0100
0100
0000
,
0010
0001
0010
0100
1000
0100
1000
0010
,
0100
0001
0010
1000
0010
0001
0100
1000
,
0010
0100
0010
0100
0001
1000
0001
2000
,
0000
0000
0000
0000
0000
0000
0000
3020
,
0000
0000
0000
0000
0000
0000
0000
0030
,
1001
0000
0000
0011
0000
1000
0100
0001
,
0010
0000
0000
0010
0001
0000
0000
0001
1000
0000
0000
1000
0010
0000
0000
0000
,
0110
0000
0000
1100
0000
0001
0010
0100
,
0010
0000
0000
0010
0001
0000
0000
0001
0100
0000
0000
0100
1000
0000
0000
0000
,
1010
0000
0000
0011
0000
0100
1000
0010
,
0100
0000
0000
0100
0001
0000
0000
0001
0010
0000
0000
0010
0100
0000
0000
0000
,
1100
0000
0000
1001
0000
0010
0001
0100
,
0010
0000
0000
0010
1000
0000
0000
1000
0100
0000
0000
0100
0001
0000
0000
0000
,
1000
0100
0010
0001
0010
0100
1000
0010
1000
0010
1000
0010
,
1000
0000
0000
1000
0010
0000
0000
0010
0001
0000
0000
0001
0100
0000
0000
0100
,
0010
0000
0000
1100
0000
0010
0001
0100
,
0010
0000
0000
0010
0001
0000
0000
0001
0100
0000
0000
0100
0010
0000
0000
0000
,
0001
0010
0100
1000
0100
0010
0001
0100
0001
0100
0001
0100
,
0001
0000
0000
0001
1000
0000
0000
1000
0100
0000
0000
0100
0010
0000
0000
0010
,
0001
0000
0000
1010
0000
0100
1000
0010
,
0100
0000
0001
0000
0100
0000
1000
0010
0000
0010
1000
0000
0000
0000
0000
0000
,
0100
0000
1000
0000
0010
0000
0100
0001
0000
0001
0100
0000
0000
0000
0000
0000
,
0010
0000
0100
0000
1000
0000
0001
0010
0000
0010
0001
0000
0000
0000
1000
0000
,
0010
0000
0000
0000
;
