#TITLE:V35;
#SUBTITLE:;
#ARTIST:tiger YAMATO;
#TITLETRANSLIT:;
#SUBTITLETRANSLIT:;
#ARTISTTRANSLIT:;
#CREDIT:;
#BANNER:V35-bn.png;
#BACKGROUND:V35-bg.png;
#LYRICSPATH:;
#CDTITLE:!ExigeTitle.png;
#MUSIC:v35.mp3;
#OFFSET:-0.395;
#SAMPLESTART:40.816;
#SAMPLELENGTH:12.000;
#SELECTABLE:YES;
#BPMS:0.000=148.000,224.000=148.000;
#STOPS:;
#BGCHANGES:;
// cache tags:
#FIRSTBEAT:0.000;
#LASTBEAT:292.000;
#SONGFILENAME:Songs/Keyboard Collaboration II/Exige - V35/V35.sm;
#HASMUSIC:1;
#HASBANNER:1;
#MUSICLENGTH:121.025;
// end cache tags

//---------------dance-single - ----------------
#NOTES:
     dance-single:
     :
     Hard:
     12:
     1.000,1.000,1.000,0.083,1.000,824.000,180.000,10.000,0.000,1.000:  // measure 1
0011
0100
0010
0000
0001
1000
0100
0000
0001
0010
0100
0000
0001
1000
0100
0000
,  // measure 2
0001
0110
1000
0000
0001
1000
0010
0000
1000
0100
0001
0000
0010
0100
1000
0000
,  // measure 3
0011
0100
0001
0000
0100
0010
1000
0000
0010
1000
0100
0000
1000
0100
0010
0000
,  // measure 4
1001
0010
0100
0000
0010
1000
0010
0000
0011
0100
1000
0000
1001
0010
0100
0000
,  // measure 5
1001
0000
0000
0011
0000
0000
0101
0000
0000
0000
0011
0000
0000
1001
0000
0000
,  // measure 6
0011
0000
0000
1001
0000
0000
1010
0000
0000
0000
1100
0000
0000
1001
0000
0000
,  // measure 7
0011
0000
0000
0101
0000
0000
1001
0000
0000
0000
0011
0000
0000
0101
0000
0000
,  // measure 8
0011
0000
0000
1100
0000
0000
0110
0000
0000
0000
1001
0000
0000
0011
0000
0000
,  // measure 9
0101
0000
0001
0010
0000
0010
0100
0000
0100
0000
0010
0000
1000
0000
0100
0000
,  // measure 10
1001
0000
0000
0000
0000
0000
1000
0000
0000
0100
0000
0000
0000
0000
0000
0010
0000
0000
0001
0000
0000
0000
0000
0000
0001
0000
0000
0000
0000
0000
1000
0000
0000
0000
0000
0000
0001
0000
0000
0000
0000
0000
0010
0000
0100
0000
0000
0000
,  // measure 11
1001
0000
0001
0100
0000
0100
1000
0000
0100
0000
1100
0000
0001
1000
0101
0010
,  // measure 12
1001
0000
0000
0010
0000
0000
1100
0000
0000
0001
0000
0000
1000
0000
0000
0001
0000
0000
1100
0000
0000
0010
0000
0000
0001
0000
0000
0100
0000
0000
0001
0000
0000
0010
0000
0000
0001
0000
0000
0010
0000
0000
1000
0000
0100
0000
0010
0000
,  // measure 13
1001
0010
0100
0000
1000
0010
1000
0000
0100
0001
0010
0000
0001
0010
1000
0010
,  // measure 14
0100
0000
0000
0001
0000
0000
1000
0000
0000
0010
0000
0000
0001
0000
0000
1000
0000
0000
0010
0000
0000
0001
0000
0000
0010
0000
0000
1000
0000
0000
0100
0000
0000
0001
0000
0000
0010
0000
0000
0001
0000
0000
1000
0000
0010
0000
0000
0000
,  // measure 15
0001
1000
0010
0001
1000
0001
0010
0001
1000
0010
0001
1000
0100
0010
1000
0010
,  // measure 16
0100
0000
0000
0010
0000
0000
0001
0000
0000
1000
0000
0000
0001
0000
0000
0010
0000
0000
0001
0000
0000
0100
0000
0000
0010
0000
0000
0100
0000
0000
1000
0000
0000
0100
0000
0000
1000
0000
0100
0000
0010
0000
0001
0000
1000
0000
0100
0000
,  // measure 17
0020
0000
0001
0000
0000
0001
0000
0001
,  // measure 18
0002
0030
0000
0000
0100
0000
0000
0000
0000
0000
0100
0000
0000
0000
0100
0000
,  // measure 19
0200
0003
0000
0000
1000
0000
0000
0000
0000
0000
1000
0000
0000
0000
1000
0000
,  // measure 20
2000
0300
0000
0000
0001
0000
0000
0000
0000
0000
0001
0000
0000
0000
0001
0000
,  // measure 21
0002
3000
0000
0000
0100
0000
0000
0000
0000
0000
0100
0000
0000
0000
0100
0000
,  // measure 22
0200
0003
0000
0000
0001
0000
0000
0000
0000
0000
0001
0000
0000
0000
0001
0000
,  // measure 23
0002
0300
0000
0000
0100
0000
0000
0000
0000
0000
0100
0000
0000
0000
0100
0000
,  // measure 24
1203
0000
0000
0000
0000
0000
0000
0000
0000
0001
0000
0000
0010
0000
0000
0000
0000
0000
0000
0000
0000
0010
0000
0000
0301
0000
0000
0000
0000
0000
0000
0000
0000
0100
0000
0000
1000
0000
0001
0000
1000
0000
0001
0000
0010
0000
0100
0000
,  // measure 25
0010
0000
0010
0100
0000
0100
0010
0000
0010
0000
0100
0010
0000
1000
0010
0000
,  // measure 26
0100
0000
1000
0100
0000
0100
0010
0000
0011
0000
0101
0010
0000
0110
1000
0000
,  // measure 27
0110
0000
1001
0100
0000
0010
1001
0000
0101
0000
1100
0001
0000
1001
0100
0000
,  // measure 28
1001
0000
1010
0100
0000
1010
0100
0000
0011
0000
1100
0010
0000
0001
1010
0000
,  // measure 29
0101
0000
0011
1000
0000
0011
0100
0000
1010
0000
0001
0000
1100
0000
0010
0000
,  // measure 30
1001
0000
0000
0011
0000
0000
1001
0000
0100
0000
0011
0000
0100
0000
1010
0000
,  // measure 31
1001
0000
0001
1000
0001
0100
0001
0010
0001
0100
0001
1000
0001
0010
0001
0010
,  // measure 32
0100
1000
0001
0010
0100
1000
0001
0010
0100
1000
0001
0010
0100
1000
0001
0010
0100
0010
0001
1000
0100
0010
0001
1000
0100
0010
0001
1000
0100
0010
0001
1000
,  // measure 33
0100
0000
0010
0100
0000
0100
0010
0000
1000
0000
0001
1000
0000
0001
1000
0000
,  // measure 34
0001
0000
0001
1000
0000
0100
0001
0000
0011
0000
1001
0100
0000
0011
1000
0000
,  // measure 35
1100
0000
0110
0001
0000
0100
0011
0000
1100
0000
1001
0010
0000
0011
0100
0000
,  // measure 36
0011
0000
0101
1000
0000
1001
0010
0000
1001
0000
0110
1000
0000
1000
0011
0000
,  // measure 37
0110
0000
1010
0001
0000
1001
0010
0000
0011
0000
1000
0000
1100
0000
0010
0000
,  // measure 38
1001
0000
0000
0011
0000
0000
0110
0000
1000
0000
0110
0000
1000
0000
0101
0000
,  // measure 39
0011
0100
1000
0010
0100
1000
0001
0010
0100
1000
0010
0100
1000
0100
0010
0100
,  // measure 40
0010
0001
1000
0100
0010
0001
1000
0100
0010
0001
1000
0100
0010
0001
1000
0100
0010
0100
1000
0001
0010
0100
1000
0001
0010
0100
1000
0001
0010
0100
1000
0001
,  // measure 41
0010
0100
1000
0001
0010
0100
0010
0001
1000
0010
0001
1000
0010
0100
0001
0010
,  // measure 42
0100
1000
0001
0010
0001
1000
0010
0001
0010
0100
0001
0010
0100
0001
1000
0010
,  // measure 43
0001
0100
0001
1000
0100
0010
1000
0010
0100
0001
0100
0010
0001
1000
0010
0100
,  // measure 44
0010
0001
1000
0010
0100
0010
1000
0100
1000
0001
0010
0001
1000
0100
1000
0100
,  // measure 45
0010
0100
0010
0001
0010
0001
0010
0100
1000
0010
0100
0001
0010
0001
0010
0100
,  // measure 46
1000
0001
1000
0010
0100
0001
1000
0010
0100
0001
1000
0010
0001
0100
0010
0001
,  // measure 47
1000
0001
1000
0001
0010
0100
1000
0001
1000
0001
1000
0100
0010
0001
1000
0001
,  // measure 48
1000
0000
0100
0000
0010
0000
0100
0000
0010
0000
0100
0000
0010
0000
0100
0000
0010
0000
0001
0000
1000
0000
0100
0000
0010
0001
0010
0100
1000
0001
0010
0100
,  // measure 49
1000
0100
1000
0000
0100
0010
0100
0000
0001
0010
0001
0000
1000
0001
1000
0000
,  // measure 50
0001
0100
0001
0000
0010
0100
0001
0000
1000
0010
0001
0000
0001
0010
1000
0000
,  // measure 51
0100
0001
0010
0000
1000
0010
0001
0000
1000
0001
0010
0000
1000
0100
0001
0000
,  // measure 52
0001
0100
1000
0000
0001
0010
1000
0000
1000
0010
0001
0000
0010
1000
0010
0000
,  // measure 53
0001
0100
1000
0100
1000
0001
0010
0100
1000
0010
0100
0010
0001
0010
1000
0001
,  // measure 54
0010
0100
0010
0100
0010
1000
0001
0010
0000
0001
1000
0100
0001
0100
1000
0010
,  // measure 55
0001
1000
0001
0010
0100
0010
0001
1000
0001
0010
0001
0100
1000
0001
0010
0001
,  // measure 56
1000
0100
0010
0001
0010
0100
0010
1000
0010
0100
0001
1000
0010
0100
0010
0100
,  // measure 57
0001
0000
0010
0100
0000
0100
0010
0000
1000
0000
0001
1000
0000
0001
1000
0000
,  // measure 58
0001
0000
0001
1000
0000
0100
0001
0000
0011
0000
1001
0100
0000
0011
1000
0000
,  // measure 59
1100
0000
0110
0001
0000
0100
0011
0000
1100
0000
1001
0010
0000
0011
0100
0000
,  // measure 60
0011
0000
0101
1000
0000
1001
0010
0000
1001
0000
0110
1000
0000
1000
0011
0000
,  // measure 61
0110
0000
1010
0001
0000
1001
0010
0000
0011
0000
1000
0000
1100
0000
0001
0000
,  // measure 62
1001
0000
0000
0011
0000
0000
0110
0000
1000
0000
0110
0000
0010
0000
0101
0000
,  // measure 63
0011
0000
0000
0110
0000
0000
1001
0000
0010
0000
0110
0000
1000
0000
0110
0000
,  // measure 64
0011
0100
0001
1000
0100
0010
1000
0010
0001
0010
0100
0001
0010
1000
0001
0100
,  // measure 65
1001
0000
0011
1100
0000
0101
1010
0000
1001
0000
1100
0011
0000
0110
1001
0000
,  // measure 66
0011
0000
1010
0101
0000
1001
0110
0000
1010
0000
1010
0101
0000
0110
1001
0000
,  // measure 67
0011
0000
0011
1100
0000
1010
0101
0000
0101
0000
0110
1001
0000
0101
1010
0000
,  // measure 68
1010
0000
0110
1001
0000
1001
0110
0000
0011
0000
1001
0110
0000
1100
0011
0000
,  // measure 69
1001
0000
1010
1100
0000
0101
0110
0000
0101
0000
1000
0000
0101
0000
0010
0000
,  // measure 70
1001
0000
0000
0101
0000
0000
0011
0000
1000
0000
0101
0000
0010
0000
1100
0000
,  // measure 71
1000
1000
1000
0000
0100
0100
0100
0000
0010
0010
0010
0000
0001
0001
0001
0000
,  // measure 72
1001
0011
1010
1100
1001
1100
1010
1001
,  // measure 73
2002
0000
0000
0000
,  // measure 74
3003
0000
0000
0000
;
