#TITLE:K8107;
#SUBTITLE:;
#ARTIST:Onoken;
#TITLETRANSLIT:;
#SUBTITLETRANSLIT:;
#ARTISTTRANSLIT:;
#CREDIT:;
#BANNER:K8107.png;
#BACKGROUND:K8107 Background.png;
#LYRICSPATH:;
#CDTITLE:2kM Index.png;
#MUSIC:k8107.mp3;
#OFFSET:-0.050;
#SAMPLESTART:30.706;
#SAMPLELENGTH:12.000;
#SELECTABLE:YES;
#BPMS:0.000=180.000;
#STOPS:;
#BGCHANGES:;
// cache tags:
#FIRSTBEAT:4.000;
#LASTBEAT:351.000;
#SONGFILENAME:Songs/Fresh Flock of Fantastic Files F4/(2kM) K8107/k8107.sm;
#HASMUSIC:1;
#HASBANNER:1;
#MUSICLENGTH:119.894;
// end cache tags

//---------------dance-single - ----------------
#NOTES:
     dance-single:
     :
     Challenge:
     10:
     1.000,1.000,0.867,0.000,1.000,816.000,104.000,0.000,0.000,0.000:
0000
0000
0000
0000
,
1000
1000
0000
0000
1000
1000
0001
0001
,
1000
1000
0000
0000
1000
1000
0000
0000
,
0001
0001
0000
0000
0001
0001
1000
1000
,
0001
0001
0000
0000
0001
0001
0000
0000
,
1000
0100
1000
0100
0011
0100
1000
0100
,
1000
0100
1000
0100
0011
0100
1000
0100
,
1000
0100
1000
0100
0011
0100
1000
0100
,
1000
0100
1000
0100
0011
0100
1000
0100
,
0010
0001
0100
0001
1100
0001
0100
0001
,
0100
0001
0100
0001
1100
0001
0100
0001
,
0100
0001
0100
0001
1100
0001
0100
0001
,
0100
0001
0100
0001
1100
0001
0010
0100
,
1000
0000
0000
0100
0000
0000
0010
0000
0000
0000
0001
0000
0000
0000
0010
0000
,
0100
0000
0000
1000
0000
0000
0010
0000
0000
0000
0100
0000
0001
0000
0010
0000
,
0100
0000
0000
1000
0000
0000
0001
0000
0000
0000
0010
0000
0000
0000
0100
0000
,
1000
0000
0000
0100
0000
0000
0010
0000
0000
0000
0001
0000
1000
0000
0000
0000
,
1001
0000
0000
0110
0000
0000
0011
0000
0000
0000
0101
0000
0000
0000
0110
0000
,
1010
0000
0000
1100
0000
0000
0011
0000
0000
0000
0101
0000
1001
0000
0110
0000
,
0101
0000
0000
1100
0000
0000
0011
0000
0000
0000
1010
0000
0000
0000
1100
0000
,
0110
0000
0000
0011
0000
0000
1001
0000
0000
0000
0110
0000
1010
0000
0000
0000
,
1001
0000
0000
0000
,
0000
0000
0000
0000
,
0001
1000
0001
1000
0001
1000
0001
1000
0010
0100
0010
0100
0001
1000
0001
1000
,
0100
1000
0100
1000
0100
1000
0100
1000
0010
0100
0010
0100
0010
1000
0010
1000
,
0001
0100
0001
0100
0001
0100
0001
0100
0010
1000
0010
1000
0001
0100
0001
0100
,
0001
1000
0001
1000
0001
1000
0001
1000
0100
1000
0100
1000
0010
1000
0010
1000
,
0001
1000
0001
1000
0001
1000
0001
1000
0001
0010
0001
0010
0001
0100
0001
0100
,
0010
1000
0010
1000
0010
1000
0010
1000
0001
0100
0001
0100
0001
1000
0001
1000
,
0001
0010
0100
1000
0010
0100
0001
1000
0100
0010
0001
0100
0010
1000
0100
0010
,
0001
1000
0010
0100
0000
0000
1001
0000
,
1000
0001
1000
0001
1000
0001
1000
0001
0100
0010
0100
0010
1000
0001
1000
0001
,
0010
0001
0010
0001
0010
0001
0010
0001
0100
0010
0100
0010
0100
0001
0100
0001
,
1000
0010
1000
0010
1000
0010
1000
0010
0100
0001
0100
0001
1000
0010
1000
0010
,
1000
0001
1000
0001
1000
0001
1000
0001
0010
0001
0010
0001
0100
0001
0100
0001
,
1000
0001
1000
0001
1000
0001
1000
0001
1000
0100
1000
0100
1000
0010
1000
0010
,
0100
0001
0100
0001
0100
0001
0100
0001
1000
0010
1000
0010
1000
0001
1000
0001
,
1000
0100
0010
0001
1000
0100
0010
0001
1000
0100
0010
0100
0010
0001
0010
0100
,
1000
0001
0010
0100
0000
0000
0010
0001
,
0000
0100
0000
1000
0000
0100
0000
0010
,
0000
0100
0000
1000
0000
0001
0000
0100
,
0000
0010
0000
1000
0000
0001
0000
0010
,
0000
1000
0000
0100
0000
0001
0000
0100
,
1001
1001
0000
0000
0000
0000
1001
1001
,
0100
0010
0001
0100
0010
1000
0001
0010
,
1100
1100
0000
0000
0000
0000
1100
1100
,
0010
0001
1000
0010
0100
0001
1000
0010
,
0101
0101
0000
0000
0000
0000
0101
0101
,
1000
0010
0001
0010
1000
0100
0010
0100
,
0011
0011
0000
0000
0000
0000
0011
0011
,
0100
1000
0100
0010
0001
0010
0100
0010
,
1001
1001
0100
0010
0001
0100
1001
1001
,
0100
0000
0000
0010
0000
0000
0001
0000
0000
0000
0010
0000
1000
0000
0010
0000
,
1100
1100
0010
0001
1000
0010
1100
1100
,
0010
0000
0000
0001
0000
0000
1000
0000
0000
0000
0100
0000
0010
0000
1000
0000
,
0101
0101
1000
0001
0100
0010
0101
0101
,
1000
0000
0000
0100
0000
0000
0010
0000
0000
0000
0001
0000
1000
0000
0100
0000
,
0011
0011
0100
1000
0001
0100
0011
0011
,
0100
0000
0000
1000
0000
0000
0010
0000
0000
0000
0100
0000
1001
0000
0010
0000
,
0100
0000
0000
0000
,
1100
0000
0110
0000
0011
0000
1000
0100
0001
0100
1000
0010
0100
0000
0000
0000
,
0011
0000
0110
0000
1100
0000
0001
0100
1000
0100
0001
0010
0100
0000
0000
0000
,
1010
0000
0110
0000
0101
0000
1000
0010
0001
0010
1000
0100
0010
0000
0000
0000
,
0101
0000
0110
0000
1010
0000
0001
0010
1000
0010
0001
0100
0010
0000
0110
0000
,
1001
0000
0101
0000
1010
0000
0010
0001
0010
1000
0100
0001
0100
0000
0000
0000
,
1001
0000
1100
0000
0011
0000
0010
1000
0010
0001
0100
1000
0100
0000
0000
0000
,
1001
0000
1100
0000
0011
0000
0010
1000
0010
0001
0100
1000
0100
0001
0010
1000
,
0010
0001
1000
0010
0001
0010
1000
0001
0100
1000
0100
0001
1000
0010
0100
0000
,
0001
1000
0001
1000
0001
1000
0001
1000
0001
0100
0001
0100
0001
1000
0001
1000
,
0010
1000
0010
1000
0010
1000
0010
1000
0010
0100
0010
0100
0001
1000
0001
1000
,
0001
0100
0001
0100
0001
0100
0001
0100
0010
1000
0010
1000
0010
0100
0010
0100
,
0001
1000
0001
1000
0001
1000
0001
1000
0100
1000
0100
1000
0010
0100
0010
0100
,
0001
1000
0001
1000
0001
1000
0001
1000
0001
0010
0001
0010
0001
0100
0001
0100
,
0010
1000
0010
1000
0010
1000
0010
1000
0001
0100
0001
0100
0001
1000
0001
1000
,
0001
0010
1000
0010
0001
0100
1000
0100
0001
0010
1000
0010
0001
0000
0000
0000
,
0000
0011
0110
1100
1001
0000
1001
0000
,
0001
0100
1000
0100
0001
0010
0100
1000
0010
0001
0010
1000
0010
0100
0001
1000
,
0100
0001
0100
1000
0001
0010
0100
1000
0001
0100
1000
0100
0001
1000
0010
0001
,
0010
1000
0100
0010
0001
0100
0010
1000
0001
0010
1000
0010
0001
1000
0100
0010
,
0100
1000
0001
0100
1000
0100
0001
1000
0010
0001
0010
1000
0100
0010
0001
0100
,
0010
1000
0001
0010
1000
0010
0001
1000
0010
0001
0010
1000
0001
0010
1000
0010
,
0001
1000
0010
0001
0010
1000
0001
0100
1000
0100
0001
1000
0100
0001
0100
1000
,
0001
0100
1000
0100
0001
1000
0100
0001
0100
1000
0010
0100
0001
0000
0000
0000
,
0000
1100
0110
0011
1001
0000
1001
0000
,
1001
0100
0010
0001
,
0100
0010
1000
0100
,
1001
0110
1100
0011
,
1010
0101
0010
1001
;

//---------------dance-single - ----------------
#NOTES:
     dance-single:
     :
     Hard:
     9:
     0.747,0.842,0.117,0.000,0.425,613.000,14.000,0.000,0.000,0.000:
0000
0000
0000
0000
,
1000
0100
0000
0000
1000
0100
0010
0001
,
1000
0100
0000
0000
1000
0100
0000
0000
,
0010
0001
0000
0000
0010
0001
1000
0100
,
0010
0001
0000
0000
0010
0001
0000
0000
,
1000
0100
1000
0100
0010
0000
0001
0010
,
0100
1000
0100
0010
0100
0000
1000
0001
,
0100
0010
1000
0100
0010
0000
0100
1000
,
0100
0010
0001
1000
0001
0100
0010
1000
,
0100
1000
0001
0010
0001
0000
1000
0001
,
0100
0010
0100
0001
1000
0000
0100
0010
,
0001
0010
0100
1000
0001
0000
1000
0001
,
0100
0010
0100
0001
1000
0100
0010
0001
,
1000
0000
0000
0010
0000
0100
0000
0001
,
1000
0000
0000
0100
0000
0010
0100
1000
,
0001
0000
0000
0100
0000
0010
0000
1000
,
0001
0000
0000
0010
0000
0100
0010
0000
,
0001
0000
0000
0100
0000
0000
0010
0000
0000
0000
1000
0000
0000
0000
0100
0000
,
0010
0000
0000
1000
0000
0000
0010
0000
0000
0000
0100
0000
0001
0000
0010
0000
,
0100
0000
0000
1000
0000
0000
0010
0000
0000
0000
0100
0000
0000
0000
0010
0000
,
1000
0000
0000
0001
0000
0000
0010
0000
0000
0000
0001
0000
1000
0000
0000
0000
,
0001
0000
0000
0000
,
0000
0000
0000
0000
,
0001
1000
0001
0000
1000
0000
0001
0000
0100
0010
0100
0000
0001
1000
0001
0000
,
1000
0100
1000
0000
0100
0000
1000
0000
0010
0100
0010
0000
1000
0010
1000
0000
,
0001
0100
0001
0000
0100
0000
0001
0000
1000
0010
1000
0000
0100
0010
0100
0000
,
0010
0001
0010
0000
0001
0000
0010
0000
0100
1000
0100
0000
1000
0001
1000
0000
,
0010
1000
0010
0000
1000
0000
0010
0000
0100
0001
0100
0000
0001
1000
0001
0000
,
1000
0100
1000
0000
0100
0000
1000
0000
0001
0010
0001
0000
1000
0001
1000
0000
,
0001
0100
0010
1000
0100
0010
0001
1000
,
0001
0010
0100
1000
0001
0000
1001
0000
,
1000
0001
1000
0000
0001
0000
1000
0000
0010
0100
0010
0000
1000
0001
1000
0000
,
0001
0010
0001
0000
0010
0000
0001
0000
0100
0010
0100
0000
0001
0100
0001
0000
,
1000
0010
1000
0000
0010
0000
1000
0000
0001
0100
0001
0000
0010
0100
0010
0000
,
0100
1000
0100
0000
1000
0000
0100
0000
0010
0001
0010
0000
0001
1000
0001
0000
,
0100
0001
0100
0000
0001
0000
0100
0000
0010
1000
0010
0000
1000
0001
1000
0000
,
0001
0010
0001
0000
0010
0000
0001
0000
1000
0100
1000
0000
0001
1000
0001
0000
,
1000
0010
0100
0001
0010
0100
1000
0001
,
1000
0100
0010
0001
1000
0000
0001
0100
,
0000
0010
0000
0001
0000
0010
0000
0100
,
0000
0010
0000
0001
0000
1000
0000
0010
,
0000
0100
0000
0001
0000
1000
0000
0100
,
0000
1000
0000
0010
0000
0100
0000
0001
,
1000
1000
0000
0000
0000
0000
0100
0100
,
1000
0001
0100
0010
,
1000
1000
0000
0000
0000
0000
0100
0100
,
0010
0001
1000
0010
,
0100
0100
0000
0000
0000
0000
0001
0001
,
1000
0100
0010
0001
,
1000
1000
0000
0000
0000
0000
0001
0001
,
0010
0100
1000
0010
,
0100
0100
0001
0000
1000
0000
0100
0100
,
0010
0000
0000
0100
0000
0000
1000
0000
0000
0000
0000
0000
0001
0000
0000
0000
,
0100
0100
0010
0000
1000
0000
0100
0100
,
0010
0000
0000
0001
0000
0000
0010
0000
0000
0000
0000
0000
0100
0000
0000
0000
,
1000
1000
0001
0000
0100
0000
0010
0010
,
1000
0000
0000
0100
0000
0000
0010
0000
0000
0000
0000
0000
0001
0000
0000
0000
,
1000
1000
0100
0000
0010
0000
0100
0100
,
1000
0000
0000
0001
0000
0000
0010
0000
0000
0000
0000
0000
1001
0000
0000
0000
,
0000
0000
0000
0000
,
1000
0000
0100
0000
0010
0000
0001
1000
0000
1000
0001
0000
0100
0000
0000
0000
,
0001
0000
0010
0000
0100
0000
1000
0001
0000
0001
1000
0000
0100
0000
0000
0000
,
1000
0000
0001
0000
0100
0000
0010
1000
0000
1000
0100
0000
0010
0000
0000
0000
,
0001
0000
1000
0000
0100
0000
0010
0001
0000
0001
0100
0000
0010
0000
1001
0000
,
0100
0000
0010
0000
0100
0000
0001
1000
0000
1000
0001
0000
0100
0000
0000
0000
,
0010
0000
0100
0000
0010
0000
1000
0001
0000
0001
1000
0000
0100
0000
0000
0000
,
1000
0000
0100
0000
0010
0000
0001
1000
0000
1000
0100
0000
0010
0000
0001
0000
,
0100
0000
0010
0000
1000
0000
0100
0010
0000
0010
0100
0000
1000
0000
0010
0000
,
1000
0001
1000
0000
0001
0000
1000
0000
0010
0100
0010
0000
1000
0001
1000
0000
,
0001
0010
0001
0000
0010
0000
0001
0000
0100
0010
0100
0000
0001
0100
0001
0000
,
1000
0010
1000
0000
0010
0000
1000
0000
0001
0100
0001
0000
0010
0100
0010
0000
,
0100
1000
0100
0000
1000
0000
0100
0000
0010
0001
0010
0000
0001
1000
0001
0000
,
0100
0001
0100
0000
0001
0000
0100
0000
0010
1000
0010
0000
1000
0001
1000
0000
,
0001
0010
0001
0000
0010
0000
0001
0000
1000
0100
1000
0000
0001
1000
0001
0000
,
1000
0010
0100
0001
0010
0100
1000
0001
,
1000
0100
0010
0001
1000
0000
1001
0000
,
0001
1000
0001
0000
0001
0000
0001
0000
1000
0001
1000
0000
1000
0001
1000
0000
,
0010
0100
0010
0000
0010
0000
0010
0000
0100
0010
0100
0000
0100
0010
0100
0000
,
0001
0010
0001
0000
0001
0000
0001
0000
0010
0001
0010
0000
0010
0001
0010
0000
,
0100
1000
0100
0000
0100
0000
0100
0000
1000
0100
1000
0000
1000
0100
1000
0000
,
0001
1000
0001
0000
1000
0000
1000
0000
0001
1000
0001
0000
0001
1000
0001
0000
,
0100
0010
0100
0000
0010
0000
0010
0000
0100
0010
0100
0000
0100
0010
0100
0000
,
0001
0100
0010
1000
0001
0100
0010
1000
0001
0100
0010
1000
0001
0000
0000
0000
,
0000
1001
0100
0010
1001
0000
0100
0000
,
1001
0001
0100
1000
,
0001
0100
0010
0001
,
1010
0101
0011
1100
,
0110
1001
0100
1010
;
