#TITLE:Ridiculous Ravers;
#SUBTITLE:;
#ARTIST:XKirby;
#TITLETRANSLIT:;
#SUBTITLETRANSLIT:;
#ARTISTTRANSLIT:;
#CREDIT:;
#BANNER:../bn.png;
#BACKGROUND:../bg.png;
#LYRICSPATH:;
#CDTITLE:;
#MUSIC:ridiculousravers.ogg;
#OFFSET:-2.343;
#SAMPLESTART:53.435;
#SAMPLELENGTH:24.980;
#SELECTABLE:YES;
#DISPLAYBPM:155.000;
#BPMS:0.000=154.991;
#STOPS:;
#BGCHANGES:;
// cache tags:
#FIRSTBEAT:4.000;
#LASTBEAT:341.250;
#SONGFILENAME:Songs/Cirque du Zonda/Zeph - Ridiculous Ravers/ridiculousravers.sm;
#HASMUSIC:1;
#HASBANNER:1;
#MUSICLENGTH:135.563;
// end cache tags

//---------------dance-single - Zeph - 15.4----------------
#NOTES:
     dance-single:
     Zeph - 15.4:
     Challenge:
     15:
     1.000,1.000,0.229,0.524,1.000,1157.000,31.000,71.000,8.000,0.000:
0000
0000
0000
0000
,
1001
0000
1000
0100
0000
1000
0001
0000
1000
0000
0001
1000
0000
0001
0010
0000
,
0001
0000
0000
0000
0000
0000
0000
0000
0010
0000
0000
0000
0100
0000
0000
0000
0000
0000
0000
0000
0100
0000
0000
0000
1000
0000
0000
0000
0000
0000
0000
0000
0001
0000
0000
0000
0000
0000
0000
0000
2000
3000
0000
0000
0002
0003
0000
0000
0000
0000
0000
0000
2000
3000
0000
0000
0020
0030
0000
0000
0000
0000
0000
0000
,
0100
0000
0001
0100
0000
0001
0010
0000
0100
0000
1000
0100
0000
0100
0010
0000
,
0001
0000
1000
0010
0000
0100
0001
0000
1000
0001
1000
0010
0000
0100
0001
0000
,
1000
0100
0010
0001
1000
0100
0010
0001
0010
0001
1000
0010
0100
0001
0100
0010
,
1000
0001
0010
0001
1000
0100
0010
0001
0100
0010
1000
0010
0100
0001
1000
0001
,
0010
0100
0010
0100
0010
0200
0000
0300
1000
0010
0100
0010
0100
0020
0000
0000
,
1030
0100
0010
0100
0010
0200
0000
0000
1300
0010
0100
0010
0100
0020
0000
0000
,
1030
0100
0010
0001
1000
0010
1000
0001
0100
0010
1000
0001
0010
0001
1000
0100
,
0010
0001
0010
0001
1000
0010
1000
0001
0010
0100
1000
0001
0010
0001
1000
0001
,
0100
0010
1000
0010
0100
0001
1000
0001
2000
3000
0200
0300
0020
0030
0002
0003
,
2002
3003
0000
0000
0011
0000
0000
0000
0110
0000
0000
0000
1100
0000
0000
0000
,
0001
0010
0100
1000
0001
0100
0001
1000
0010
0100
0001
1000
0100
1000
0001
0010
,
0100
1000
0100
1000
0001
0100
0001
1000
0100
0010
0001
1000
0100
1000
0001
1000
,
0010
0100
0001
0100
0010
1000
0001
1000
0002
0003
0020
0030
0200
0300
2000
3000
,
1001
0101
0110
1010
,
1000
0100
1000
0001
1000
0000
0001
0010
0000
0001
1000
0000
0010
0000
0100
0000
,
0001
0010
0001
1000
0001
0000
1000
0100
0000
1000
0001
0000
0100
0000
0010
0000
,
1000
0100
0010
0001
1000
0001
0100
0010
1000
0001
0010
0001
1000
0010
0100
0001
1000
0001
0010
0100
1000
0010
0100
0001
,
1000
0100
0010
0001
1000
0010
0100
0010
1000
0001
0100
0001
1000
0100
0010
0001
1000
0001
0100
0010
1000
0100
0010
0001
,
1000
0100
0010
0001
0100
0010
0100
0010
1000
0100
0010
0001
0100
0010
0100
0010
,
1000
0010
0100
0001
0010
0100
0010
0100
1000
0010
0100
0001
0010
0100
0010
0100
,
4000
3400
0340
0034
,
0403
0340
4030
3004
,
1003
0100
0010
0001
1000
0010
1000
0001
0100
0010
1000
0001
0010
0001
1000
0100
,
0010
0001
0010
0001
1000
0010
1000
0001
0010
0100
1000
0001
0010
0001
1000
0001
,
0100
0010
1000
0010
0100
0001
1000
0001
2000
3000
0200
0300
0020
0030
0002
0003
,
2002
3003
0000
0000
0011
0000
0000
0000
0110
0000
0000
0000
1100
0000
0000
0000
,
1000
0100
0010
0001
1000
0010
1000
0010
0100
0001
0100
0010
1000
0001
0010
0001
,
1000
0100
0010
0100
1000
0001
0100
0001
1000
0010
1000
0001
0100
0010
1000
0001
,
1000
0100
0010
0001
1000
0001
0010
0100
2000
3000
0200
0300
0020
0030
0002
0003
,
1001
0101
0110
1010
,
0001
0010
0100
1000
0001
1000
0100
0010
0001
1000
0100
1000
0001
0100
0001
0001
,
1000
0100
0010
0001
1000
0001
0010
0100
1000
0001
0010
0001
1000
0010
1000
1000
,
0001
0100
0001
1000
0010
1000
0001
0100
0001
1000
0100
0010
0001
1000
0001
0001
,
1000
0010
1000
0001
0100
0001
1000
0010
1000
0001
0010
0100
1000
0001
1000
0000
,
0001
0100
0010
1000
0001
1000
0100
0010
0001
0010
0100
1000
0001
0100
0010
0100
0001
1000
0100
0010
0001
1000
0001
1000
,
0010
0100
0001
1000
0001
0010
0100
1000
0001
0100
0010
1000
0010
0100
0001
1000
0100
1000
0001
0100
0010
1000
0001
1000
,
0001
0010
0100
0010
0001
1000
0010
0100
0001
1000
0100
0010
0001
1000
0001
0100
0001
0010
0001
1000
0100
1000
0010
1000
,
0001
0010
0100
1000
0001
1000
0001
0010
0100
1000
0001
1000
0001
0010
0100
1000
0010
0100
0001
0010
0100
1000
0010
0100
,
0001
1000
0001
0100
0001
1000
0010
1000
0001
0010
0100
1000
0001
1000
0100
0010
,
0001
0100
0001
0100
0010
1000
0001
0010
0001
1000
0100
0010
0001
1000
0010
0100
,
0001
0010
0100
1000
0001
0100
0010
1000
0002
0003
0020
0030
0200
0300
2000
3000
,
1001
1010
0110
0101
,
1000
0001
1000
0010
1000
0001
0100
0001
1000
0100
0010
0001
1000
0001
0010
0100
,
1000
0010
1000
0010
0100
0001
1000
0100
1000
0001
0010
0100
1000
0001
0100
0010
,
1000
0100
0010
0001
1000
0010
0100
0001
2000
3000
0200
0300
0020
0030
0002
0003
,
1001
0101
0110
1010
,
1001
0000
0001
0010
0000
0001
1000
0000
0001
0000
1000
0001
0000
1000
0100
0000
,
1000
0000
0000
0000
0000
0000
0000
0000
0100
0000
0000
0000
0010
0000
0000
0000
0000
0000
0000
0000
0010
0000
0000
0000
0001
0000
0000
0000
0000
0000
0000
0000
1000
0000
0000
0000
0000
0000
0000
0000
0002
0003
0000
0000
2000
3000
0000
0000
0000
0000
0000
0000
0002
0003
0000
0000
0200
0300
0000
0000
0000
0000
0000
0000
,
0010
0000
1000
0010
0000
1000
0100
0000
0010
0000
0001
0010
0000
0010
0100
0000
,
1000
0000
0001
0100
0000
0010
1000
0000
0001
1000
0001
0100
0000
0010
1000
0000
,
1001
0000
0001
0010
0000
0001
1000
0000
0001
0000
1000
0001
0000
1000
0100
0000
,
1000
0000
0000
0000
0000
0000
0000
0000
0100
0000
0000
0000
0010
0000
0000
0000
0000
0000
0000
0000
0010
0000
0000
0000
0001
0000
0000
0000
0000
0000
0000
0000
1000
0000
0000
0000
0000
0000
0000
0000
0002
0003
0000
0000
2000
3000
0000
0000
0000
0000
0000
0000
0002
0003
0000
0000
0200
0300
0000
0000
0000
0000
0000
0000
,
0010
0000
1000
0010
0000
1000
0100
0000
0010
0000
0001
0010
0000
0010
0100
0000
,
1000
0000
0001
0100
0000
0010
1000
0000
0001
1000
0000
0100
0000
0010
0001
0000
,
1001
0000
1000
0000
1001
0000
0001
0000
1000
0010
0100
0010
1000
0100
0010
0001
,
1000
0010
0100
0010
1000
0001
0010
0100
1000
0001
1000
0100
0010
0001
1000
0001
,
1000
0100
0010
0001
0100
0001
0100
0010
M00M
0010
0001
1000
0100
0010
0001
0000
,
1000
0010
0100
0001
0010
0100
0010
0100
M00M
0100
0001
1000
0100
0010
0001
0000
,
1000
0100
1000
0010
0100
0001
1000
0010
M00M
0010
0001
1000
0010
0100
0001
0000
,
1000
0010
1000
0100
1000
0001
0010
0100
M00M
0100
0001
1000
0001
0100
0010
0000
,
2000
3000
0000
0000
0200
0300
0000
0000
2000
3000
0000
0000
0002
0003
0000
0000
2000
3000
0000
0000
0000
0000
0000
0000
0020
0030
0000
0000
0200
0300
0000
0000
0020
0030
0000
0000
2000
3000
0000
0000
0002
0003
0000
0000
0000
0000
0000
0000
2000
3000
0000
0000
0000
0000
0000
0000
0200
0300
0000
0000
0000
0000
0000
0000
,
0020
0030
0000
0000
0000
0000
0000
0000
0002
0003
0000
0000
0000
0000
0000
0000
2000
3000
0000
0000
0000
0000
0000
0000
0020
0030
0000
0000
0000
0000
0000
0000
0200
0300
0000
0000
0000
0000
0000
0000
0002
0003
0000
0000
0000
0000
0000
0000
2000
3000
0000
0000
0000
0000
0000
0000
0002
0003
0000
0000
0000
0000
0000
0000
,
1000
0100
0010
0001
1000
0001
0100
0010
1000
0001
0010
0100
1000
0001
0100
0001
1000
0100
1000
0001
1000
0001
0100
0010
,
0100
0001
1000
0100
0010
0100
1000
0001
1000
0010
0100
0001
1000
0000
0000
0100
0000
0000
0010
0000
0000
0001
0000
0000
,
2000
3000
0001
0010
0000
0001
1000
0000
0002
0003
1000
0010
0000
1000
0001
0000
,
0020
0030
0100
1000
0000
0100
0010
0000
0002
0003
0000
2000
3000
0000
0002
0003
,
1000
0010
0100
0001
0100
0010
1000
0001
0010
0001
1000
0001
1000
0100
0010
0001
0010
0100
1000
0001
0100
0001
1000
0001
,
0100
0010
0100
0001
1000
0100
0010
0001
1000
0001
1000
0010
0100
0001
0100
0010
1000
0001
1000
0100
0010
0001
1000
0001
,
1000
0010
1000
0010
0100
0001
0100
0001
0010
0100
0010
0100
1000
0100
1000
0001
,
0100
0010
1000
0010
0100
0001
0100
0001
0010
0100
1000
0010
0100
0001
0010
0001
,
1000
0001
1000
0001
0010
0100
1000
0001
1000
0010
0100
0001
1000
0100
1000
0001
0010
0100
1000
0001
1000
0010
0100
0001
,
1000
0001
0100
0010
1000
0001
0010
0100
0010
0001
1000
0010
0100
0010
1000
0001
0010
0001
1000
0010
0100
0001
1000
0010
,
1000
0100
1000
0000
0001
0000
1000
0100
1000
0001
1000
0000
0001
0000
0010
0100
,
0010
0001
1000
0000
0001
0000
0100
0010
1000
0001
0100
0000
0010
0000
1000
0100
,
0010
0001
1000
0000
0001
0000
0100
0010
0100
0001
1000
0000
0001
0000
1000
0100
,
0010
0100
1000
0000
0001
0000
0100
0010
0100
0001
1000
0000
0001
0000
1000
0000
,
0001
0010
0100
1000
0001
0100
0001
1000
1000
0001
0010
0001
0100
0001
1000
0010
,
0100
0001
0100
0010
1000
0100
1000
0001
0001
0010
0100
1000
0001
0010
0001
1000
,
0010
0100
0001
0100
0010
1000
0001
1000
1000
0100
0010
0100
1000
0001
0100
0010
,
1000
0001
0100
0001
1000
0010
0100
0001
0001
1000
0010
1000
0100
0010
0001
1000
,
0001
0000
0100
0000
0101
0000
1000
0000
0001
0010
0100
1000
0010
0100
0001
1000
,
0010
0100
0001
0010
0100
1000
0010
0100
0010
1000
0100
0010
0001
0100
0010
1000
,
0200
0000
0000
0000
0000
0300
0000
0000
0000
0000
0000
0000
0000
0000
0000
0000
;
