#TITLE:Hardcore Overdoze;
#SUBTITLE:;
#ARTIST:Euphoria;
#TITLETRANSLIT:;
#SUBTITLETRANSLIT:;
#ARTISTTRANSLIT:;
#CREDIT:;
#BANNER:../banner.png;
#BACKGROUND:../bg.png;
#LYRICSPATH:;
#CDTITLE:;
#MUSIC:Hardcore Overdoze.ogg;
#OFFSET:1.302;
#SAMPLESTART:37.000;
#SAMPLELENGTH:21.340;
#SELECTABLE:YES;
#BPMS:0.000=181.654;
#STOPS:;
#BGCHANGES:;
// cache tags:
#FIRSTBEAT:4.000;
#LASTBEAT:352.000;
#SONGFILENAME:Songs/Cirque du Lykan/Hardcore Overdoze - [Zaia]/Hardcore Overdoze.sm;
#HASMUSIC:1;
#HASBANNER:1;
#MUSICLENGTH:131.500;
// end cache tags

//---------------dance-single - Zaia - 14(mid)----------------
#NOTES:
     dance-single:
     Zaia - 14(mid):
     Challenge:
     14:
     1.000,1.000,0.319,0.068,1.000,1024.000,42.000,9.000,27.000,0.000:
0000
0000
0000
0000
,
1000
0001
0100
0001
0010
0100
1000
0001
,
0010
0001
0100
0001
0101
0000
0101
0000
,
0100
0010
1000
0100
1000
0010
1000
0100
,
0010
0001
1000
0001
1001
0100
1001
1000
,
0001
0100
0010
1000
1010
0000
1010
0000
,
0010
0100
0001
0010
0110
0000
0000
0100
,
1100
0000
1000
0001
0101
0100
0010
1000
,
1010
1001
0101
0110
1010
1000
0001
1000
,
0200
0000
0000
0000
,
M0MM
0000
M0MM
0000
,
M0MM
M0MM
M0MM
0000
,
1300
0001
0100
0001
0100
0010
1000
0001
1000
0100
1000
0001
0010
0000
0000
0000
,
0001
0100
0010
1010
1000
1010
0010
0100
,
0001
0010
0100
1100
1000
1001
0001
0100
,
0010
0100
0001
0011
0010
0110
0100
1000
,
0001
0001
0100
0010
1000
0001
1000
0010
,
0110
0100
0001
1001
0100
1001
0001
0010
,
0100
1000
0001
0101
0100
0101
0001
1000
,
0100
0010
0100
1100
1000
1001
0001
0100
,
0020
0000
0000
0000
0000
0000
0000
0000
1030
0000
0000
1000
0000
0000
1000
0000
,
0001
0010
0100
0110
0010
0011
0001
1000
,
0010
0100
0001
0101
0100
0110
0010
1000
,
0001
0000
0010
0000
0100
0000
1000
0000
0002
0000
0000
0203
0000
0000
0320
0000
,
2030
0000
0000
3001
0000
1000
0000
0010
,
1001
0000
0000
0001
0000
0100
0000
0010
,
1000
0000
0000
0100
0000
0010
0000
0001
,
1000
0000
0000
0000
0000
0000
0001
0000
0100
0000
0000
0010
0000
0000
1000
0000
,
0002
0000
0000
0000
0000
0000
0013
0100
1000
0000
0000
0000
0000
0000
0000
0000
,
0001
0100
0010
1000
0001
0010
0100
1000
0010
1000
0001
0100
0001
0010
0100
1000
,
0001
0100
0010
0100
0001
1000
0100
0010
0100
1000
0001
0100
0010
1000
0001
0100
,
0001
0010
0100
1000
0001
0100
0010
1000
0100
1000
0001
0010
0001
0100
0010
1000
,
0001
0010
0100
0010
0001
1000
0010
0100
0010
1000
0001
0010
0100
1000
0100
0010
,
0001
0100
0010
1000
0001
0100
0010
1000
0100
1000
0001
0010
0001
0100
0010
1000
,
0001
0010
0001
1000
0100
0010
0100
1000
0001
1000
0010
0100
0001
1000
0100
0010
,
0001
1000
0100
1000
0010
0100
0001
0010
0001
1000
0100
1000
0010
0100
0001
0010
,
0001
1000
0100
1000
0001
1000
0010
0100
0001
1000
0001
0010
0001
1000
0010
0100
,
0001
0010
0100
1000
0001
0100
0001
0010
0100
1000
0001
0010
0001
0100
0010
1000
,
0001
0010
0001
1000
0010
0100
0010
1000
0001
1000
0100
0010
0001
1000
0010
0100
,
0010
1000
0100
0010
0001
1000
0010
1000
0100
0010
0001
1000
0100
1000
0010
0100
,
0001
1000
0100
1000
0001
1000
0010
0100
0001
1000
0001
0010
0001
1000
0100
0010
,
0001
1000
0010
0100
0001
1000
0100
1000
0010
0100
0001
1000
0010
1000
0100
0010
,
0001
1000
0010
1000
0001
0010
0100
0010
0001
1000
0001
0100
0010
1000
0001
0010
,
0100
0010
0001
0100
0010
1000
0001
0010
0001
0100
0010
1000
0001
0100
0001
0010
,
0100
1000
0001
0100
0001
1000
0001
0010
0100
1000
0001
1000
0010
1000
0001
1000
,
0001
0100
0010
0100
0001
1000
0001
0010
0001
1000
0010
1000
0001
0010
0100
1000
,
0001
1000
0010
0100
0001
1000
0100
1000
0001
0100
0001
1000
0100
0010
0001
1000
,
0010
0100
0001
1000
0100
0010
0001
0100
0001
1000
0100
1000
0001
0100
0010
1000
,
0001
0010
0100
0010
0001
1000
0010
1000
0001
0010
0001
1000
0010
0100
0010
1000
,
0001
0010
0100
0010
0001
1000
0001
0100
0001
1000
0100
1000
0001
0100
0010
1000
,
0001
1000
0100
0010
0001
1000
0010
1000
0001
0010
0001
1000
0010
0100
0001
1000
,
0100
0010
0001
1000
0010
0100
0001
0010
0001
1000
0010
1000
0001
0010
0100
1000
,
0001
0100
0010
0100
0001
1000
0100
1000
0001
0100
0001
1000
0100
0010
0100
1000
,
0001
0100
0010
1000
0001
1000
0100
1000
0001
0010
0100
1000
0001
1000
0010
1000
,
0001
0100
0010
1000
0001
1000
0100
1000
0001
0010
0100
1000
0001
1000
0010
1000
,
0001
0100
0001
1000
0100
0010
0001
1000
0001
0100
0001
1000
0001
0010
0100
1000
,
0001
0100
0010
0100
0001
1000
0100
1000
0001
0100
0010
0100
0001
1000
0100
1000
,
0001
0010
0100
1000
0001
0100
0001
1000
0001
0010
0100
1000
0001
0100
0001
1000
,
0010
0100
0010
1000
0001
0010
0001
1000
0010
0100
0001
1000
0100
1000
0001
0010
,
0100
1000
0010
0100
0001
1000
0100
1000
0001
1000
0010
0100
0001
1000
0100
1000
,
0001
0010
0100
0010
0001
1000
0010
1000
0001
0100
0010
1000
0001
0010
0100
1000
,
0001
0100
0001
0100
0010
1000
0100
0010
0001
0100
0001
0100
0010
1000
0001
0010
,
0100
1000
0100
1000
0001
0100
0010
0100
0001
0010
0100
1000
0001
1000
0010
0100
,
0001
0010
0001
0010
0100
1000
0010
0100
0001
0010
0001
0010
0100
1000
0001
1000
,
0010
0100
0010
0100
0001
1000
0001
0010
0100
0010
0001
1000
0001
0100
0010
1000
,
0100
0010
0100
0010
0001
1000
0010
1000
0100
0010
0100
0010
0001
1000
0001
0010
,
0100
1000
0100
1000
0001
0100
0010
0100
0001
1000
0001
0010
0100
1000
0010
0100
,
0001
1000
0001
1000
0010
0100
0001
0010
0001
1000
0001
1000
0010
0100
0001
0010
,
0100
1000
0100
1000
0010
0100
0001
0010
0100
0010
0001
1000
0010
0100
0001
1000
,
0010
1000
0010
0100
0001
0010
0100
1000
0010
1000
0010
0100
0001
1000
0100
0010
,
0001
0010
0001
1000
0010
0100
0010
1000
0100
0010
0001
1000
0001
0100
0010
1000
,
0100
1000
0100
0010
0001
0100
0010
1000
0100
1000
0100
0010
0001
1000
0001
0100
,
0010
0100
0010
1000
0001
1000
0100
0010
0100
1000
0001
1000
0010
0100
0001
0010
,
0100
0010
0100
1000
0001
0100
0001
0010
0100
0010
0100
1000
0001
1000
0100
0010
,
0001
0010
0001
1000
0010
0100
0010
1000
0001
1000
0100
0010
0001
0100
0010
1000
,
0001
1000
0001
0100
0010
1000
0100
1000
0001
1000
0001
0100
0010
1000
0100
0010
,
0001
0010
0001
0100
0010
1000
0100
0010
0100
1000
0001
0100
0001
1000
0100
0010
,
0002
0000
0000
0003
,
1001
1000
0010
0100
0010
1000
0001
0010
,
0100
1000
0010
0100
0001
0010
0100
0010
,
0001
0100
0010
1000
0100
1000
0001
0010
,
0001
0100
0010
1000
0001
0010
0100
1000
,
0000
1001
0010
1001
0100
1001
0010
1001
,
0110
1001
0001
0110
1000
0110
0001
1001
,
1000
0100
0010
0100
1000
0001
1000
0001
0100
0010
1000
0001
1000
0010
0100
0001
,
0010
0100
1000
0010
0100
0010
1000
0100
0010
0001
0100
0010
1000
0001
0010
0100
,
2000
0000
0000
0000
0000
0000
0000
0MMM
0000
0000
0000
0000
0000
0000
0000
0MMM
,
0000
0000
0000
0MMM
0000
0000
0000
0MMM
0000
0000
0000
0000
0000
0000
0000
0000
,
3000
0000
0000
0000
;

//---------------dance-single - Zaia - 13(low-mid)----------------
#NOTES:
     dance-single:
     Zaia - 13(low-mid):
     Hard:
     13:
     0.993,1.000,0.319,0.068,1.000,863.000,42.000,9.000,27.000,0.000:
0000
0000
0000
0000
,
1000
0001
0100
0001
0010
0100
1000
0001
,
0010
0001
0100
0001
0101
0000
0101
0000
,
0100
0010
1000
0100
1000
0010
1000
0100
,
0010
0001
1000
0001
1001
0100
1001
1000
,
0001
0100
0010
1000
1010
0000
1010
0000
,
0010
0100
0001
0010
0110
0000
0000
0100
,
1100
0000
1000
0001
0101
0100
0010
1000
,
1010
1001
0101
0110
1010
1000
0001
1000
,
0200
0000
0000
0000
,
M0MM
0000
M0MM
0000
,
M0MM
M0MM
M0MM
0000
,
1300
0001
0100
0001
0100
0010
1000
0001
1000
0100
1000
0001
0010
0000
0000
0000
,
0001
0100
0010
1010
1000
1010
0010
0100
,
0001
0010
0100
1100
1000
1001
0001
0100
,
0010
0100
0001
0011
0010
0110
0100
1000
,
0001
0001
0100
0010
1000
0001
1000
0010
,
0110
0100
0001
1001
0100
1001
0001
0010
,
0100
1000
0001
0101
0100
0101
0001
1000
,
0100
0010
0100
1100
1000
1001
0001
0100
,
0020
0000
0000
0000
0000
0000
0000
0000
1030
0000
0000
1000
0000
0000
1000
0000
,
0001
0010
0100
0110
0010
0011
0001
1000
,
0010
0100
0001
0101
0100
0110
0010
1000
,
0001
0000
0010
0000
0100
0000
1000
0000
0002
0000
0000
0203
0000
0000
0320
0000
,
2030
0000
0000
3001
0000
1000
0000
0010
,
1001
0000
0000
0001
0000
0100
0000
0010
,
1000
0000
0000
0100
0000
0010
0000
0001
,
1000
0000
0000
0000
0000
0000
0001
0000
0100
0000
0000
0010
0000
0000
1000
0000
,
0002
0000
0000
0000
0000
0000
0013
0100
1000
0000
0000
0000
0000
0000
0000
0000
,
0001
0100
0010
1000
0100
0010
0001
0100
,
0010
0100
0001
0010
0001
1000
0100
1000
,
0001
0010
0100
1000
0010
0100
0001
0010
,
0100
0010
0001
0100
0001
1000
0010
1000
,
0100
1000
0010
0100
0001
0010
0100
1000
,
0010
0100
0010
1000
0100
1000
0001
0010
,
0001
1000
0100
0010
0001
0100
0010
1000
,
0100
0010
0100
1000
0010
1000
0001
0100
,
0001
0010
0100
1000
0001
0100
0001
0010
0100
1000
0001
0010
0001
0100
0010
1000
,
0001
0010
0001
1000
0010
0100
0010
1000
0001
1000
0100
0010
0001
1000
0010
0100
,
0010
1000
0100
0010
0001
1000
0010
1000
0100
0010
0001
1000
0100
1000
0010
0100
,
0001
1000
0100
1000
0001
1000
0010
0100
0001
1000
0001
0010
0001
1000
0100
0010
,
0001
1000
0010
0100
0001
1000
0100
1000
0010
0100
0001
1000
0010
1000
0100
0010
,
0001
1000
0010
1000
0001
0010
0100
0010
0001
1000
0001
0100
0010
1000
0001
0010
,
0100
0010
0001
0100
0010
1000
0001
0010
0001
0100
0010
1000
0001
0100
0001
0010
,
0100
1000
0001
0100
0001
1000
0001
0010
0100
1000
0001
1000
0010
1000
0001
1000
,
0001
0100
0010
0100
0001
1000
0001
0010
0001
1000
0010
1000
0001
0010
0100
1000
,
0001
1000
0010
0100
0001
1000
0100
1000
0001
0100
0001
1000
0100
0010
0001
1000
,
0010
0100
0001
1000
0100
0010
0001
0100
0001
1000
0100
1000
0001
0100
0010
1000
,
0001
0010
0100
0010
0001
1000
0010
1000
0001
0010
0001
1000
0010
0100
0010
1000
,
0001
0010
0100
0010
0001
1000
0001
0100
0001
1000
0100
1000
0001
0100
0010
1000
,
0001
1000
0100
0010
0001
1000
0010
1000
0001
0010
0001
1000
0010
0100
0001
1000
,
0100
0010
0001
1000
0010
0100
0001
0010
0001
1000
0010
1000
0001
0010
0100
1000
,
0001
0100
0010
0100
0001
1000
0100
1000
0001
0100
0001
1000
0100
0010
0100
1000
,
0001
0100
0010
1000
0001
1000
0100
1000
0001
0010
0100
1000
0001
1000
0010
1000
,
0001
0100
0010
1000
0001
1000
0100
1000
0001
0010
0100
1000
0001
1000
0010
1000
,
0001
0100
0001
1000
0100
0010
0001
1000
0001
0100
0001
1000
0001
0010
0100
1000
,
0001
0100
0010
0100
0001
1000
0100
1000
0001
0100
0010
0100
0001
1000
0100
1000
,
0001
0010
0100
1000
0001
0100
0001
1000
0001
0010
0100
1000
0001
0100
0001
1000
,
0010
0100
0010
1000
0001
0010
0001
1000
0010
0100
0001
1000
0100
1000
0001
0010
,
0100
1000
0010
0100
0001
1000
0100
1000
0001
1000
0010
0100
0001
1000
0100
1000
,
0001
0010
0100
0010
0001
1000
0010
1000
0001
0100
0010
1000
0001
0010
0100
1000
,
0001
0000
0100
0010
0000
0100
0001
0000
1000
0000
0100
0010
0000
0100
1000
0000
,
0001
0000
1000
0010
0000
0100
0001
0000
0010
0000
0100
0000
1000
0000
0001
0000
,
0100
0000
0010
1000
0000
0010
0100
0000
0001
0000
0010
0100
0000
0010
0001
0000
,
1000
0000
0100
1000
0000
0001
1000
0000
0010
0000
0100
0000
0001
0000
0010
0000
,
0100
0000
1000
0010
0000
1000
0001
0000
0010
0000
0100
1000
0000
0100
0010
0000
,
0001
0000
1000
0010
0000
0100
0001
0000
0010
0000
0001
0000
0100
0000
0010
0000
,
1000
0000
0001
0010
0000
0001
1000
0000
0010
0000
0100
0001
0000
0100
0010
0000
,
1000
0000
0001
0010
0000
0100
1000
0000
0001
0000
0100
0000
0010
0000
1000
0000
,
0001
0000
0010
0100
0000
0010
0001
0000
1000
0000
0010
0100
0000
0010
1000
0000
,
0001
0000
1000
0100
0000
0010
0001
0000
0100
0000
0010
0000
1000
0000
0001
0000
,
0010
0000
0100
1000
0000
0100
0010
0000
0001
0000
0100
0010
0000
0100
0001
0000
,
1000
0000
0010
1000
0000
0001
1000
0000
0100
0000
0010
0000
0001
0000
0100
0000
,
0010
0000
1000
0100
0000
1000
0001
0000
0100
0000
0010
1000
0000
0010
0100
0000
,
0001
0000
1000
0100
0000
0010
0001
0000
0100
0000
0001
0000
0010
0000
0100
0000
,
1000
0000
0001
0100
0000
0001
1000
0000
0100
0000
0010
0001
0000
0010
0100
0000
,
1000
0010
1000
0100
0010
0001
0100
0010
0100
0001
1000
0100
1000
0001
0100
0010
,
2000
0000
0000
3000
,
1001
0001
0100
0010
0100
0001
1000
0100
,
0010
0001
0100
0010
1000
0100
0010
0100
,
1000
0010
0100
0001
0010
0001
1000
0100
,
1000
0010
0100
0001
1000
0100
0010
0001
,
0000
1001
0100
1001
0010
1001
0100
1001
,
0110
1001
1000
0110
0001
0110
1000
1001
,
0001
0010
0100
0010
0001
1000
0001
1000
0010
0100
0001
1000
0001
0100
0010
1000
,
0100
0010
0001
0100
0010
0100
0001
0010
0100
1000
0010
0100
0001
1000
0100
0010
,
0002
0000
0000
0000
0000
0000
0000
MMM0
0000
0000
0000
0000
0000
0000
0000
MMM0
,
0000
0000
0000
MMM0
0000
0000
0000
MMM0
0000
0000
0000
0000
0000
0000
0000
0000
,
0003
0000
0000
0000
;

//---------------dance-single - Zaia - 11(low-mid)----------------
#NOTES:
     dance-single:
     Zaia - 11(low-mid):
     Medium:
     11:
     0.763,1.000,0.281,0.129,0.289,648.000,37.000,17.000,27.000,0.000:
0000
0000
0000
0000
,
1000
0001
0100
0001
0010
0100
1000
0001
,
0010
0001
0100
0001
0101
0000
0101
0000
,
0100
0010
1000
0100
1000
0010
1000
0100
,
0010
0001
1000
0001
1001
0100
1001
1000
,
0001
0100
0010
1000
1010
0000
1010
0000
,
0010
0100
0001
0010
0110
0000
0000
0100
,
1100
0000
1000
0001
0101
0100
0010
1000
,
1010
0010
0100
0001
1001
1000
0001
1000
,
0200
0000
0000
0000
,
M0MM
0000
M0MM
0000
,
M0MM
M0MM
M0MM
0000
,
1300
0001
0100
0001
0100
0010
1000
0001
1000
0100
1000
0001
0010
0000
0000
0000
,
0001
0100
0010
1010
0000
1010
0010
0100
,
0001
0010
0100
1100
0000
1001
0001
0100
,
0010
0100
0001
0011
0000
0110
0100
1000
,
0001
0001
0100
0010
1000
0001
1000
0010
,
0110
0100
0001
1001
0000
1001
0001
0010
,
0100
1000
0001
0101
0000
0101
0001
1000
,
0100
0010
0100
1100
0000
1001
0001
0100
,
0020
0000
0000
0000
0000
0000
0000
0000
1030
0000
0000
1000
0000
0000
1000
0000
,
0001
0010
0100
0110
0000
0011
0001
1000
,
0010
0100
0001
0101
0000
0110
0010
1000
,
0001
0000
0010
0000
0100
0000
1000
0000
0002
0000
0000
0203
0000
0000
0320
0000
,
2030
0000
0000
3001
0000
1000
0000
0010
,
1001
0000
0000
0001
0000
0100
0000
0010
,
1000
0000
0000
0100
0000
0010
0000
0001
,
1000
0000
0000
0000
0000
0000
0001
0000
0100
0000
0000
0010
0000
0000
1000
0000
,
0002
0000
0000
0000
0000
0000
0013
0100
1000
0000
0000
0000
0000
0000
0000
0000
,
0001
0100
0010
0100
0001
0010
0100
1000
,
0001
0100
0010
1000
0100
0010
0100
1000
,
0010
0100
0001
0010
0100
1000
0010
0100
,
0001
1000
0010
0100
0001
1000
0001
0010
,
0100
0010
0001
0100
0010
1000
0001
0010
,
0100
1000
0001
1000
0010
1000
0100
0010
,
0100
1000
0010
0100
0001
0010
0100
0010
,
0001
1000
0010
0100
0001
0010
0001
1000
,
0001
0010
0100
0010
0001
0100
0010
1000
,
0001
0010
0100
1000
0010
0100
0010
1000
,
0100
0010
0001
0100
0010
1000
0100
0010
,
0001
1000
0100
0010
0001
1000
0001
0100
,
0010
0100
0001
0010
0100
1000
0001
0100
,
0010
1000
0001
1000
0100
1000
0010
0100
,
0010
1000
0100
0010
0001
0100
0010
0100
,
0001
1000
0100
0010
0001
0100
0001
1000
,
0001
0100
0001
0100
0001
0010
0001
0100
,
0001
1000
0100
1000
0100
1000
0010
1000
,
0100
0010
0100
1000
0100
0010
0001
0100
,
0001
0010
0100
0010
0001
0010
0100
1000
,
0010
0100
0010
1000
0100
1000
0010
1000
,
0001
0010
0001
0010
0001
0100
0001
0010
,
0001
1000
0010
1000
0010
1000
0100
1000
,
0010
0100
0001
1000
0100
1000
0001
0100
,
0010
1000
0010
1000
0100
1000
0010
1000
,
0001
0010
0001
0010
0001
0100
0001
0010
,
0100
0010
0001
0010
0100
1000
0010
1000
,
0100
0010
0100
1000
0100
0010
0001
0100
,
0010
0100
0001
0010
0001
0100
0001
1000
,
0100
1000
0100
1000
0010
1000
0100
1000
,
0001
0100
0001
0100
0001
0010
0001
0100
,
0010
1000
0001
0010
0001
1000
0010
1000
,
0001
0000
0100
0010
0000
0100
0001
0000
1000
0000
0100
0010
0000
0100
1000
0000
,
0001
0000
1000
0010
0000
0100
0001
0000
0010
0000
0100
0000
1000
0000
0001
0000
,
0100
0000
0010
1000
0000
0010
0100
0000
0001
0000
0010
0100
0000
0010
0001
0000
,
1000
0000
0100
1000
0000
0001
1000
0000
0010
0000
0100
0000
0001
0000
0010
0000
,
0100
0000
1000
0010
0000
1000
0001
0000
0010
0000
0100
1000
0000
0100
0010
0000
,
0001
0000
1000
0010
0000
0100
0001
0000
0010
0000
0001
0000
0100
0000
0010
0000
,
1000
0000
0001
0010
0000
0001
1000
0000
0010
0000
0100
0001
0000
0100
0010
0000
,
1000
0000
0001
0010
0000
0100
1000
0000
0001
0000
0100
0000
0010
0000
1000
0000
,
0001
0000
0010
0100
0000
0010
0001
0000
1000
0000
0010
0100
0000
0010
1000
0000
,
0001
0000
1000
0100
0000
0010
0001
0000
0100
0000
0010
0000
1000
0000
0001
0000
,
0010
0000
0100
1000
0000
0100
0010
0000
0001
0000
0100
0010
0000
0100
0001
0000
,
1000
0000
0010
1000
0000
0001
1000
0000
0100
0000
0010
0000
0001
0000
0100
0000
,
0010
0000
1000
0100
0000
1000
0001
0000
0100
0000
0010
1000
0000
0010
0100
0000
,
0001
0000
1000
0100
0000
0010
0001
0000
0100
0000
0001
0000
0010
0000
0100
0000
,
1000
0000
0001
0100
0000
0001
1000
0000
0100
0000
0010
0001
0000
0010
0100
0000
,
1000
0010
1000
0100
0010
0001
0100
0010
0100
0001
1000
0100
1000
0001
0100
0010
,
2000
0000
0000
3000
,
1001
0001
0100
0010
0100
0001
1000
0100
,
0010
0001
0100
0010
1000
0100
0010
0100
,
1000
0010
0100
0001
0010
0001
1000
0100
,
1000
0010
0100
0001
1000
0100
0010
0001
,
0000
1001
0000
0110
0000
1001
0000
0110
,
0000
1001
0000
0110
0000
1001
0000
1000
,
0001
0010
0100
0010
0001
1000
0001
1000
0010
0100
0001
1000
0001
0100
0010
1000
,
0200
0320
0032
0203
0320
2030
3200
0320
,
0032
0000
0000
0000
0000
0000
0000
MMM0
0000
0000
0000
0000
0000
0000
0000
MMM0
,
0000
0000
0000
MMM0
0000
0000
0000
MMM0
0000
0000
0000
0000
0000
0000
0000
0000
,
0003
0000
0000
0000
;
