#TITLE:A Thousand Miles (The New Attack Mix);
#SUBTITLE:Oh Henry!;
#ARTIST:DJ Speedo feat. Wildside;
#TITLETRANSLIT:;
#SUBTITLETRANSLIT:;
#ARTISTTRANSLIT:;
#CREDIT:;
#BANNER:../_bn-1.png;
#BACKGROUND:../bg-1.png;
#LYRICSPATH:;
#CDTITLE:../~CDTitle-@@.png;
#MUSIC:DJ Speedo feat Wildside - A Thousand Miles (The New Attack mix).ogg;
#OFFSET:-1.927;
#SAMPLESTART:63.664;
#SAMPLELENGTH:30.000;
#SELECTABLE:YES;
#BPMS:0.000=190.000;
#STOPS:;
#BGCHANGES:;
// cache tags:
#FIRSTBEAT:16.000;
#LASTBEAT:924.000;
#SONGFILENAME:Songs/Index Tournament 1/A Thousand Miles (17+)/A Thousand Miles (The New Attack Mix).sm;
#HASMUSIC:1;
#HASBANNER:1;
#MUSICLENGTH:296.751;
// end cache tags

//---------------dance-single - @@----------------
#NOTES:
     dance-single:
     @@:
     Challenge:
     17:
     1.000,1.000,0.007,0.003,1.000,3532.000,2.000,1.000,0.000,0.000:
0000
0000
0000
0000
,
0000
0000
0000
0000
,
0000
0000
0000
0000
,
0000
0000
0000
0000
,
1000
0100
0010
0001
1000
0100
1000
0001
0100
0001
1000
0010
1000
0001
0010
0100
,
1000
0010
0100
0001
1000
0010
1000
0001
0010
0100
1000
0001
1000
0010
0100
0010
,
1000
0100
0010
0100
1000
0001
0010
0100
1000
0010
0100
0001
1000
0010
1000
0001
,
0010
0100
1000
0001
1000
0100
0010
0001
0100
0010
1000
0010
0100
0001
0010
0100
,
1000
0010
0100
0001
1000
0010
1000
0001
0010
0001
1000
0100
1000
0001
0100
0010
,
1000
0100
0010
0001
1000
0100
1000
0001
0100
0010
1000
0001
1000
0100
0010
0100
,
1000
0010
0100
0010
1000
0001
0100
0010
1000
0100
0010
0001
1000
0100
1000
0001
,
0100
0010
1000
0001
1000
0010
0100
0001
0010
0100
1000
0100
0010
0001
0100
0010
,
1000
0001
0010
0001
1000
0001
0010
0100
1000
0010
0100
0010
1000
0001
0100
0001
,
1000
0100
0010
0001
1000
0100
1000
0001
0100
0010
1000
0001
1000
0100
0010
0001
,
0100
0010
1000
0001
0100
0001
1000
0100
0010
0100
1000
0001
1000
0010
0100
0010
,
1000
0001
0100
0001
1000
0100
0010
0100
1000
0001
0010
0100
0010
0001
1000
0010
,
0100
0000
0010
1000
0100
0000
1000
0000
0100
1000
0010
0000
1000
0000
0100
0010
,
0001
0100
0010
1000
0010
0100
0001
0010
0100
1000
0100
0010
0001
0100
0010
0100
,
0001
1000
0010
1000
0100
0010
0001
0010
0100
1000
0010
1000
0001
1000
0010
1000
,
0001
0010
0100
1000
0100
0010
0001
0100
0010
1000
0010
0100
0001
0010
0100
0010
,
0001
1000
0100
1000
0010
0100
0001
0100
0010
1000
0100
1000
0001
1000
0100
1000
,
0001
0100
0010
1000
0010
0100
0001
0010
0100
1000
0100
0010
0001
0100
0010
0100
,
0001
1000
0010
1000
0100
0010
0001
0010
0100
1000
0010
1000
0001
1000
0010
1000
,
0100
0010
0001
1000
0010
0100
0010
1000
0100
0010
0001
1000
0010
0100
0010
1000
,
0100
0010
0001
0100
0010
0100
0001
1000
0100
0010
0001
0100
0010
1000
0100
0010
,
0001
1000
0010
0100
0001
0100
0010
1000
0001
0010
0100
0010
0001
1000
0100
0010
,
0001
1000
0010
0100
0010
1000
0001
0100
0001
1000
0100
0010
0100
1000
0001
1000
,
0010
0100
0001
0100
0010
1000
0001
0100
0001
1000
0100
0010
0100
1000
0001
1000
,
0010
0100
0001
1000
0010
1000
0001
0100
0001
1000
0100
0010
0001
1000
0100
1000
,
0010
0100
0001
1000
0010
1000
0100
0010
0001
1000
0100
1000
0010
0100
0001
0100
,
0010
1000
0010
0100
0001
0010
0100
0010
0001
0100
0010
0100
0001
0100
0010
0100
,
0001
0010
0100
1000
0100
0010
0001
0100
0010
1000
0001
0100
0001
0010
0100
1000
,
0100
0010
0001
1000
0010
0100
0010
1000
0100
0010
0001
0010
0100
0010
0001
1000
,
0100
0010
0100
1000
0010
1000
0001
0010
0001
1000
0100
1000
0010
0100
0001
1000
,
0100
0010
0100
1000
0010
1000
0001
0100
0010
1000
0010
0100
0001
0010
0100
1000
,
0001
0010
0001
0100
0010
1000
0010
0100
0001
1000
0010
1000
0100
0010
0001
1000
,
0001
0010
0100
1000
0001
0010
0001
1000
0010
0100
0001
1000
0100
0010
0100
1000
,
0010
0100
0010
1000
0001
0100
0001
0010
0100
1000
0001
0010
0001
0100
0010
0100
,
0001
1000
0010
0100
0001
0010
0100
1000
0010
0100
0010
1000
0010
0100
0010
1000
,
0100
0010
0100
1000
0001
0010
0001
0100
0010
1000
0001
0100
0001
0010
0100
0010
,
0001
1000
0100
0010
0001
0100
0010
1000
0100
0010
0100
1000
0001
0000
0000
0000
,
1000
0010
1000
0001
1000
0100
0010
0001
1000
0001
0100
0001
0010
0100
1000
0001
,
0010
0100
0010
0001
0100
0010
1000
0001
1000
0100
0010
0001
0100
0010
0100
0001
,
1000
0100
1000
0001
1000
0010
0100
0001
1000
0001
0010
0001
0100
0010
1000
0001
,
0100
0010
0100
0001
0010
0100
1000
0001
1000
0010
0100
0001
0010
0100
0010
0001
,
1000
0010
1000
0001
1000
0100
0010
0001
1000
0001
0100
0001
0010
0100
1000
0001
,
0010
0100
0010
0001
0100
0010
1000
0001
1000
0100
0010
0001
1000
0010
0100
0001
,
1000
0000
0001
0010
0001
0000
1000
0000
0001
0100
0001
0000
1000
0010
1000
0001
,
0100
0001
1000
0100
0010
0001
0010
0100
1000
0010
0100
0000
0001
0000
0010
0100
,
1000
0001
0010
0100
0010
0001
1000
0010
0100
0001
0100
0010
1000
0100
0010
0001
,
1000
0100
0010
0100
1000
0001
0100
0010
1000
0001
0010
0100
1000
0001
0100
0010
,
1000
0100
0010
0001
1000
0100
1000
0001
0100
0010
1000
0001
1000
0100
0010
0001
,
0010
0100
1000
0010
1000
0010
0100
0001
1000
0010
1000
0001
1000
0100
1000
0001
,
0100
0010
1000
0010
0100
0001
1000
0100
0010
0001
0010
0100
1000
0010
0100
0001
,
1000
0010
0100
0010
1000
0001
0010
0100
1000
0001
0100
0010
1000
0001
0010
0100
,
1000
0010
0100
0001
1000
0010
1000
0001
0010
0100
1000
0001
1000
0010
0100
0001
,
1000
0010
1000
0100
0010
0001
0100
0001
1000
0010
1000
0100
0010
0001
0010
0100
,
1000
0001
0100
0001
1000
0010
1000
0001
0010
0001
1000
0100
1000
0010
0100
0001
,
1000
0001
0100
0010
1000
0001
0010
0100
1000
0001
0010
0001
1000
0010
0100
0001
,
1000
0100
0010
0001
0010
0100
1000
0001
0100
0010
0100
0001
1000
0100
0010
0100
,
1000
0001
0010
0001
0100
0010
1000
0001
0010
0100
0010
0001
0100
0010
1000
0001
,
0010
0100
1000
0001
0010
0100
0010
0001
1000
0100
0010
0001
0100
0010
1000
0001
,
0100
0001
1000
0010
1000
0001
0100
0010
1000
0100
0010
0001
1000
0100
0010
0100
,
1000
0010
1000
0100
0010
0001
0100
0001
0010
0100
1000
0010
0100
0001
0010
0001
,
1000
0100
1000
0010
0100
0001
0010
0001
0100
0010
1000
0100
0010
0001
0100
0001
,
1000
0100
0010
0001
0010
0100
1000
0010
0100
0001
0100
0010
1000
0100
0010
0100
,
1000
0001
0010
0001
0100
0010
1000
0010
0100
0001
0010
0001
1000
0001
0010
0001
,
1000
0010
0100
0001
0100
0010
1000
0100
0010
0001
0010
0100
1000
0010
0100
0010
,
1000
0001
0100
0001
0010
0100
1000
0100
0010
0001
0100
0001
1000
0001
0100
0001
,
1000
0100
0010
0001
0010
0100
1000
0010
0100
0001
0100
0010
1000
0100
0010
0100
,
1000
0001
0010
0001
0100
0010
1000
0010
0100
0001
0010
0001
1000
0001
0010
0001
,
0100
0010
1000
0001
0010
0100
0010
0001
0100
0010
1000
0001
0010
0100
0010
0001
,
0100
0010
1000
0100
0010
0100
1000
0001
0100
0010
1000
0100
0010
0001
0100
0010
,
1000
0000
0001
0100
0001
1000
0100
0010
0001
1000
0001
0000
0100
0000
0010
0000
,
1000
0000
0001
0010
0100
1000
0001
0010
0001
0000
1000
0000
0010
0100
0001
0100
,
0010
0000
1000
0100
0010
0000
0001
0010
0100
1000
0001
0000
0100
0000
0010
0000
,
0100
0000
0001
0010
0001
1000
0010
0000
0100
0000
0001
0000
1000
0100
0010
0001
,
1000
0010
1000
0001
1000
0100
0010
0001
1000
0001
0100
0001
1000
0100
1000
0001
,
1000
0010
0100
0001
1000
0001
0010
0001
0100
0000
0000
0000
0101
0000
0000
0000
,
0001
0010
0001
1000
0001
0100
0010
1000
0001
1000
0100
1000
0001
0100
0001
1000
,
0001
0010
0100
1000
0001
1000
0010
1000
0100
0000
0000
0000
1100
0000
0000
0000
,
1000
0010
0100
0001
0010
0001
1000
0010
1000
0001
0100
0001
0010
0100
1000
0001
,
0100
0010
0100
0001
0010
0001
1000
0100
0010
0001
0010
0100
1000
0010
0100
0001
,
0100
0010
1000
0001
0100
0001
0010
0100
1000
0001
0010
0100
0010
0001
0100
0010
,
1000
0010
0100
0001
1000
0010
1000
0001
0010
0100
1000
0001
0100
0010
0100
0001
,
0010
0100
0010
0001
1000
0100
1000
0010
0100
0001
1000
0010
1000
0100
0010
0100
,
1000
0001
0010
0100
1000
0010
0100
0001
0010
0100
0010
0001
0010
0100
0010
0001
,
0100
0010
0100
0001
1000
0010
1000
0100
0010
0001
1000
0100
1000
0010
0100
0010
,
1000
0001
0100
0010
1000
0100
0010
0001
0100
0010
1000
0100
1000
0010
0100
0001
,
1000
0100
1000
0001
1000
0010
0100
0001
1000
0001
0010
0001
0100
0010
1000
0001
,
0100
0010
0100
0001
0010
0100
1000
0001
1000
0010
0100
0001
0010
0100
0010
0001
,
1000
0010
1000
0001
1000
0100
0010
0001
1000
0001
0100
0001
0010
0100
1000
0001
,
0010
0100
0010
0001
0100
0010
1000
0001
1000
0100
0010
0001
0100
0010
0100
0001
,
1000
0100
1000
0001
1000
0010
0100
0001
1000
0001
0010
0001
0100
0010
1000
0001
,
0100
0010
0100
0001
0010
0100
1000
0001
1000
0010
0100
0001
1000
0100
0010
0001
,
0100
0010
1000
0001
0100
0001
1000
0010
1000
0100
0010
0001
1000
0001
0010
0100
,
1000
0010
0100
0001
1000
0100
0010
0001
0100
0010
1000
0100
1000
0001
0010
0100
,
1000
0001
0100
0010
0100
0001
1000
0100
0010
0001
0010
0100
1000
0010
0100
0001
,
1000
0010
0100
0010
1000
0001
0010
0100
1000
0001
0100
0010
1000
0001
0010
0100
,
1000
0010
0100
0001
1000
0010
1000
0001
0010
0100
1000
0001
1000
0010
0100
0001
,
0100
0010
1000
0100
1000
0100
0010
0001
1000
0100
1000
0001
1000
0010
1000
0001
,
0010
0100
1000
0100
0010
0001
1000
0010
0100
0001
0100
0010
1000
0100
0010
0001
,
1000
0100
0010
0100
1000
0001
0100
0010
1000
0001
0010
0100
1000
0001
0100
0010
,
1000
0100
0010
0001
1000
0100
1000
0001
0100
0010
1000
0001
1000
0100
0010
0001
,
1000
0100
1000
0010
0100
0001
0010
0001
1000
0100
1000
0010
0100
0001
0100
0010
,
1000
0001
0010
0001
1000
0100
1000
0001
0100
0001
1000
0010
1000
0100
0010
0001
,
1000
0001
0010
0100
1000
0001
0100
0010
1000
0001
0100
0001
1000
0100
0010
0001
,
1000
0010
0100
0001
0100
0010
1000
0001
0010
0100
0010
0001
1000
0010
0100
0010
,
1000
0001
0100
0001
0010
0100
1000
0001
0100
0010
0100
0001
0010
0100
1000
0001
,
0100
0010
1000
0001
0100
0010
0100
0001
1000
0010
0100
0001
0010
0100
1000
0001
,
0010
0001
1000
0100
1000
0001
0010
0100
1000
0010
0100
0001
1000
0010
0100
0010
,
1000
0100
1000
0010
0100
0001
0010
0001
0100
0010
1000
0100
0010
0001
0100
0001
,
1000
0010
1000
0100
0010
0001
0100
0001
0010
0100
1000
0010
0100
0001
0010
0001
,
1000
0010
0100
0001
0100
0010
1000
0100
0010
0001
0010
0100
1000
0010
0100
0010
,
1000
0001
0100
0001
0010
0100
1000
0100
0010
0001
0100
0001
1000
0001
0100
0001
,
1000
0100
0010
0001
0010
0100
1000
0010
0100
0001
0100
0010
1000
0100
0010
0100
,
1000
0001
0010
0001
0100
0010
1000
0010
0100
0001
0010
0001
1000
0001
0010
0001
,
1000
0010
0100
0001
0100
0010
1000
0100
0010
0001
0010
0100
1000
0010
0100
0010
,
1000
0001
0100
0001
0010
0100
1000
0100
0010
0001
0100
0001
1000
0001
0100
0001
,
0010
0100
1000
0001
0100
0010
0100
0001
0010
0100
1000
0001
0100
0010
0100
0001
,
0010
0100
1000
0010
0100
0010
1000
0001
0010
0100
1000
0001
0100
0001
0010
0100
,
1000
0010
0100
0001
0100
0010
1000
0100
0010
0001
1000
0100
1000
0010
0100
0001
,
1000
0100
0010
0001
1000
0010
0100
0001
1000
0100
1000
0001
1000
0010
1000
0001
,
0010
0000
0100
1000
0001
0010
0100
1000
0010
0100
0001
0000
0100
0000
0010
0000
,
1000
0000
0100
0010
0100
1000
0010
0100
0001
0000
1000
0000
0100
0010
0001
0100
,
0010
0000
1000
0010
0100
0001
0010
0100
0010
0001
1000
0000
0001
0000
0100
0000
,
0010
0000
1000
0100
0010
0100
1000
0010
0100
0000
0001
0000
1000
0100
0010
0001
,
0100
0000
0010
1000
0001
0100
0001
0010
0100
1000
0001
0000
0100
0000
0001
0000
,
1000
0000
0100
0010
0100
1000
0010
0100
0001
0000
1000
0000
0100
0010
0001
0100
,
0010
1000
0001
1000
0100
0010
0001
1000
0001
0100
0001
1000
0010
1000
0001
1000
,
0100
0010
0001
1000
0010
0100
0010
1000
0001
0010
0100
1000
0001
0010
0100
0010
,
0001
1000
0010
1000
0001
0010
0100
1000
0001
0010
0100
0010
0001
1000
0010
1000
,
0001
0100
0010
1000
0001
0010
0100
1000
0001
0100
0010
0100
0001
1000
0001
0010
,
0100
1000
0001
1000
0010
0100
0001
1000
0001
0010
0001
1000
0100
1000
0001
1000
,
0010
0100
0001
1000
0100
0010
0100
1000
0001
0100
0010
1000
0001
0100
0010
0100
,
0001
1000
0100
1000
0001
0100
0010
1000
0001
0100
0010
0100
0001
1000
0100
1000
,
0001
0010
0100
1000
0001
0100
0010
1000
0001
0010
0100
0010
0001
1000
0100
1000
,
0010
0100
0001
1000
0010
1000
0001
0010
0100
1000
0001
1000
0010
0100
0001
1000
,
0100
0010
0001
0100
0001
0100
0010
1000
0100
0010
0001
1000
0001
0010
0100
1000
,
0001
0100
0010
0100
0001
1000
0010
1000
0001
0010
0100
1000
0001
0010
0100
0010
,
0001
1000
0010
1000
0001
0100
0001
1000
0100
0010
0100
1000
0010
0100
0001
1000
,
0100
0010
0001
1000
0100
1000
0001
0100
0010
1000
0001
1000
0100
0010
0001
1000
,
0010
0100
0001
0010
0001
0010
0100
1000
0010
0100
0001
1000
0001
0100
0010
1000
,
0001
0010
0100
0010
0001
1000
0100
1000
0001
0100
0010
1000
0001
0100
0010
0100
,
0001
1000
0100
1000
0001
0010
0001
1000
0010
0100
0010
1000
0100
0010
0001
1000
,
0010
0100
0010
1000
0010
0100
0001
0010
0100
1000
0001
0010
0100
0010
0001
1000
,
0001
0100
0010
0100
0001
1000
0010
0100
0001
0010
0100
1000
0001
0100
0001
1000
,
0100
0010
0100
1000
0001
0010
0001
0100
0010
1000
0010
0100
0001
1000
0010
1000
,
0001
0010
0100
1000
0010
0100
0010
1000
0100
0010
0001
1000
0100
0010
0100
1000
,
0001
0100
0010
1000
0001
0100
0001
1000
0100
1000
0001
0010
0001
1000
0010
0100
,
0001
0010
0100
1000
0001
0010
0001
1000
0010
0100
0001
1000
0001
0010
0100
0010
,
0001
0100
0010
0100
0001
1000
0010
0100
0001
0010
0100
1000
0001
0010
0001
1000
,
0010
0100
0001
1000
0001
0100
0010
1000
0100
0010
0001
0010
0100
1000
0010
0100
,
0001
0010
0100
1000
0001
0010
0001
1000
0010
1000
0001
0100
0001
1000
0100
0010
,
0001
0100
0010
1000
0001
0100
0001
1000
0100
0010
0001
1000
0001
0100
0010
0100
,
0001
0010
0100
0010
0001
1000
0100
0010
0001
0100
0010
1000
0001
0100
0001
1000
,
0100
0010
0001
1000
0001
0010
0100
1000
0010
0100
0001
0100
0010
1000
0100
0010
,
0001
1000
0010
1000
0001
1000
0010
0100
0001
0010
0100
0010
0001
1000
0100
1000
,
0001
0100
0010
1000
0001
0100
0001
1000
0100
0010
0001
1000
0001
0100
0010
1000
,
0100
0010
0001
1000
0100
1000
0001
0100
0010
0100
0001
1000
0001
0010
0100
0010
,
0001
1000
0010
1000
0001
0010
0100
0010
0001
1000
0010
0100
0001
0100
0010
1000
,
0001
0010
0001
1000
0001
0100
0010
1000
0001
1000
0100
1000
0010
0100
0001
1000
,
0010
0100
0010
1000
0100
0010
0001
1000
0001
0100
0010
1000
0100
0010
0100
1000
,
0001
0100
0001
1000
0001
0010
0100
1000
0001
1000
0010
1000
0100
0010
0001
1000
,
0100
0010
0100
1000
0010
0100
0001
1000
0001
0010
0100
1000
0010
0100
0010
1000
,
0001
0010
0001
1000
0001
0100
0010
1000
0001
1000
0100
1000
0010
0100
0001
1000
,
0010
0100
0010
1000
0001
0010
0100
1000
0001
0100
0010
1000
0001
0010
0100
1000
,
0001
0000
1000
0010
1000
0000
0001
0000
1000
0100
1000
0000
0001
0010
0001
1000
,
0100
1000
0001
0100
0010
1000
0010
0100
0001
0010
0100
0000
1000
0000
0010
0100
,
0001
1000
0100
0010
0100
1000
0001
0100
0010
1000
0010
0100
0001
0010
0100
1000
,
0001
0010
0100
0010
0001
1000
0010
0100
0001
1000
0100
0010
0001
1000
0010
0100
,
0001
0010
0100
1000
0001
0010
0001
1000
0010
0100
0001
1000
0001
0010
0100
1000
,
0100
0010
0001
0100
0001
0100
0010
1000
0001
0100
0001
1000
0001
0010
0001
1000
,
0010
0100
0001
0100
0010
1000
0001
0010
0100
1000
0100
0010
0001
0100
0010
1000
,
0001
0100
0010
0100
0001
1000
0100
0010
0001
1000
0010
0100
0001
1000
0100
0010
,
0001
0100
0010
1000
0001
0100
0001
1000
0100
0010
0001
1000
0001
0100
0010
1000
,
0001
0100
0001
0010
0100
1000
0010
1000
0001
0100
0001
0010
0100
1000
0100
0010
,
0001
1000
0010
1000
0001
0100
0001
1000
0100
1000
0001
0010
0001
0100
0010
1000
,
0001
1000
0010
0100
0001
1000
0100
0010
0001
1000
0100
1000
0001
0100
0010
1000
,
0001
0010
0100
1000
0100
0010
0001
1000
0010
0100
0010
1000
0001
0010
0100
0010
,
0001
1000
0100
1000
0010
0100
0001
1000
0100
0010
0100
1000
0010
0100
0001
1000
,
0100
0010
0001
1000
0100
0010
0100
1000
0001
0010
0100
1000
0010
0100
0001
1000
,
0010
1000
0001
0100
0001
1000
0010
0100
0001
0010
0100
1000
0001
0010
0100
0010
,
0001
0100
0001
0010
0100
1000
0010
1000
0100
0010
0001
0100
0010
1000
0100
1000
,
0001
0010
0001
0100
0010
1000
0100
1000
0010
0100
0001
0010
0100
1000
0010
1000
,
0001
0100
0010
0100
0001
1000
0001
0010
0100
1000
0100
0010
0001
0100
0010
1000
,
0001
0100
0010
0100
0001
1000
0100
0010
0001
1000
0010
0100
0001
1000
0100
0010
,
0001
0100
0010
1000
0001
0100
0001
1000
0100
0010
0001
1000
0001
0100
0010
1000
,
0010
0100
0001
0010
0001
0010
0100
1000
0001
0010
0001
1000
0001
0100
0001
1000
,
0100
0010
0001
0010
0100
1000
0001
0100
0010
1000
0010
0100
0001
0010
0100
1000
,
0001
0010
0100
0010
0001
1000
0010
0100
0001
1000
0100
0010
0001
1000
0010
0100
,
0001
0010
0100
1000
0001
0010
0001
1000
0010
0100
0001
1000
0001
0010
0100
1000
,
0001
0010
0001
0100
0010
1000
0100
1000
0001
0010
0001
0100
0010
1000
0010
0100
,
0001
1000
0100
1000
0001
0010
0001
1000
0010
1000
0001
0100
0001
0010
0100
1000
,
0001
1000
0100
0010
0001
1000
0010
0100
0001
1000
0010
1000
0001
0010
0100
1000
,
0001
0100
0010
1000
0010
0100
0001
1000
0100
0010
0100
1000
0001
0100
0010
0100
,
0001
1000
0010
1000
0100
0010
0001
1000
0010
0100
0010
1000
0100
0010
0001
1000
,
0010
0100
0001
1000
0010
0100
0010
1000
0001
0100
0010
1000
0100
0010
0001
1000
,
0100
1000
0001
0010
0001
1000
0100
0010
0001
0100
0010
1000
0001
0100
0010
0100
,
0001
0010
0001
0100
0010
1000
0100
1000
0010
0100
0001
0010
0100
1000
0010
1000
,
0001
0100
0001
0010
0100
1000
0010
1000
0100
0010
0001
0100
0010
1000
0100
1000
,
0010
0100
0001
0100
0010
1000
0001
0100
0001
1000
0010
1000
0100
0010
0001
1000
,
0001
0010
0100
1000
0001
0010
0100
0010
0001
0100
0010
1000
0001
0100
0001
1000
,
0100
0010
0100
1000
0001
0010
0100
1000
0001
0100
0001
1000
0010
1000
0001
0100
,
0001
1000
0100
0010
0001
1000
0001
0010
0100
1000
0010
0100
0001
0010
0100
1000
,
0010
1000
0001
0100
0010
0100
0001
0010
0100
1000
0001
0010
0001
0100
0010
1000
,
0001
0100
0001
0010
0100
1000
0001
0100
0001
1000
0100
1000
0001
1000
0010
1000
,
0100
0010
0001
0010
0100
1000
0010
0100
0010
1000
0001
0100
0001
0010
0100
1000
,
0001
0010
0001
0100
0010
1000
0001
0010
0001
1000
0010
1000
0001
1000
0100
1000
,
0010
0100
0010
1000
0001
0100
0001
0010
0100
1000
0100
0010
0001
0100
0010
0100
,
0001
1000
0010
1000
0100
0010
0001
0010
0100
1000
0010
1000
0001
1000
0010
1000
,
0100
0010
0100
1000
0001
0010
0001
0100
0010
1000
0010
0100
0001
0010
0100
0010
,
0001
1000
0100
1000
0010
0100
0001
0100
0010
1000
0100
1000
0001
1000
0100
1000
,
0001
0100
0001
1000
0010
1000
0001
0010
0100
1000
0001
1000
0010
0100
0001
1000
,
0100
0010
0001
1000
0010
0100
0010
1000
0001
0010
0001
1000
0001
0100
0001
1000
,
0100
0010
0100
1000
0001
0010
0001
1000
0010
0100
0010
1000
0001
0010
0100
1000
,
0001
0100
0001
1000
0100
1000
0001
0010
0001
1000
0100
1000
0001
1000
0010
1000
,
0001
0010
0001
1000
0100
1000
0001
0100
0010
1000
0001
1000
0100
0010
0001
1000
,
0010
0100
0001
1000
0100
0010
0100
1000
0001
0100
0001
1000
0001
0010
0001
1000
,
0010
0100
0010
1000
0001
1000
0010
0100
0001
1000
0100
0010
0001
1000
0100
1000
,
0001
0100
0010
1000
0001
0100
0001
1000
0100
0010
0100
1000
0001
0010
0001
0100
,
0010
1000
0100
0010
0100
1000
0001
0010
0001
1000
0010
0100
0010
1000
0001
0100
,
0001
0010
0100
1000
0001
1000
0100
0010
0001
1000
0010
0100
0010
1000
0001
0100
,
0001
0010
0100
0010
0001
1000
0100
1000
0001
0100
0010
0100
0001
1000
0010
1000
,
0100
0010
0001
0010
0100
1000
0001
1000
0010
0100
0001
0100
0010
1000
0100
0010
,
0001
0100
0010
1000
0010
0100
0001
1000
0100
0010
0100
1000
0001
0010
0100
1000
,
0010
0100
0010
1000
0001
0100
0001
1000
0100
0010
0100
1000
0001
0010
0100
0010
,
0001
0100
0010
1000
0001
1000
0100
0010
0001
0010
0100
1000
0001
0100
0010
1000
,
0001
0100
0001
1000
0100
0010
0001
1000
0010
1000
0100
0010
0001
0100
0010
1000
,
0200
0000
0000
0000
,
0000
0000
0000
0000
,
0300
0000
0000
0000
;
