#TITLE:SF-R;
#SUBTITLE:;
#ARTIST:DJ SHARPNEL;
#TITLETRANSLIT:;
#SUBTITLETRANSLIT:;
#ARTISTTRANSLIT:;
#CREDIT:;
#BANNER:SF-R-bn.png;
#BACKGROUND:SF-R-bg.png;
#LYRICSPATH:;
#CDTITLE:;
#MUSIC:SF-R.ogg;
#OFFSET:-0.160;
#SAMPLESTART:40.065;
#SAMPLELENGTH:12.000;
#SELECTABLE:YES;
#BPMS:0.000=162.500,15.000=2000.000,20.000=162.500,143.750=2000.000,148.000=162.500,163.750=2000.000,168.000=162.500,191.750=2000.000,196.000=325.000,259.000=2000.000,264.000=325.000,295.000=2000.000,300.000=325.020,331.500=2500.000,336.000=162.500,351.500=2000.000,356.000=162.500,383.500=2000.000,388.000=162.500,400.000=325.000,408.000=81.250,409.938=2000.000,412.000=162.500,451.750=2000.000,456.000=81.250,471.500=700.000,476.000=81.250,491.750=1500.000,496.000=325.000,580.000=20000.002;
#STOPS:16.000=0.040
,16.250=0.040
,17.000=0.080
,17.750=0.040
,18.000=0.040
,260.000=0.020
,261.000=0.020
,295.500=0.040
,351.500=0.020
,383.500=0.100
,492.000=0.040
;
#BGCHANGES:;
// cache tags:
#FIRSTBEAT:0.000;
#LASTBEAT:783.000;
#SONGFILENAME:Songs/cedric step/SF-R/SF-R.sm;
#HASMUSIC:1;
#HASBANNER:1;
#MUSICLENGTH:170.155;
// end cache tags

//---------------dance-single - ----------------
#NOTES:
     dance-single:
     :
     Hard:
     10:
     0.804,1.000,0.165,0.182,0.485,899.000,28.000,31.000,0.000,0.000:

1000
0000
0010
0000
0100
0000
1000
0000
0100
0010
0000
0010
0001
0000
1000
0000
,
0100
0000
0010
0000
0001
0000
0100
0000
0010
0001
0000
0001
1000
0000
0010
0000
,
0100
0000
0010
0000
1000
0000
0001
0000
1000
0100
0000
0010
0100
0000
1000
0000
,
0010
0001
1000
0100
0000
0010
0100
0010
0000
0010
0000
0100
0000
0000
0000
0000
,
0000
0000
0000
0000
,
0100
0000
0001
0010
0100
0000
0001
0010
,
0100
0000
0001
0010
0100
0000
1000
0010
,
0100
0000
1000
0010
0100
0000
1000
0010
,
0100
0000
1000
0010
0100
0000
0010
0000
,
1010
0000
1000
0100
0001
0000
1000
0100
,
0001
0000
1000
0100
0001
0000
1000
0100
,
0001
0000
0001
0010
1000
0000
0001
0010
,
1000
0000
0001
0010
1000
0100
0010
0010
,
0100
0000
0010
0100
0010
0000
1000
0100
,
0001
0000
0100
0001
0010
0000
0001
0010
,
1000
0000
0010
1000
0100
0000
0010
0100
,
0010
0000
0100
0010
0100
0000
0001
1000
,
1001
0000
1010
0100
0001
0000
0100
0010
,
1001
0000
0011
0100
1000
0000
0100
0010
,
1100
0000
1001
0100
0001
0000
1000
0010
,
0101
0000
0010
0000
1000
0000
0100
0000
0010
0100
0010
0100
0010
0100
0010
0000
,
2000
0000
0100
0000
3010
0001
0100
0010
,
0200
0000
0000
0000
0000
0000
1300
0000
0010
0000
0000
1000
0001
0000
0000
0000
,
0020
0000
1000
0000
0130
0010
0001
1000
,
0020
0000
0000
0000
2030
0000
0000
0000
3100
0000
0000
1000
0100
0010
0100
0000
,
0001
0100
0010
0000
0200
0000
0000
0000
0301
0000
0010
0000
0100
0000
1000
0000
,
0001
1000
0001
1000
0020
0000
0000
0000
0130
0000
0000
0010
0002
0000
0000
0000
,
2000
0000
3003
0000
0000
1000
0100
1000
,
0010
0000
0000
0010
0100
0000
0000
0100
1000
0000
1001
0000
0000
0000
0010
0000
,
0002
0000
0000
0000
0010
0000
0000
0000
0103
0000
0010
1000
0010
0000
0100
0000
,
0022
0000
0000
0000
0000
0000
0000
0000
0033
0000
0100
0010
0100
0001
0000
1000
,
0020
0000
0000
0000
1000
0000
0000
0000
0031
0000
0000
0000
0010
1000
0100
0000
,
0020
0000
0000
0000
0001
0000
0000
0000
1030
0000
0100
0010
0001
0000
0100
0000
,
0020
0000
0000
0000
1000
0000
0000
0000
0031
0000
0010
0000
1000
0100
0000
0100
,
0010
0000
0000
0010
0000
0000
0010
0000
1000
0000
0000
1000
0000
0000
0100
0000
,
0010
0000
0001
0000
1000
0001
1000
0000
0001
1000
0001
1000
0001
1000
0001
1000
,
0000
0000
0000
0000
,
0001
0000
0000
0000
0010
0000
0000
0000
0100
0010
0000
0100
0010
0000
0100
0010
,
0001
0000
0000
0000
0100
0000
0000
0000
0010
1000
0000
0010
1000
0000
0010
1000
,
0100
0010
0001
0000
0010
0000
0100
0000
0001
0000
0010
0000
0100
0010
0001
1000
,
0001
1000
0010
0000
0100
0000
0000
1000
0001
0000
0001
1000
0000
0010
0100
0010
,
0000
0000
0000
0000
,
0100
0000
0000
0000
0100
0000
0000
0000
0001
1000
0000
1000
0001
0000
0010
0100
,
1000
0000
0000
1000
0010
0000
0000
0000
0100
0001
0010
0100
0010
0000
0001
0000
,
1000
0001
1000
0001
0000
0000
0000
0000
0100
0000
0010
0000
1000
0000
0100
0000
,
1001
0000
0000
0100
0020
0000
0000
0000
1000
0000
1030
0000
0100
0000
0001
0010
,
0100
0010
0001
0000
2000
0000
0000
0000
0010
0000
0000
0000
3001
0000
0000
0000
,
0100
0000
0010
0000
1000
0100
0000
0100
0010
0000
0010
0000
0001
1000
0000
1000
,
0000
0000
0000
0000
,
0010
1010
0000
0100
,
0010
0000
1000
0000
0100
0010
0100
0010
,
0100
0000
0000
0100
0001
0000
0000
0001
,
1000
0000
0000
1000
0100
0000
0010
0000
,
0001
0010
0001
0000
1000
0000
0001
0100
,
0001
0000
0001
1000
0001
1000
0001
1000
,
0001
0000
0000
0001
0100
0000
0000
0100
,
1000
0000
0000
1000
0010
0000
0000
0000
,
1001
0010
0000
0100
,
0001
0010
0100
0010
1000
0010
0001
0100
,
0010
0000
0000
0010
1000
0000
0000
1000
,
0001
0000
0000
0001
0010
0000
0000
0000
,
0100
1000
0100
0000
0010
0000
0100
0001
,
0100
0000
1001
0000
0100
0010
0100
0010
,
0100
0000
0000
0010
0100
0000
0000
0000
,
1001
0110
1001
0110
,
0000
0000
0000
0000
,
1000
0000
0010
1000
0000
0000
0001
0000
,
0010
0000
0000
1000
0000
0000
0100
0000
,
1000
0000
1000
0010
0000
0000
0100
0000
,
0001
0000
0000
0010
0000
0000
0001
0000
,
0100
0000
0100
0001
0000
0000
0010
0000
,
1000
0000
0000
0100
0000
0000
0001
0000
,
0010
0000
1000
0010
0000
0000
0100
0000
,
0001
0000
0000
0010
0000
0000
1001
0000
,
0000
0000
0000
0000
,
0100
0010
0100
0000
0010
0100
0010
0000
,
1000
0001
1000
0000
0001
1000
0001
0000
,
0001
0010
0100
0000
0010
0100
1000
0000
,
1000
0010
0100
0000
0010
0100
0001
0000
,
1000
0100
1000
0100
1000
0100
1000
0100
,
0010
0001
0010
0001
0010
0001
0010
0001
,
0100
0010
0100
0010
0100
0010
0100
0010
,
1000
0001
1000
0001
1000
0001
1000
0001
,
0000
0000
0000
0000
,
2000
0000
0000
0000
0100
0000
0000
0000
3010
0000
0100
0000
0001
1000
0010
0000
,
0100
0000
0000
0000
0100
0000
0000
0010
1000
0000
0100
0000
0010
0000
0000
0100
,
0020
0000
0000
0000
0001
0000
0000
0000
0031
0000
0100
0000
0001
0010
0100
0000
,
1000
0000
0000
1000
0100
0000
0000
0100
0001
0000
0000
0001
0010
0000
1000
0000
,
0000
0000
0000
0000
,
0100
0010
0100
0000
1002
0000
0000
0000
0100
0000
0010
0000
0013
0000
0100
0000
,
1000
0010
1000
0100
0010
0002
0000
0000
0010
0000
0000
0000
0103
0000
1000
0000
,
0210
0000
0000
0000
0010
0000
0000
0000
0301
0000
0010
0100
1000
0000
0010
0100
,
0010
0000
0000
0010
1000
0000
0000
0000
0000
1000
0100
0000
0000
0000
0100
0010
,
0200
0000
0000
0000
0000
0000
0000
0000
0010
0000
0000
0000
0000
0000
0000
0000
1300
0000
0000
0000
0000
0010
0000
0100
0000
0000
0000
0000
0010
0000
0000
0000
,
2000
0000
0000
0000
0100
0000
0000
0000
3010
0000
0001
0000
1000
0100
1000
0000
,
0110
0000
0000
0100
0000
0000
0100
0000
0010
0000
0000
0010
0000
0000
0010
0000
,
0000
0000
0000
0000
,
1002
0000
0010
0000
0103
0010
1000
0100
,
0020
0000
0000
0000
0001
0000
0000
0000
1030
0000
0001
0000
0100
0010
0000
0010
,
0100
0001
0010
0100
1000
0010
0100
0001
,
0010
0110
0100
0110
,
0010
0100
0010
0000
0100
0010
0100
0010
,
0100
0000
0010
0000
0100
0000
0010
0000
0010
0100
0000
0001
1000
0001
1000
0001
2000
0000
0000
0000
0000
0000
0000
0000
0000
0000
0000
0000
0000
0000
0000
0000
,
0000
0000
0000
0000
3001
0000
0000
0000
0001
1000
0000
1000
0001
0010
0100
1000
,
0100
0000
0010
0000
0001
1000
0000
1000
0001
0000
0100
0000
0010
1000
0100
0000
,
0000
0000
0010
0100
0010
0100
0000
0010
0100
0000
0010
0100
0000
0010
0100
0000
,
1000
0010
1000
0010
0000
0100
1000
0000
0001
0100
0000
1000
0001
0000
0010
1000
,
0100
0000
0000
0000
0010
0000
1000
0000
0100
0010
0001
0000
1000
0100
1000
0000
,
0100
0000
0000
0100
0010
0000
0000
0000
0001
0000
1000
0100
1000
0000
0010
0000
,
0001
0100
0001
0000
0010
0000
0000
0000
0000
0001
1000
0000
0100
0000
0010
0000
,
1000
0010
0100
0000
0000
0010
0001
0100
,
0010
0100
0010
0000
2000
0000
0000
0100
0000
0000
0100
0000
0000
3100
0000
0000
,
0000
0000
0001
0010
0000
0010
0000
0010
0100
0000
0100
1000
0000
0000
0001
1000
,
0000
0000
0000
0000
,
0010
0000
0000
0000
0010
0000
0000
0000
0010
0000
0000
0100
0010
0000
0000
0000
0010
0000
0000
0000
0010
0000
0000
0000
0010
0000
0000
0100
0010
0000
0000
0000
,
1000
0001
1000
0001
0001
1000
0001
1000
,
0010
0000
1000
0000
0100
0000
0000
0010
0001
0000
0100
0000
1000
0000
0000
0000
0100
0000
1000
0000
0010
0000
0000
0100
0001
0000
0010
0000
1000
0000
0000
0000
,
0010
0000
0001
0000
0100
0000
0000
0010
0001
0000
0100
0000
1000
0000
0000
0000
0010
0000
0000
0000
0100
0000
0000
0000
0001
0000
0000
0000
0020
0000
0000
0000
,
0000
0000
0000
0000
,
1030
0100
0010
0001
1000
0010
0100
0001
0100
0010
0001
1000
0010
0100
0010
0001
,
1000
0000
0000
0100
0010
0000
0000
0000
1000
0000
0000
0100
0010
0000
0000
0000
0001
0000
0000
0100
0010
0000
0000
0000
0001
0000
0000
0100
0010
0000
0000
0000
,
1000
0000
0000
0000
1000
0000
0000
0000
0100
0010
0100
0000
0010
0000
0001
0000
0100
0000
0000
1000
0010
0000
0000
0000
0100
0000
0001
0000
0010
0000
0100
0000
,
0010
1000
0010
0000
0100
0000
0000
0000
0000
0000
0000
0100
1000
0000
0010
0000
0100
0000
0000
0000
0010
0000
0000
0000
1000
0000
1000
0000
1000
0000
0001
0000
,
0000
0000
0000
0000
,
1000
0000
0100
0000
0010
1000
0000
1000
,
0100
0000
0010
0000
0001
1000
0001
1000
,
0001
0000
0010
0100
0000
0010
0100
0000
,
0100
1000
0000
0001
0010
0100
0010
0100
,
0000
1000
0010
0000
0010
0100
0000
0100
,
0001
0000
0010
0000
0000
0010
0000
0000
,
0000
0000
1001
0000
1001
0000
0000
0010
,
0100
0000
0010
0100
0000
0010
0100
0010
,
1000
0010
0001
0010
,
1000
0001
1000
0000
0001
1000
0001
0000
,
0010
0100
1000
0001
,
1000
0010
0100
0000
0001
0010
0100
1000
,
0001
1000
0001
0000
1000
0000
0010
0000
,
0100
0010
1000
0100
,
0001
0100
0010
0100
,
0100
0010
0100
0000
0100
0001
0100
0010
,
0000
1000
0100
0000
0100
0010
0000
0010
,
1000
0000
1000
0100
0000
0100
0010
0000
,
0000
0000
0001
0010
0000
0010
0100
0000
,
0100
0001
0000
0001
0010
0000
0010
0100
,
0010
1000
0100
2002
,
0000
0000
0000
0000
,
0000
0000
0000
0000
,
0000
0000
0000
0000
,
0000
0000
0000
0000
,
0000
0000
0000
0000
,
0000
0000
0000
0000
,
0000
0000
0000
0000
,
0000
0000
0000
0000
,
0000
0000
0000
0000
,
0000
0000
0000
0000
,
0000
0000
0000
0000
,
0000
0000
0000
0000
,
0000
0000
0000
0000
,
0000
0000
0000
0000
,
0000
0000
0000
0000
,
0000
0000
0000
0000
,
0000
0000
0000
0000
,
0000
0000
0000
0000
,
0000
0000
0000
0000
,
0000
0000
0000
0000
,
0000
0000
0000
0000
,
0000
0000
0000
0000
,
0000
0000
0000
0000
,
0000
0000
0000
0000
,
0000
0000
0000
0000
,
0000
0000
0000
0000
,
0000
0000
0000
0000
,
0000
0000
0000
0000
,
0000
0000
0000
0000
,
0000
0000
0000
0000
,
0000
0000
0000
0000
,
0000
0000
0000
0000
,
0000
0000
0000
0000
,
0000
0000
0000
0000
,
0000
0000
0000
0000
,
0000
0000
0000
0000
,
0000
0000
0000
0000
,
0000
0000
0000
0000
,
0000
0000
0000
0000
,
0000
0000
0000
0000
,
0000
0000
0000
0000
,
0000
0000
0000
0000
,
0000
0000
0000
0000
,
0000
0000
0000
0000
,
0000
0000
0000
0000
,
0000
0000
0000
0000
,
0000
0000
0000
0000
,
0000
0000
0000
0000
,
0000
0000
0000
0000
,
0000
0000
0000
0000
,
0000
0000
0000
3003
;

//---------------dance-single - ----------------
#NOTES:
     dance-single:
     :
     Medium:
     9:
     0.564,1.000,0.159,0.212,0.088,609.000,27.000,36.000,0.000,0.000:



0000
0000
0000
0000
,
0000
0000
0000
0000
,
0000
0000
0000
0000
,
0000
0000
0000
0000
,
0000
0000
0000
0000
,
0000
0000
0000
1000
0100
0000
0000
1000
,
0010
0000
0000
1000
0001
0000
0000
1000
,
0010
0000
0000
1000
0100
0000
0000
1000
,
0010
0000
0000
1000
0001
0000
1000
0000
,
1010
0000
0000
0001
0100
0000
0000
0001
,
0010
0000
0000
0001
0010
0000
0000
0001
,
1000
0000
0000
1000
0100
0000
0000
1000
,
0010
0000
0000
1000
0001
1000
0001
1000
,
0001
0000
0000
0001
1000
0000
0000
0001
,
0100
0000
0000
0100
1000
0000
0000
1000
,
0010
0000
0000
0010
0001
0000
0000
0001
,
1000
0000
0000
1000
0001
0000
0000
0010
,
0110
0000
1010
0000
0110
0000
0001
1000
,
0100
0000
1100
0000
0011
0000
0001
1000
,
0010
0000
0110
0000
0101
0000
0010
1000
,
0100
0000
0010
0000
0001
0000
0001
0000
1000
0001
1000
0000
1000
0001
1000
0000
,
0020
0000
0001
0000
1030
0100
0001
1000
,
0002
0000
0010
0000
1003
0000
0100
0010
,
2000
0000
0010
0000
3001
0000
0100
0010
,
2000
3020
0032
2003
,
3001
0001
0002
0000
0003
0000
0000
0000
,
1000
1000
2000
0000
3001
0000
0200
0000
,
0010
0310
1000
0001
,
1000
0000
0000
0000
0001
0000
0000
0010
0000
0000
0001
0000
0000
0000
1000
0000
,
0200
0000
1000
0000
0301
0000
1000
0001
,
0200
0000
0010
0000
0310
0001
0001
0000
,
2000
0000
0010
0000
3100
0000
1000
0001
,
0020
0000
0100
0000
0130
0001
0100
0010
,
2000
0000
0010
0000
3100
1000
0100
0010
,
0100
0000
0000
0010
0000
0000
0100
0000
0001
0000
0000
0010
0000
0000
0001
0000
,
1000
0100
0010
0100
0010
0100
0100
0100
,
0000
0000
0000
0000
,
0100
0000
1000
0000
0100
0010
0100
0000
,
0010
0000
0001
0000
1000
0010
0100
0000
,
0010
0000
1000
0000
0100
0010
0001
0000
,
0100
0000
0010
0000
0001
0100
0010
0001
,
0000
0000
0000
0000
,
0010
0000
0100
0000
1000
0001
1000
0000
,
0010
0000
0100
0000
1000
0010
0100
0000
,
1000
0000
0010
0000
0100
1000
0010
0100
,
1000
0010
0100
1000
0001
1000
0001
0000
,
0010
0100
0010
0000
0100
0010
0100
0000
,
2000
0100
0010
0001
,
0000
0000
0000
3000
,
0100
0100
0000
0001
,
1000
0010
0001
0001
,
0001
0000
0100
0000
,
0010
0000
0001
1000
,
0100
0100
0010
0100
,
0100
0100
0100
0100
,
0100
0000
0001
0000
,
0010
0000
1000
0000
,
0110
1000
0000
0001
,
0100
0001
0010
0100
,
1000
0000
0010
0000
,
0100
0000
1000
0000
,
0001
0001
1000
0001
,
0001
0110
0001
0001
,
0001
0000
0001
0000
,
0001
0010
0100
1000
,
0000
0000
0000
0000
,
0010
0000
1000
0000
0000
0000
1000
0100
,
1000
0000
0000
0001
,
0010
0001
0010
0000
0000
0000
0001
0100
,
0001
0000
0000
0100
,
0001
1000
0001
0000
0000
0000
1000
0100
,
1000
0000
0000
0100
,
0010
1000
0010
0000
0000
0000
0010
1000
,
0010
0000
0000
0110
,
0000
0000
0000
0000
,
0001
0001
1000
1000
,
0010
0010
0100
0100
,
0100
0001
1000
0010
,
0010
0001
1000
0100
,
0010
1000
0010
0000
0010
1000
0010
0000
,
1000
0010
1000
0000
1000
0010
1000
0000
,
0001
0001
0001
0001
,
0010
0010
0010
0010
,
0000
0000
0000
0000
,
0020
0000
0001
0000
1030
0001
0100
1000
,
0001
0000
0001
0000
0010
0001
1000
0000
,
2000
0000
0100
0000
3100
0001
0100
0001
,
0010
0010
0001
0001
0100
0100
1000
0010
,
0000
0000
0000
0000
,
0001
0001
0002
0000
0000
0000
0003
0000
,
0010
0010
0020
0000
0000
0000
0130
0010
,
0220
0000
0000
0000
0330
1000
0001
1000
,
1001
0000
0110
0000
0000
0001
0000
0001
,
0002
0000
1000
0000
0013
1000
0001
1000
,
0020
0000
0001
0000
1030
0001
0010
0000
,
2002
0000
0000
0000
0000
0000
0000
3003
,
0000
0000
0000
0000
,
0210
1000
0301
0010
,
2000
0000
0100
0000
3010
0100
0001
1000
,
0002
0000
0000
0000
1000
0000
0000
0000
0010
0000
0000
0000
0100
0003
0000
0000
,
1000
1000
0100
0010
,
0001
0000
0001
0000
0001
1000
0001
0000
,
2000
0000
0000
0000
0000
0000
0000
0000
0000
0000
0000
0000
0000
0000
0000
0000
3010
0000
0000
0000
0100
0000
0000
0000
0010
0000
0000
0000
0100
0000
0000
0020
0000
0000
0000
0000
0000
0000
0000
0000
0000
0000
0000
0000
0000
0000
0000
0000
0000
0000
0000
0000
0000
0000
0000
0000
0000
0000
0000
0000
0000
0000
0000
0000
,
0000
0000
0000
0000
0000
0000
0000
0000
0000
0000
0000
0000
0000
0000
0000
0000
0100
0030
0000
0000
0000
0000
0000
0000
0000
0000
0000
0000
0000
0000
0000
0000
0101
0000
0000
0000
0000
0000
0000
0000
0000
0000
0000
0000
0000
0000
0000
0000
0100
0000
0000
0000
0000
0000
0000
0000
0001
0000
0000
0000
0000
0000
0000
0000
,
0001
1000
0100
0000
0100
0001
1000
0001
,
0000
1000
1000
0000
0001
0000
0001
0010
,
0000
0100
0100
0000
0100
1000
0100
1000
,
0001
0000
1000
0010
0001
0100
0010
0010
,
0001
0000
1000
0000
0100
0010
0010
1000
,
0100
0100
0000
0000
0010
0010
0000
1000
,
0010
1000
0001
0000
0000
1000
0100
0001
,
1000
0000
1000
0000
0020
0000
0000
0000
0000
0000
0000
0000
0000
0030
0000
0000
,
0000
0100
0100
0000
0001
0001
0000
0100
,
0000
0000
0000
0000
,
0100
0010
1000
0001
0100
0010
1000
0001
,
0010
0100
1000
0010
0001
0100
0001
1000
,
0010
0110
1000
1100
0010
0101
0010
1100
,
0100
0011
0100
1001
1000
0011
0110
2002
,
0000
0003
0000
0000
,
3010
0001
0010
0000
0010
0001
0010
0000
0010
0001
0010
0000
0010
0001
0010
0000
,
0100
1000
0100
0000
0100
1000
0100
0000
1000
0100
1000
0000
0100
1000
0100
0000
,
0010
0100
0010
0100
0010
0100
0010
0100
0001
1000
0001
1000
0001
1000
0001
1000
,
0100
0010
0100
0010
0100
0010
0100
0020
0000
0000
1000
0030
0010
0010
0010
0100
,
0000
0000
0000
0000
,
0010
0001
1000
0000
,
0001
1000
0100
0100
,
0100
1000
0000
0100
,
0100
0000
0001
0001
,
0000
0010
0010
0000
,
0100
1000
0000
0010
,
0000
0110
0100
0000
,
0001
1000
0000
0001
,
0010
1000
0100
1000
,
0010
0010
0100
0100
,
1000
0001
0010
0100
,
0010
0001
0100
0001
,
0100
0100
0010
1000
,
0001
1000
0010
0001
,
0100
0100
1000
0001
,
1000
0010
1000
0010
,
0100
0001
0001
0000
,
0010
0010
0000
1000
,
0000
0100
0000
0001
,
0001
0000
1000
1000
,
1000
0000
0100
0000
0001
0000
0000
0002
,
0000
0000
0000
0000
,
0003
0000
0000
0000
;

//---------------dance-single - ----------------
#NOTES:
     dance-single:
     :
     Easy:
     4:
     0.355,0.600,0.059,0.217,0.000,376.000,10.000,37.000,0.000,0.000:



0000
0000
0000
0000
,
0000
0000
0000
0000
,
0000
0000
0000
0000
,
0000
0000
0000
0000
,
0000
0000
0000
0000
,
0001
0000
0010
0000
,
0100
0000
1000
0000
,
0100
0000
0010
0000
,
0100
0000
1000
0001
,
0100
0000
0010
0000
,
0100
0000
0100
0000
,
0001
0000
0010
0000
,
0100
0000
1000
1000
,
1000
0000
0001
0000
,
0010
0000
0001
0000
,
0100
0000
1000
0000
,
0001
0000
1000
0000
,
0100
0100
0100
1000
,
0010
0010
1000
1000
,
0100
0100
1000
0100
,
0010
1000
0001
0001
,
0200
0000
0300
1000
,
2000
0000
3000
0010
,
0002
0000
0003
0010
,
0002
0003
2000
3000
,
1000
2000
3000
0000
,
0001
0002
0003
0020
,
0000
0030
0001
1000
,
0001
1000
0000
0000
,
0020
0000
0030
0001
,
0020
0000
0030
1000
,
0002
0000
0003
0001
,
0200
0000
0300
0010
,
0002
0000
0003
0010
,
0020
0000
2030
0000
,
3002
0100
0103
2000
,
0000
0000
0000
0000
,
3010
0001
0010
0010
,
0100
1000
0001
0010
,
0100
0001
0010
1000
,
0010
0100
1000
0200
,
0000
0000
0000
0000
,
0301
0010
0001
0001
,
0100
0010
0001
0010
,
0001
0100
0010
0100
,
0001
0010
1000
1000
,
0100
0100
0010
0010
,
0002
0000
0000
0000
,
0000
0000
0000
0003
,
0010
0000
0010
1000
,
0001
0100
1000
0000
,
1000
0000
0010
0000
,
0100
0000
1000
0001
,
0010
0000
0100
0010
,
0010
0000
0010
0010
,
0010
0000
1000
0000
,
0100
0000
0001
0000
,
0100
0001
0000
1000
,
0010
1000
0100
0010
,
0000
0001
0100
0000
,
0010
0000
0001
0000
,
1000
1000
0000
0001
,
0001
0000
0010
0010
,
0000
0100
0100
0000
,
1000
0100
0010
0001
,
0000
0000
0000
0000
,
0100
0001
0000
0001
,
0001
0000
0000
1000
,
0100
0100
0000
1000
,
1000
0000
0000
0010
,
1000
1000
0000
0001
,
0001
0000
0000
0010
,
0100
0100
0000
0100
,
0100
0000
0000
0100
,
0000
0000
0000
0000
,
1000
1000
0001
0001
,
0100
0100
0010
0010
,
0010
1000
0001
0100
,
0100
1000
0001
0010
,
0100
0100
0100
0100
,
0001
0001
0001
0001
,
1000
1000
1000
1000
,
0100
0100
0100
0100
,
0000
0000
0000
0000
,
0200
0000
0300
0010
,
1000
1000
0100
0001
,
0002
0000
0003
0010
,
0100
1000
0010
0002
,
0000
0000
0000
0000
,
1003
2000
0000
3000
,
0100
0200
0000
0300
,
0200
0000
0300
1000
,
1000
0020
0000
0000
,
0032
0000
0003
1000
,
0200
0000
0300
0100
,
2020
0000
0000
0000
0000
0000
0000
3000
,
0000
0000
0000
0000
,
0130
0001
1000
0100
,
0002
0000
0003
1000
,
2000
0000
0000
0000
0000
0000
0000
0000
0000
0000
0000
0000
0000
3000
0000
0000
,
0001
0001
0010
0100
,
1000
1000
0000
0000
,
0002
0003
0000
0000
,
0000
0010
1000
0010
,
1000
0010
0010
0001
,
0000
0001
1000
1000
,
0100
0010
0010
0010
,
1000
0001
1000
0100
,
1000
0001
0010
0100
,
0010
0001
0100
1000
,
0100
1000
0001
0010
,
0001
0000
0000
0000
0200
0000
0000
0000
0000
0000
0000
0000
0000
0300
0000
0000
,
0000
0010
1000
0000
,
0000
0000
0000
0000
,
0010
0001
0010
0001
,
0100
0001
1000
1000
,
0100
0010
0100
0100
,
0010
0010
0001
0100
,
0000
0000
0000
0000
,
0100
0100
0100
0100
,
0010
0010
0010
0010
,
0101
1100
1010
1100
,
0011
0000
0110
0000
0110
0110
0220
0000
,
0000
0000
0000
0300
,
0130
0010
0100
0000
,
1000
0001
1000
0000
,
1000
1000
0000
0010
,
0010
1000
1000
0000
,
0100
0010
0100
0000
,
0010
0001
0010
0000
,
0001
0001
0000
0010
,
0010
1000
1000
0000
,
0100
0001
0010
0000
,
0100
1000
0010
0000
,
0001
1000
0100
0000
,
0001
1000
0100
0000
,
0010
0010
0000
0010
,
1000
0001
0100
0000
,
0010
0010
0000
0001
,
1000
0100
0010
0000
,
0010
1000
1000
0000
,
0100
0100
0000
0001
,
0000
0010
0000
1000
,
1000
0000
0001
0001
,
0001
0010
0002
0000
,
0000
0000
0000
0003
;

//---------------dance-single - ----------------
#NOTES:
     dance-single:
     :
     Challenge:
     12:
     1.000,1.000,1.000,0.235,0.952,1268.000,258.000,40.000,0.000,55.000:



0001
0000
0100
0000
0010
0000
0001
0000
0010
0100
0000
0100
1000
0000
0001
0000
,
0010
0000
0100
0000
1000
0000
0010
0000
0100
1000
0000
1000
0001
0000
0100
0000
,
0010
0000
0100
0000
0001
0000
1000
0000
0001
0010
0000
0100
0010
0000
0001
0000
,
0100
1000
0101
0010
0000
0100
0010
0100
1000
0100
0001
0010
0100
0000
0000
0000
,
0010
0100
0000
0000
0010
0000
0000
0100
0010
0000
0000
0000
0000
0000
0000
0000
,
0011
0000
1001
0100
0011
0000
1001
0100
,
0011
0000
1001
0100
0011
0000
1001
0100
,
1010
0000
1001
0100
1010
0000
1001
0100
,
1010
0000
1001
0100
1010
0000
1100
0000
,
0101
0110
0001
0010
1000
0110
0001
0010
,
1000
0110
0001
0010
1000
0110
0001
0010
,
1000
0110
1000
0100
0001
1001
1000
0100
,
0001
0110
1000
0100
0001
1011
0100
0100
,
0010
0110
0100
0010
0100
1010
0001
0111
,
1000
1010
0010
1101
0100
1010
1000
0101
,
0001
1010
0100
0101
0010
1010
0100
0111
,
0100
1010
0010
0101
0010
1010
1000
0101
,
1001
1010
0101
0111
1000
0011
0010
1100
,
1001
0011
1100
1110
0001
0011
0010
1100
,
0011
0011
1001
1110
1000
0011
0001
1100
,
1010
0000
0000
0000
0111
0000
0000
0000
0001
0000
0000
0000
1110
0000
0000
0000
0100
0010
0100
0010
0100
0010
0100
0010
0100
0010
0100
0010
0100
0010
0100
0000
,
0002
1000
0010
1000
0103
1000
0010
0100
,
0020
0000
0001
0000
1000
0000
0031
0000
0100
0000
0010
0001
1010
0000
0010
0000
,
0200
0000
1000
0000
0001
0000
0001
0000
0310
0000
0100
0010
1000
0010
0001
0000
,
0200
0000
0010
0000
0302
0000
1000
0000
0013
0000
0000
0001
0010
0100
0010
0000
,
1000
0010
0100
0000
0020
0000
0100
0000
1030
0000
0100
0000
0010
0000
0001
0000
,
1000
0001
1000
0001
0200
0000
0001
0000
0310
0000
0010
0100
2000
0000
0100
0000
,
0012
0000
0100
0000
3013
0000
0100
0000
0010
0100
0001
1000
0010
0000
0001
0000
,
0100
0000
1000
0100
0010
0000
0001
0010
0001
0000
1001
0000
0010
0000
0100
0000
,
2000
0000
0010
0000
0100
0000
0001
0000
3010
0000
0100
0001
0100
0000
0010
0000
,
2200
0000
0000
0000
0010
0000
0000
0000
0001
0000
0000
0000
0010
0000
0000
0000
3301
0000
0100
0000
0010
0000
0100
0000
0010
0000
1000
0000
0100
0000
0010
0001
,
0200
0000
0000
0010
0001
0010
0000
0000
1300
0100
0000
0010
0100
0001
0010
0000
,
0200
0000
0010
0000
1000
0000
0010
1000
0301
0100
0010
0100
1000
0001
0010
1000
,
0200
0000
0010
0000
0001
0010
0000
0010
1300
0000
0100
0000
0001
0010
0000
0010
,
0100
0000
1000
0100
0000
1000
0100
0010
0001
0000
0010
0001
0000
0000
0010
0000
,
0100
0000
0000
0000
1000
0000
0000
0000
0001
0000
1000
0000
0001
0000
0000
0000
1000
0001
1000
0001
1000
0001
1000
0001
1000
0001
1000
0001
1000
0001
1000
0001
,
0000
0000
0000
0000
,
1000
0010
0000
0010
0100
0001
0000
0001
0010
0100
0010
0100
0010
0100
0010
0100
,
1000
0001
0000
0001
0010
1000
0000
1000
0100
0001
0100
0001
0100
0001
0100
0001
,
0010
0100
1000
0100
0000
0100
0010
0001
0000
0001
0100
0000
0010
0100
1000
0001
,
1000
0000
0000
0001
0000
0000
0100
0000
0000
0000
0000
0000
0010
0000
0000
0000
0000
0000
0000
0000
0000
0001
0000
0000
1000
0000
0000
0000
0000
0000
1000
0000
0000
0001
0000
0000
0010
0000
0100
0000
0010
0000
0100
0000
0010
0000
0100
0000
,
0000
0000
0000
0000
,
0010
0000
1000
0000
0010
0000
0000
0000
0100
0000
0000
0000
0010
0000
0000
0000
0000
0000
0100
0000
0000
0000
0000
0000
1000
0000
0000
0001
0000
0000
0000
0000
0000
0001
0000
0000
1000
0000
0000
0100
0000
0000
0010
0000
0000
1000
0000
0000
,
0001
0000
0010
0001
0100
0010
0000
0001
0010
1000
0100
0010
0100
0001
1000
0100
,
0001
1000
0001
1000
0010
0100
0000
0100
0010
0000
1100
0000
0011
0000
0110
0000
,
1001
0000
0100
0010
0200
0000
0000
0000
0001
0000
0301
1000
0010
0001
1000
0100
,
0010
0100
1000
0000
0002
0100
0000
0010
0100
1000
0000
0100
1003
0000
0100
0000
,
0010
0000
0100
0000
0001
0010
0000
0010
0100
0000
0100
0000
1000
0001
0000
0001
,
0000
0000
0000
0000
,
0100
0010
0101
0000
0000
0000
0010
1000
,
0100
1000
0001
0000
0010
0100
0010
0100
,
0010
0000
0000
0010
1000
0100
0000
1000
,
0001
0100
0000
0001
0010
1000
0100
0000
,
1000
0100
1000
0010
0001
0000
1000
0010
,
1000
0100
1000
0001
1000
0010
0100
0001
,
0010
0000
0000
1000
0100
0010
0001
1000
,
0100
0010
1000
0100
0010
1000
0100
0010
,
0001
0100
0010
0001
0100
0010
0100
0001
,
1000
0100
0010
0100
0001
0100
1000
0010
,
0100
0000
0000
0100
1001
0000
0000
0001
,
1100
0010
0000
1000
0110
1000
0000
0100
,
1010
0001
0010
1000
0101
0010
1000
0001
,
0110
0000
1001
0000
0011
0100
0001
0100
,
1010
0000
0000
0100
1010
0000
0000
0100
,
1001
0100
1010
0100
1001
0100
0110
0000
,
0000
0000
0000
0000
,
0001
0010
0000
0100
0000
0010
0001
0000
0000
0000
0000
0000
1000
0010
0000
0010
,
0100
0000
0000
0000
0000
0100
0001
0100
0000
0000
0000
0000
0010
1000
0000
1000
,
0001
0000
0010
0000
0001
1000
0100
1000
0000
0000
0000
0001
0010
0100
0000
0100
,
1000
0000
0000
0000
0000
0010
0100
0001
0000
0000
0000
0100
1000
0100
0000
0000
,
0010
0001
0000
0001
0010
0100
1000
0100
0000
0000
0000
0000
0100
0000
1000
0000
,
0101
0000
0000
0010
0101
0000
1000
0000
,
0110
0000
0001
0100
0000
0000
1010
0000
,
1000
0000
0000
0100
0000
0000
2222
0000
,
0000
0000
0000
0000
0000
0000
0000
0030
,
3313
0100
0010
1001
0100
0010
0100
0110
,
0001
1000
0001
0110
1000
0001
1000
0000
,
1000
0100
0010
0000
0100
0010
0001
0000
,
0001
0100
0010
0000
0100
0010
1000
0000
,
1001
0010
0001
0010
1001
0010
0001
0010
,
0101
1000
0100
1000
0101
1000
0100
1000
,
0011
0100
0010
0100
0011
0100
0010
0100
,
0101
1000
0001
1000
0101
1000
0001
1000
,
0000
0000
0000
0000
,
0002
0000
1100
0000
0110
0000
1010
0000
0113
0000
0110
0000
1010
0001
0100
0000
,
1010
0000
0101
0000
1010
0000
0000
0100
0011
0000
0011
0000
0110
0000
0000
0010
,
0202
0000
1000
0000
1010
0000
0010
0000
1303
0000
0110
0000
1100
0100
0011
0000
,
0011
0000
0010
0001
0110
0000
0100
0010
1100
0000
0100
1000
0110
0000
0001
0000
,
0000
0000
0000
0000
,
1010
0100
1010
0000
2101
0000
0100
0000
0110
0000
0101
0000
3101
0000
0010
0000
,
0011
0100
0011
0010
0100
2000
0010
0000
0110
0000
0010
0000
3110
0000
0101
0000
,
1120
0000
1000
0000
1100
0000
0001
0000
1031
0000
0101
0010
1001
0000
0100
0010
,
1100
0000
1000
0100
0011
0000
0010
0000
0010
0001
0110
0000
0100
0000
0110
0100
,
0021
0000
0000
0000
0001
0000
0000
0000
0101
0000
0000
0000
1000
0000
0000
0000
1031
0000
0000
0000
1000
0100
0000
0010
0001
0000
0000
0000
0110
0000
0000
0000
,
0012
0000
1000
0000
0110
0000
0100
0000
0113
0000
1010
0000
0101
0010
0101
0000
,
1110
0000
1000
0010
1000
0000
0011
0000
0101
0000
1001
0100
1001
0000
1101
0000
,
0000
0000
0000
0000
,
2001
0010
0110
0001
3011
1110
1011
0110
,
1210
0000
0001
0000
1010
0000
0010
0000
0311
0000
1100
0000
0011
0100
0001
0100
,
0011
1100
1100
1010
2001
3110
0110
1010
,
0101
0001
1110
0000
0010
0000
0110
0000
,
0100
0000
0010
0000
0100
0000
0000
0000
0010
0100
0010
0100
0010
0100
0010
0100
,
0010
0000
0000
0000
0100
0000
0000
0000
0010
0000
0000
0000
0010
0000
0000
0000
0100
0000
0010
0000
0000
0000
0000
0000
1000
0001
1000
0001
1000
0001
1000
0002
0000
0000
0000
0000
0000
0000
0000
0000
0000
0000
0000
0000
0000
0000
0000
0000
0000
0000
0000
0000
0000
0000
0000
0000
0000
0000
0000
0000
0000
0000
0000
0000
,
1000
0000
0000
0000
0000
0000
0000
0000
0110
0000
0000
0000
0000
0000
0000
0000
1000
0003
0000
0000
0000
0000
0000
0000
0110
0000
0000
0000
0000
0000
0000
0000
1000
0000
0000
0000
0001
0000
0000
0000
0000
0000
0000
0000
0001
0000
0000
0000
1000
0000
0000
0000
0100
0000
0000
0000
0010
0000
0000
0000
0001
0000
0000
0000
,
0010
0000
0100
0000
1000
0001
0000
0001
1010
0000
0110
0000
1100
0001
0110
0000
,
0010
0000
0101
0010
0100
0010
0001
0100
0010
0000
0101
0010
0000
0100
0011
0000
,
0001
0100
0001
0100
0000
0010
0001
0000
1100
0010
0000
0001
1100
0000
0100
0001
,
1010
0000
0000
0000
1100
0000
1001
0000
0010
0100
1010
0000
0101
0010
0001
0000
,
1010
0000
0100
0010
0101
0000
0010
0000
1100
0000
1001
0010
0001
0000
0110
0000
,
1001
0010
1001
0000
0101
0000
0010
0000
0010
1000
0011
0000
1010
0000
1100
0000
,
1001
0110
0110
0010
0010
0101
1000
0010
,
0100
0010
0100
0000
1002
0000
0000
0010
1000
0000
1010
0000
1000
0013
0100
0000
,
0200
0000
1310
0100
0010
0100
0010
0100
0011
0000
0011
0001
0100
0000
2200
0001
,
0000
0000
0000
0000
0000
0000
0000
0300
,
0100
0010
0100
0010
3100
0010
0100
0010
0100
0010
0100
0010
0100
0010
0100
0010
0100
0010
0100
0010
0100
0010
0100
0010
0100
0010
0100
0010
0100
0010
0100
0010
,
0001
1000
0001
1000
0001
1000
0001
1000
0001
1000
0001
1000
0001
1000
0001
1000
0001
1000
0001
1000
0001
1000
0001
0000
1000
0000
0000
0000
0001
0000
1000
0000
,
0110
0001
0110
1000
0110
0001
0110
1000
1001
0100
1001
0010
1001
0001
1001
1000
,
0110
0010
1001
0001
0110
1000
1001
0100
0110
0001
1001
0010
0110
1000
0200
0000
,
0000
0000
0000
0000
,
0311
0000
0000
0010
0000
0000
0100
0000
0100
1000
0000
0000
0001
0000
0000
0100
1000
0000
0010
0000
0000
1000
0000
0000
0011
0000
0000
0100
0000
0000
1000
0000
0100
0001
0000
0000
0100
0000
0000
0010
0010
0000
0100
0000
0000
1000
0000
0000
,
1001
0000
0000
0000
0000
0000
0000
0000
0000
0000
0000
0000
0000
0000
0000
0000
0000
0000
0010
0000
0000
0000
0000
0000
0100
0000
0000
0000
0000
0000
0000
0000
0100
0000
0000
0000
0000
0000
0000
0000
0000
0000
0000
0000
0000
0000
0000
0000
0001
0000
0000
0000
0000
0000
0000
0000
0000
0000
0000
0000
0000
0000
0000
0000
0001
0000
0010
0000
0000
0000
0000
0000
0100
0000
0000
0000
0000
0000
0000
0000
0000
0000
0000
0000
0000
0000
0000
0000
0000
0000
0000
0000
0000
0000
0000
0000
1001
0000
0000
0000
0000
0000
0000
0000
0000
0000
0000
0000
0000
0000
0000
0000
0000
0000
0010
0000
0000
0000
0000
0000
0100
0000
0000
0000
0000
0000
0000
0000
0010
0000
0000
0000
0000
0000
0000
0000
0000
0000
0000
0000
0000
0000
0000
0000
1000
0000
0000
0000
0000
0000
0000
0000
0000
0000
0000
0000
0000
0000
0000
0000
0100
0000
0010
0000
0000
0000
0000
0000
0100
0000
0000
0000
0000
0000
0000
0000
0000
0000
0000
0000
0000
0000
0000
0000
0000
0000
0000
0000
0000
0000
0000
0000
,
1001
0000
0000
0000
0000
0000
0000
0000
0000
0000
0000
0000
0000
0000
0000
0000
0000
0000
0000
0000
0000
0000
0000
0000
0001
0000
0000
0000
0000
0000
0000
0000
0100
0000
0000
0000
0000
0000
0000
0000
0000
0000
0000
0000
0000
0000
0000
0000
0010
0000
0000
0000
0000
0000
0100
0000
0000
0000
0000
0000
0010
0000
0000
0000
0001
0000
0000
0000
0000
0000
0000
0000
0100
0000
0000
0000
0000
0000
0000
0000
0000
0000
0000
0000
1000
0000
0000
0000
0000
0000
0000
0000
0000
0000
0000
0000
1010
0000
0000
0000
0000
0000
0000
0000
0000
0000
0000
0000
0000
0000
0000
0000
0000
0000
0001
0000
0000
0000
0000
0000
0100
0000
0000
0000
0000
0000
0000
0000
0100
0000
0000
0000
0000
0000
0000
0000
0000
0000
0000
0000
0000
0000
0000
0000
0010
0000
0000
0000
0000
0000
0000
0000
0000
0000
0000
0000
1000
0000
0000
0000
0010
0000
0000
0000
0000
0000
0000
0000
0100
0000
0000
0000
0000
0000
0000
0000
0000
0000
0000
0000
0010
0000
0000
0000
0000
0000
0000
0000
0000
0000
0000
0000
,
1100
0000
0000
0000
0000
0000
0001
0000
0000
0000
0000
0000
0100
0000
0000
0000
0000
0000
0000
0000
0000
0000
0000
0000
0010
0000
0000
0000
0000
0000
0000
0000
0100
0000
0000
0000
0000
0000
0000
0000
0000
0000
0000
0000
0000
0000
0000
0000
0000
0000
0000
0000
0000
0000
0000
0000
0000
0000
0000
0000
0000
0000
0000
0000
1100
0000
0010
0000
0000
0000
0000
0000
0001
0000
0000
0000
0000
0000
0000
0000
0000
0000
0000
0000
0100
0000
0000
0000
0000
0000
0000
0000
0000
0000
0000
0000
1010
0000
0000
0000
0000
0000
0000
0000
0000
0000
0000
0000
0000
0000
0000
0000
0000
0000
0000
0000
0000
0000
0000
0000
0100
0000
0000
0000
0000
0000
0000
0000
0010
0000
0000
0000
0000
0000
0000
0000
0000
0000
0000
0000
0000
0000
0000
0000
0001
0000
0000
0000
0000
0000
0000
0000
0000
0000
0000
0000
0001
0000
0000
0000
0100
0000
0000
0000
0000
0000
0000
0000
0001
0000
0000
0000
0000
0000
0000
0000
0000
0000
0000
0000
1000
0000
0000
0000
0000
0000
0000
0000
0000
0000
0000
0000
,
0000
0000
0000
0000
,
0001
0100
0010
1000
0100
0001
0100
0001
,
0010
0001
0100
0010
1000
0001
1000
0001
,
1000
0010
0100
0010
1000
0100
0010
0100
,
0010
0001
0010
1000
0100
0010
0100
0010
,
1000
0001
0100
0010
0100
0010
1000
0010
,
1000
0001
0100
0010
1000
0100
0010
0100
,
0010
0100
1001
0010
1001
0100
0001
0100
,
0010
1000
0100
0010
0100
0010
0000
0000
,
1001
0010
0100
0010
1000
0001
0100
0010
,
0101
1000
0001
0100
1000
0001
1000
0010
,
0101
1000
0010
0100
0001
0100
1000
0010
,
1001
0100
0010
0001
1000
0100
0010
0001
,
1100
0001
1100
0010
0001
1000
0100
0001
,
0011
1000
0101
0010
0001
0100
0010
0100
,
1010
0100
1010
0001
0100
0001
0010
1000
,
0011
0100
1010
0001
0100
1000
0010
0100
,
1010
0001
0110
1000
0010
0100
0010
0100
,
0001
1000
0001
0010
0100
0010
0100
0001
,
0010
0001
1000
0100
0001
0100
0010
1000
,
0010
0001
0100
1000
0001
0010
1000
0010
,
0100
1000
0001
0100
0010
0100
2002
0000
,
0000
0000
0000
0000
,
0000
0000
0000
0000
,
0000
0000
0000
0000
,
0000
0000
0000
0000
,
0000
0000
0000
0000
,
0000
0000
0000
0000
,
0000
0000
0000
0000
,
0000
0000
0000
0000
,
0000
0000
0000
0000
,
0000
0000
0000
0000
,
0000
0000
0000
0000
,
0000
0000
0000
0000
,
0000
0000
0000
0000
,
0000
0000
0000
0000
,
0000
0000
0000
0000
,
0000
0000
0000
0000
,
0000
0000
0000
0000
,
0000
0000
0000
0000
,
0000
0000
0000
0000
,
0000
0000
0000
0000
,
0000
0000
0000
0000
,
0000
0000
0000
0000
,
0000
0000
0000
0000
,
0000
0000
0000
0000
,
0000
0000
0000
0000
,
0000
0000
0000
0000
,
0000
0000
0000
0000
,
0000
0000
0000
0000
,
0000
0000
0000
0000
,
0000
0000
0000
0000
,
0000
0000
0000
0000
,
0000
0000
0000
0000
,
0000
0000
0000
0000
,
0000
0000
0000
0000
,
0000
0000
0000
0000
,
0000
0000
0000
0000
,
0000
0000
0000
0000
,
0000
0000
0000
0000
,
0000
0000
0000
0000
,
0000
0000
0000
0000
,
0000
0000
0000
0000
,
0000
0000
0000
0000
,
0000
0000
0000
0000
,
0000
0000
0000
0000
,
0000
0000
0000
0000
,
0000
0000
0000
0000
,
0000
0000
3003
0000
;
