#TITLE:Land of the Rising Sun;
#SUBTITLE:Diskowarp Impossible Death-Mix;
#ARTIST:Kid Whatever;
#TITLETRANSLIT:;
#SUBTITLETRANSLIT:;
#ARTISTTRANSLIT:;
#CREDIT:;
#BANNER:;
#BACKGROUND:;
#LYRICSPATH:;
#CDTITLE:;
#MUSIC:Spacekats - Land Of The Rising Sun (Diskowarp Impossible Death-Mix).ogg;
#OFFSET:0.188;
#SAMPLESTART:77.682;
#SAMPLELENGTH:11.960;
#SELECTABLE:YES;
#BPMS:0.000=160.000;
#STOPS:;
#BGCHANGES:;
// cache tags:
#FIRSTBEAT:8.500;
#LASTBEAT:504.500;
#SONGFILENAME:Songs/in the groove2/land of the rising sun death mix/Land of the Rising Sun (Diskowarp Impossible Death-Mix).sm;
#HASMUSIC:1;
#HASBANNER:0;
#MUSICLENGTH:105.000;
// end cache tags

//---------------dance-single - watermelon----------------
#NOTES:
     dance-single:
     watermelon:
     Challenge:
     10:
     1.000,1.000,0.619,1.000,0.981,919.000,65.000,147.000,102.000,0.000:
0000
0000
0000
0000
,
0000
0000
0000
0000
,
0000
M0M0
0M0M
0000
0000
0000
0000
0000
,
0000
0000
0000
0001
0020
0000
0230
0000
,
2300
0000
0000
0000
3020
0000
0000
0000
0130
0000
0000
0001
0000
0000
0100
0001
,
0000
0001
1000
0000
1100
0000
0200
0000
0310
0000
0000
0100
0000
0000
1000
0001
,
0000
0001
0100
0000
0110
0000
0010
0000
1000
0000
0000
0010
0000
0000
0100
0010
,
0000
0010
1000
0000
1001
0000
1000
0000
0100
0010
0001
1000
0001
0100
0010
1000
,
0001
0001
0002
0000
0013
1000
0010
0001
,
0010
1000
0010
0002
0103
1000
0100
0001
,
0100
0000
0110
0000
2020
0000
3030
0000
1000
0000
0010
0000
0100
0000
0001
0010
,
0000
0010
0100
0000
1000
0000
0001
0000
0200
0000
0000
0000
0320
0000
0000
0000
,
0032
0000
0000
0000
0023
0000
0000
0000
1030
0000
0001
0000
1000
0000
0010
0100
,
0000
0001
0100
0000
0002
0000
1003
0000
1001
0000
0001
0000
0100
0000
0010
1000
,
0000
0001
1000
0001
0100
0000
0010
0000
1010
0000
1000
0000
0100
0000
0010
0001
,
0000
0010
0100
0000
2000
0000
3001
0000
0022
0000
0000
0000
0000
0000
0033
0000
,
2200
0000
0000
0000
0000
0000
3300
0000
0001
0000
0001
0000
0001
0000
0100
0010
,
0000
0100
0010
0000
1000
0000
1000
0000
2010
0000
0001
0000
0010
0000
3001
0000
,
1001
0000
1000
0000
0001
0000
0100
0000
0010
0000
0000
1000
0000
0000
0100
0000
,
0010
0021
0000
2M00
000M
0M00
000M
0M00
,
000M
0000
0M00
0000
000M
0000
3M30
0000
0010
0000
0001
0000
1000
0000
0001
0100
,
0000
0001
0100
0000
0010
0000
0001
0000
0020
0000
1000
0000
0100
0000
1000
0000
,
1000
0000
0100
0000
1000
0000
0130
0000
0001
0000
0000
1000
0000
0000
0010
0000
,
0200
0001
0000
200M
00M0
000M
00M0
000M
,
00M0
0000
000M
0000
00M0
0000
330M
0000
0100
0000
0010
1000
0000
0100
0000
0001
,
0000
0100
0010
0000
0001
0000
0000
0000
1000
0000
0010
0100
0001
0000
0100
0001
,
1000
0100
0000
0010
0000
0000
0000
0000
0001
1000
0001
0100
0001
1000
0100
0010
,
0200
0000
1300
0001
2000
0000
0000
3010
1000
0010
0100
0000
0001
0010
0100
1000
,
0010
0000
0010
0000
0010
0000
0000
0100
0001
0000
1000
0100
0000
0000
0010
0000
,
0100
1000
0000
0010
0000
0000
0000
0100
0010
1000
0001
0000
0001
0000
0010
0100
,
1000
0001
0100
0000
0110
0000
0000
0000
1000
0000
1000
0010
1000
0000
1000
0001
,
0100
0000
0010
0000
0100
0000
0000
0001
0010
0000
0100
1000
0001
0000
0100
0010
,
0100
0010
1000
0002
0000
0013
0100
1000
,
0100
0001
0100
0020
0000
1030
0010
0001
,
1000
0001
1001
0200
0000
0310
1000
0100
,
1000
0001
0100
0100
0100
0M00
0100
0M00
,
0100
0000
0001
0100
0002
0000
1003
0000
0100
0000
0010
0000
0001
0000
1000
0000
,
0001
0100
0010
0002
0000
0013
0100
0001
,
1000
0000
0001
0000
0100
0000
0010
0000
1010
0000
0000
0011
0000
0000
1100
0000
,
0101
0000
0000
1001
0000
0000
0110
0000
0010
1000
0001
0100
0001
1000
0100
0010
,
0001
0000
0001
1000
0001
0000
0001
0100
0020
0000
0000
0000
0230
0000
0000
0301
,
1000
0100
0100
0100
0020
0000
0032
0000
,
0203
0000
0310
0010
2020
3030
0202
0303
,
1000
1000
1000
0220
0000
0330
2002
3003
,
0100
0000
0100
0000
0100
0000
0001
0010
0200
0000
0000
0000
2300
0000
0000
3010
,
0100
0001
0100
1000
0200
0000
0302
0000
,
2003
0000
3100
0100
M0MM
1100
0002
0000
,
0103
0010
1000
0000
0202
0303
0022
0033
,
0001
0000
1000
0000
0010
0000
0000
0000
0100
0000
0001
0000
1000
0000
0100
0010
,
0000
0010
0100
0000
1000
0000
0001
0000
0200
0000
0000
0000
1000
0000
1000
0000
,
1300
0000
0100
0000
0010
0000
1000
0000
0002
0000
0000
0023
0000
0000
1030
0000
,
0020
0000
0230
1000
,
0002
0000
0000
0000
0003
0000
0000
0000
1300
0000
0010
0000
0100
0000
0010
1000
,
0000
1000
0001
0000
0100
0000
0001
0000
0020
0000
0000
0000
0100
0000
0100
0000
,
0130
0000
1000
0000
0010
0000
0100
0000
0020
0000
0000
2030
0000
0000
3001
0000
,
0200
0000
0000
0000
0000
0000
0000
0000
0310
0100
0010
1000
0010
0100
0001
1000
,
0100
0000
0100
1000
0100
0000
0100
0010
0001
0M00
10M0
0M01
00M0
1M00
00M0
0M01
,
00M0
1M00
00M0
0M01
00M0
0M00
20M0
0M00
00M0
0M00
00M0
0M02
00M0
0M00
00M0
0M00
,
00M0
0M00
00M0
0M00
00M0
0M00
30M0
0000
0103
0000
0010
1000
0000
0000
0001
0000
,
1000
0100
0000
0000
0010
0000
0000
0000
0001
0100
0010
0100
0001
2000
0000
0000
,
3001
0010
0100
0010
0002
0000
0000
0000
0013
0100
1000
0000
0001
0100
0000
0010
,
0000
1000
0001
0000
0020
0000
0000
0000
1030
0000
0010
0100
0000
0100
0010
0001
,
1000
0000
0000
0000
0000
0000
0001
0000
0000
0010
0000
0000
0000
0000
0000
0000
0000
0000
0000
0000
0000
0001
0000
0000
0100
0000
0000
0000
0000
0000
0010
0000
0000
0100
0000
0000
0001
0000
0000
0000
1000
0000
0000
0000
0010
0000
0000
0000
,
0100
0001
0000
1000
0000
0000
0000
0100
0010
0000
0010
0001
0000
1000
0010
0100
,
0001
0000
0010
0000
0100
0000
0000
0000
1000
0001
1000
0000
0010
0000
0100
0001
,
0000
0001
1000
0000
1100
0000
0000
0100
0010
0000
0010
0001
1000
0000
1000
0001
,
0010
0010
0010
0210
0000
0301
0100
1000
,
0100
0010
0001
0200
0000
1300
0100
0010
,
1000
0001
0101
2000
0000
3010
0100
0010
,
1000
0100
0010
0010
0010
00M0
0010
00M0
,
0010
0000
0100
1000
0100
0000
0010
0000
0001
0000
0100
0000
0010
0000
1000
0000
,
0100
1000
0010
0200
0000
0310
1000
0001
,
0010
0000
1000
0000
0010
0000
0001
0000
1001
0000
0000
1010
0000
0000
0101
0000
,
0011
0000
0000
0110
0000
0000
1100
0000
0100
0010
0001
1000
0001
0010
0100
1000
,
0010
0000
0010
0100
0010
0000
0010
1000
0200
0000
0000
0000
2300
0000
0000
3010
,
0100
0010
0001
0010
0200
0000
0302
0000
,
1003
0000
0100
0010
0100
0010
0100
0000
2200
0000
3300
0000
0202
0000
0303
0000
,
0010
0010
0010
2002
0000
3003
0022
0033
,
0001
0000
0100
0000
1000
0000
0100
0010
0200
0000
0000
0000
0302
0000
0000
0103
,
0010
1000
0100
1000
0002
0000
0023
0000
,
0032
0000
0103
0100
M0MM
0101
2000
0000
,
3100
0010
0001
0000
2020
3030
0202
0303
,
0001
0000
0010
0000
1000
0000
0010
0100
1000
0000
0001
0000
0100
0000
0010
0100
,
0000
0001
1000
0000
0200
0000
0310
0000
0100
0000
1000
0000
0001
0000
0100
0001
,
0000
1000
0010
0100
0001
0000
1000
0000
0100
0000
0010
0000
0001
0000
1000
0001
,
0000
0010
0001
0000
1000
0000
0010
0000
2010
0000
0000
0000
0100
0000
3000
0000
,
0012
0000
0000
0000
0100
0000
0003
0000
1000
0000
0010
0000
1000
0000
0001
0010
,
0000
0100
1000
0000
0020
0000
0130
0000
0001
0000
1000
0000
0100
0000
1000
0001
,
0000
0100
0010
0100
0001
0000
0010
0000
0001
0000
1000
0000
0010
0000
0100
0010
,
0000
0010
1000
0000
0001
0000
1000
0000
0202
0000
0000
0000
0003
0000
0000
0000
,
2000
0000
0000
0000
0000
0000
0300
0000
3100
0000
0010
0000
0100
0000
0001
0100
,
0000
0010
0100
0000
0001
0000
1000
0000
0200
0000
1000
0000
0010
0000
1300
0000
,
1001
0000
0010
0000
0100
0000
0001
0000
0010
0000
0000
0100
0000
0000
1000
0000
,
0010
102M
M000
0M01
M002
0M03
M20M
030M
,
2M30
0000
3010
0100
0010
0000
0010
0100
0001
0000
1000
0000
0100
0000
1000
0010
,
0000
0100
0001
0000
1000
0000
0100
0000
2100
0000
0001
0000
0010
0000
0001
0000
,
0001
0000
0010
0000
0001
0000
3010
0000
1000
0000
0000
0100
0000
0000
0010
0000
,
0100
0000
1200
0000
0000
0000
0301
0000
0100
0010
0001
0010
0100
1000
0001
0100
,
0010
0000
1000
0010
1000
0000
0001
0100
0002
0000
0000
0000
2003
0000
0000
3100
,
0010
1000
0010
0001
0200
0000
2300
0000
,
3200
0000
0310
0010
2020
3030
2002
3003
,
0100
0010
0100
2002
0000
3003
0022
0033
,
0001
0000
0010
0000
0100
0000
1000
0001
0200
0000
0000
0000
0320
0000
0000
0130
,
0001
1000
0100
0001
0200
0000
0320
0000
,
0031
0000
1000
0010
1000
0010
1000
0000
0000
0000
0011
0000
2000
0000
0000
0000
,
3010
0100
0001
0000
2020
3030
2002
3003
,
0101
0000
0101
0000
0101
0000
0001
1000
0100
0000
1000
0001
0100
0000
0010
0100
,
0001
0000
1000
0000
0100
0000
1000
0000
0001
0000
0100
0010
0100
0000
0001
1000
,
0001
0000
1000
0010
1000
0000
0100
0010
0001
0000
0001
0000
1000
0000
1000
0000
,
0010
0100
0010
0100
0001
0000
0200
0000
0000
0000
0010
0000
0310
0000
1000
0100
,
0010
0001
1000
0000
1000
0000
0001
1000
0010
0000
0100
0001
0010
0000
0001
1000
,
0100
0000
1000
0000
0010
0000
0100
0000
0001
0000
1000
0010
1000
0000
0001
0010
,
0001
0000
0010
0100
0010
0100
0010
0000
0000
0000
1MMM
0000
1MMM
0000
0000
0000
,
0010
0100
0010
0000
0202
0303
2002
3003
,
1010
0000
1010
0000
1010
0000
0000
0000
0001
0000
1000
0000
0100
0000
0010
0001
,
0000
0001
0100
0000
0001
0000
1000
0000
M02M
0000
0130
0000
M02M
0000
0130
0000
,
M02M
0000
0130
0000
0001
0000
1000
0000
0100
0000
0000
0010
0000
0000
0001
0000
,
2000
0000
3020
0100
,
0002
0000
0000
0000
0000
0000
0030
0000
0013
0000
1000
0000
0001
0000
1000
0100
,
0000
1000
0010
0000
0100
0000
0001
0000
02MM
0000
1300
0000
02MM
0000
1300
0000
,
02MM
0000
0310
0000
1000
0000
0001
0000
1000
0000
0000
0001
0000
0000
0100
0000
,
0020
0000
0000
0000
0000
0000
0000
0000
1030
0100
1000
0001
0010
0001
1000
0010
,
0100
0000
0100
0001
0100
0000
0100
0010
M000
0000
1000
0000
000M
0000
0001
0000
,
0M00
0100
M000
1000
000M
0001
00M0
0010
,
M000
1000
00M0
0010
000M
0001
M000
1000
,
0M00
0100
000M
0001
1000
0100
00M0
0010
,
0001
0100
0000
0000
0000
0000
0000
0000
;
