#TITLE:Mana;
#SUBTITLE:;
#ARTIST:Dark Luke;
#TITLETRANSLIT:;
#SUBTITLETRANSLIT:;
#ARTISTTRANSLIT:;
#CREDIT:;
#BANNER:mana-bn.png;
#BACKGROUND:mana-bg.png;
#LYRICSPATH:;
#CDTITLE:;
#MUSIC:Mana.mp3;
#OFFSET:-1.265;
#SAMPLESTART:58.817;
#SAMPLELENGTH:12.000;
#SELECTABLE:YES;
#BPMS:0.000=150.000,175.000=90.000,176.000=90.000,191.000=150.000,192.000=150.000;
#STOPS:175.000=0.535
,191.000=0.935
;
#BGCHANGES:;
// cache tags:
#FIRSTBEAT:15.500;
#LASTBEAT:255.000;
#SONGFILENAME:Songs/newbie/mana/mana.sm;
#HASMUSIC:1;
#HASBANNER:1;
#MUSICLENGTH:110.843;
// end cache tags

//---------------dance-single - ----------------
#NOTES:
     dance-single:
     :
     Hard:
     9:
     0.577,0.575,0.153,0.126,0.415,417.000,17.000,14.000,0.000,0.000:
0000
0000
0000
0000
,
0000
0000
0000
0000
,
0000
0000
0000
0000
,
0000
0000
0000
0000
0000
0000
0000
0001
,
0100
0010
1000
0000
1000
0100
0010
0000
,
0010
0001
1000
0100
0001
0000
0000
0001
,
0100
0010
0001
0000
0001
0100
0010
1000
,
0001
0100
1000
0000
0100
0000
0010
1000
,
0001
0010
0100
0000
0010
1000
0010
0100
,
1000
0001
1000
0000
0001
0100
0010
0001
,
0010
0000
1000
0000
1000
0100
0001
0000
,
0100
0010
0000
1000
0010
0000
0001
0000
,
1000
0010
0100
0001
1000
0100
0010
0001
,
1000
0100
1000
0010
0100
0001
0010
0000
,
0001
0100
0000
1000
0001
0010
0000
1000
,
0001
0000
0010
1000
0000
0010
0001
0000
,
1000
0000
0100
0000
0010
0000
0001
0010
0001
0000
1000
0000
0010
0000
0000
0000
,
0010
0000
0100
0000
0001
0000
1000
0001
1000
0000
0100
0000
0010
0000
0000
0000
,
0100
1000
0000
0001
1000
0000
0000
0000
0001
0100
0000
0001
1000
0000
0000
0000
,
0011
0000
0110
0000
1001
0000
0000
0100
,
2000
0001
0000
3001
0200
0010
0000
0310
,
2000
0100
0000
3100
0020
0001
0000
0031
,
0002
0100
0000
0103
0020
1000
0000
1030
,
0200
0010
0000
0310
0002
1000
0000
1003
,
0010
0000
0010
0100
0000
0000
0001
0000
0010
0000
0100
0000
0000
0000
0100
0000
,
1000
0000
1000
0010
0000
0000
0100
0000
0001
0000
1000
0000
0100
0000
0000
0000
,
1000
0000
0010
1000
0000
0000
0001
0000
0010
0000
0100
0010
0000
0000
0000
0000
,
0100
0000
1000
0100
0010
0000
0000
0000
0001
0000
0000
1000
0010
0000
0000
0000
,
1000
0100
0000
0100
1000
0000
1000
0001
0000
0001
0010
0000
0010
0000
0000
0000
,
0001
1000
0000
1000
0001
0000
0001
0000
0100
0010
0000
0010
0100
0000
0000
0000
,
0001
0100
0000
0100
0010
0000
0010
1000
0000
0000
1000
0000
0001
0000
0000
0000
,
0010
0100
0000
0100
0010
0000
0010
0000
0001
1000
0000
1000
0001
0000
0000
0000
,
1000
0010
0000
0100
0010
0000
0100
0001
0000
1000
0001
0000
1000
0000
0000
0000
,
0001
0010
0000
0100
0010
0000
0100
0000
1000
0001
0000
0010
0001
0000
0000
1000
,
0100
0000
0000
0000
1000
0000
0001
0100
0000
0010
1000
0000
0001
0000
0100
0000
,
2002
0000
0000
3003
,
0100
0000
0000
0000
1001
0000
0000
0000
0100
0000
0010
0100
0001
0000
0000
0000
,
1000
0000
0000
0000
0011
0000
0000
0000
0100
0000
1000
0001
1000
0000
0000
0000
,
0100
0010
1001
0000
0001
1000
0110
0000
,
0010
0000
1000
0000
0001
0000
0010
0000
0001
0010
0001
0010
0001
0000
0000
0000
,
1000
0000
0010
0000
0100
0000
0001
0100
0010
0000
1000
0000
0001
0000
0000
0000
,
0001
0000
0010
0000
0100
0000
0010
0100
1000
0000
0001
0000
0010
0000
0000
0000
,
0100
0000
0000
0000
1000
0001
1000
0001
1000
0000
0000
0000
0010
0100
0010
0100
,
0010
0000
0000
0000
1000
0000
0001
0100
0010
0000
0100
0010
1000
0000
0000
0000
,
1000
0100
0001
1000
0010
0000
0001
0000
,
1000
0010
0001
1000
0100
0000
0001
0000
,
1000
0000
0000
0100
0010
0000
0000
0001
0100
0000
0000
0010
1000
0000
0000
0000
,
0001
0000
0000
0000
0010
0000
0000
0000
0100
0000
0000
0000
1000
0000
0000
0000
0001
0000
0000
0000
0100
0000
0000
0000
0010
0000
0000
0000
0000
0000
0000
0000
0000
1000
0000
0000
0001
0000
0000
0000
0000
0000
0000
0000
0000
0000
0000
0000
,
1000
0010
0000
1000
0000
0001
0000
0100
0001
0000
0000
0000
1000
0000
0000
0000
,
0001
0010
0000
0001
0000
1000
0000
0100
0000
0000
0010
0000
0100
0000
0000
0000
,
1000
0100
0000
0010
0000
0001
0000
0000
0100
0010
0000
1000
0000
0100
0000
0000
,
0000
0000
1000
0000
0001
0100
0000
0100
0000
0010
1000
0000
0000
0000
0000
0000
,
0001
0010
0000
0001
0000
0100
0000
0010
1000
0000
0010
0000
0100
0000
0000
0000
,
0001
0100
0000
0100
0010
1000
0000
0001
1000
0000
0001
0000
0010
0000
0000
0000
,
0100
1000
0000
0010
0000
1000
0000
0000
0001
0010
0000
0001
1000
0100
0000
0100
,
0000
0010
0000
0001
0100
0000
0001
0000
0220
0000
0000
0000
0000
0000
0330
0000
,
1000
0000
1001
0001
0100
0000
1010
1000
,
0100
0000
0011
0100
1000
0001
0010
0000
,
0001
1000
1010
0010
0100
0000
0001
1000
,
0001
0010
1100
1000
0001
0000
0100
0000
,
0001
0010
0100
0001
0100
1000
0010
0001
,
0010
0100
1000
0100
0001
0010
0100
0000
,
1001
0010
0001
0100
0101
0010
1000
0100
,
0022
0000
0000
0033
;

//---------------dance-single - ----------------
#NOTES:
     dance-single:
     :
     Medium:
     6:
     0.381,0.403,0.208,0.135,0.041,258.000,23.000,15.000,0.000,0.000:
0000
0000
0000
0000
,
0000
0000
0000
0000
,
0000
0000
0000
0000
,
0000
0000
0000
0000
0000
0000
0000
0001
,
1000
0000
0010
0000
0100
0010
1000
0000
,
0001
0000
0010
0001
0010
0000
0000
0010
,
0100
0000
1000
0000
0001
0000
0001
1000
,
0010
0100
0001
0000
,
1000
0000
0010
0100
0010
0000
0000
0010
,
1000
0000
0001
1000
0001
0000
0010
0000
,
0001
1000
0100
0001
,
0100
1000
0001
0000
,
1000
0001
0000
0001
0100
0000
0100
0000
,
0001
1000
0000
1000
0010
0000
0000
0000
,
1000
0001
0000
0001
1000
0100
0000
0100
,
0010
0001
0000
1000
,
0100
1000
0000
0001
1000
0000
0001
0000
,
0100
0010
0000
1000
0010
0000
1000
0000
,
0001
0010
0000
0010
0001
1000
0000
1000
,
0100
0000
0010
0000
1001
0000
0000
0001
,
0200
0000
0320
0000
,
2030
0000
3002
0000
,
0023
0000
0032
0000
,
0203
0000
0310
0000
,
1000
0000
0000
0100
1000
0000
0010
0000
,
0100
0000
0000
0100
0001
0000
0010
0000
,
0001
0000
0000
1000
0001
0000
0010
0000
,
1000
0010
0100
0000
,
1000
0000
0000
0001
0000
0000
1000
0000
0000
1000
0000
0000
0010
0000
0000
0000
,
0100
0000
0000
0010
0000
0000
0010
0000
1000
0000
0000
0000
0001
0000
0000
0000
,
1000
0000
0000
0100
0000
0000
0010
0000
0000
0000
0100
0000
0010
0000
0000
0000
,
0001
0000
0000
0001
0000
0000
0001
0000
1000
0000
0000
0000
1000
0000
0000
0000
,
0010
0000
0000
0100
0000
0000
0010
0000
0000
1000
0000
0000
0001
0000
0000
0000
,
0001
0000
0000
1000
0000
0000
0100
0000
0010
0000
0000
0000
0001
0000
0000
0000
,
1000
0000
0000
0000
0010
0000
0000
0000
0000
0010
0000
0000
0100
0000
0000
0000
,
2002
0000
0000
3003
,
1000
0000
0100
0010
0001
0000
1000
0000
,
0001
0000
0010
0100
1000
0000
0001
0000
,
1000
0010
1000
0000
0001
0100
0001
0000
,
1000
0001
0100
0000
0010
0000
0000
0000
,
1000
0001
1000
0001
1000
0000
0000
0000
,
0100
0010
0100
0010
0100
0000
0000
0000
,
1000
0100
0010
0000
0100
0010
0001
0000
,
1000
0000
0001
0000
1000
0001
1001
0000
,
0020
0000
0030
1000
0100
0000
0100
0010
,
0002
0000
0003
0100
0010
0000
1000
0000
,
0001
0100
1000
0000
0100
0010
1000
0000
,
1000
0100
0001
0000
0100
0010
0001
0000
,
1100
0010
0001
1000
,
0110
0001
1000
0000
,
0101
0001
1010
1000
,
0011
0001
1100
0000
,
1001
0000
0110
1001
,
1010
0000
1001
0011
,
1100
0000
0001
1000
,
1010
0000
0110
0000
0202
0000
0000
0303
,
0001
0000
1000
0100
0010
0000
0110
0000
,
0001
0000
1000
0001
0010
0001
0010
0000
,
0001
0000
1000
0010
0100
0000
0110
0000
,
0001
1000
0001
1000
0010
0000
0000
0000
,
1000
0000
0001
1000
0100
0000
1000
0001
,
0010
0000
0100
0000
1001
0000
0000
0001
,
0100
0010
1000
0000
0001
0010
0100
0000
,
2002
0000
0000
3003
;

//---------------dance-single - ----------------
#NOTES:
     dance-single:
     :
     Easy:
     4:
     0.262,0.316,0.180,0.027,0.000,180.000,20.000,3.000,0.000,0.000:
0000
0000
0000
0000
,
0000
0000
0000
0000
,
0000
0000
0000
0000
,
0000
0000
0000
0000
,
1000
0000
0010
0000
,
1000
1000
0001
0000
,
0010
0000
0010
0000
,
0100
1000
1000
0000
,
0001
0000
0001
0000
,
0100
0000
0100
0000
,
0001
0001
0010
0010
,
0001
0000
1000
0000
,
0001
1000
0010
0000
,
1000
0001
0100
0000
,
0001
1000
0100
1000
,
0000
0100
0000
0010
,
0001
1000
0001
0000
,
0100
0010
0010
0000
,
1000
0001
0100
0100
,
0010
1000
1000
0000
,
0001
0000
0010
0000
,
0100
0000
1000
0000
,
0010
0000
0100
0000
,
0001
0000
0010
0000
,
0001
0000
1000
1000
,
1000
0000
0010
0010
,
0010
0000
1000
1000
,
0001
0001
1000
0000
,
0001
0010
0100
1000
,
0001
0100
0010
1000
,
0001
0010
0001
0100
,
0010
1000
0100
1000
,
0001
0010
0100
0010
,
0001
1000
0010
1000
,
0001
0010
0100
1000
,
0002
0000
0000
0003
,
1000
0001
1001
0000
,
0010
0100
1001
0000
,
1100
0000
0101
0000
,
1001
0110
1001
0000
,
0100
0010
0110
0000
,
0001
1000
0110
0000
,
0010
1001
0100
1001
,
0010
0000
1100
0011
,
0000
0000
0001
0000
,
1000
0000
0010
0000
,
1000
0100
0001
0100
,
1000
0010
0001
0010
,
0100
0000
0001
0000
,
1000
0000
0100
0000
,
0110
0000
0110
0000
,
0001
1000
0001
0000
,
0100
0100
0010
0010
,
1000
1000
0001
0001
,
0110
0000
0001
1000
,
0110
0001
1000
0000
,
0100
1000
0010
0100
,
0001
0100
1000
0100
,
0001
0001
1000
1000
,
0100
0001
0100
1000
,
0001
1000
0100
0010
,
1000
0010
0001
0000
,
1001
0001
0110
0100
,
2002
0000
0000
3003
;

//---------------dance-single - ----------------
#NOTES:
     dance-single:
     :
     Challenge:
     11:
     0.803,0.863,0.469,0.144,0.862,555.000,52.000,16.000,0.000,0.000:
0000
0000
0000
0000
,
0000
0000
0000
0000
,
0000
0000
0000
0000
,
0000
0000
0000
0000
0000
0000
0000
0001
,
1000
0100
1000
0010
1000
0001
0010
0001
,
0100
0000
0010
1000
0001
0100
1000
0100
,
0001
0010
0001
0000
1000
0001
0010
0100
,
0001
0100
1000
0010
0001
0010
0100
0000
,
0001
1000
1000
0000
0010
0100
0001
0001
,
1000
0100
0100
0000
1000
0100
0010
0001
,
1000
0010
0100
0100
0001
1000
0010
0010
,
0100
1000
0000
0100
0001
0010
0001
0000
,
1100
0000
1000
0000
0011
0000
0010
0001
1000
0000
0100
0000
1001
0000
0000
0000
,
0101
0000
0001
0000
1010
0000
0010
1000
0001
0000
0100
0000
0110
0000
0000
0000
,
1000
0010
0000
1000
0100
0000
1001
0000
0010
0001
0000
0100
0001
0000
0110
0000
,
1000
0000
1010
0101
0000
1010
0011
0001
,
1000
0000
0100
0000
0110
0000
0010
0001
1000
0000
0010
0000
0110
0000
0100
0000
,
1001
0000
0001
0000
1100
0000
0100
0010
0001
0000
1000
0000
1001
0000
0010
0000
,
0001
1000
0000
0010
1010
0000
0000
0000
0100
0001
0000
1000
1001
0000
0000
0000
,
0001
0010
1100
0110
0011
0000
0000
0001
,
1200
0010
0000
0301
2010
0100
0000
3001
,
0210
1000
0000
0310
0102
1000
0000
0103
,
0201
1000
0000
0310
0102
1000
0000
0013
,
1200
0001
0000
0310
2001
0100
3000
0000
,
1000
0000
0001
0100
0001
0000
0010
0000
0100
1000
0100
0000
0010
0000
1000
0000
,
0010
0000
0001
0000
1000
0000
0010
0100
0001
1000
0010
0000
0001
0000
0010
0000
,
0100
0000
0001
0100
0010
0000
1000
0100
0010
0000
0100
0001
0100
0000
0000
1000
,
0001
0000
1000
0010
0100
1000
0100
0000
0001
0000
0000
0010
0001
0000
0000
0000
,
1000
0100
0000
1000
0010
0000
0100
0001
0000
0010
0100
0000
0001
0000
0100
0000
,
1000
0001
0000
0100
0010
0000
0001
0000
0010
1000
0000
0001
1000
0010
0100
0000
,
0001
0010
0000
0100
0010
0000
1000
0010
0100
0000
1000
0000
0001
0100
0000
0010
,
1000
0100
0000
0010
0001
0000
1000
0000
0010
0100
0000
1000
0100
0010
1000
0000
,
0001
0010
0000
0100
1000
0000
0010
0100
0000
0001
0010
0000
0100
0000
1000
0000
,
0001
0100
0000
1000
0100
0000
0010
0000
1000
0010
0000
0001
0010
0000
0000
1000
,
0001
0010
0100
0000
0001
0000
0100
1000
0000
0010
0001
0000
0010
0000
0100
0000
,
2002
0000
0000
3003
,
1000
0010
1000
0001
1000
0100
1000
0010
0100
0000
0000
0010
1000
0000
0000
0000
,
0001
0010
0001
1000
0001
0100
0001
0010
0100
0000
0000
0010
0001
0000
0000
0000
,
1000
0001
1000
0100
0010
0000
0100
0000
1000
0001
0100
0010
1000
0000
0100
0000
,
1000
0100
1000
0010
0100
0001
0010
0001
1000
0100
0010
0001
1000
0000
0000
0000
,
0010
1000
0100
1000
0010
0100
0001
0010
0001
0000
0000
1000
0010
0100
0001
0000
,
0100
0001
0010
0001
0100
0010
1000
0100
1000
0000
0000
0001
0010
0100
1000
0000
,
0001
0000
1000
0010
0100
0001
1000
0100
0010
0000
0001
0010
0001
1000
0010
1000
,
0001
0000
1000
0100
0010
0100
1000
0001
0100
0010
0100
0001
1000
0000
0000
0000
,
0002
0000
0000
0000
0000
0000
0000
0000
0000
0000
0000
0000
1003
0000
0000
0000
0000
0000
0100
0000
0010
0000
0001
0000
0010
0000
0000
0000
0000
0000
0000
0000
0000
0000
0000
0000
0001
0000
0000
0000
0000
0000
0100
0000
0000
1000
0000
0000
,
0200
0000
0000
0000
0000
0000
0000
0000
0000
0000
0000
0000
0310
0000
0000
0000
0000
0000
0100
0000
0001
0000
1000
0000
0100
0000
0000
0000
0000
0000
0000
0000
0000
0001
0000
0000
0100
0000
0000
0000
0000
0000
0000
0000
0000
0000
0000
0000
,
1000
0000
0000
0000
0000
0000
0100
0000
0010
0000
0000
0000
0000
0000
0001
0100
0001
0000
0000
0000
0000
0000
1000
0000
0010
0000
0000
0000
0000
0000
0100
0001
,
0100
0000
0000
0000
0010
0000
0000
0000
0001
0000
0000
0000
0010
0000
0000
0000
1000
0000
0000
0000
0100
0000
0000
0000
0001
0000
0000
0000
0000
0000
0000
0000
0000
0100
0000
0000
0010
0000
0000
0000
0000
0000
0000
0000
0000
0000
0000
0000
,
0001
0100
0000
0110
0000
1010
0000
1000
0001
0000
0100
0000
0001
0000
1000
0000
,
0001
0010
0000
0110
0000
1001
0000
1100
0000
0000
0010
0000
0001
0000
0000
0000
,
1000
0010
0000
0100
0000
0101
0000
0010
1000
0001
0000
0010
0000
1100
0000
0001
,
0000
0000
0110
0000
0010
0001
0000
0101
0000
0010
1000
0000
0001
0000
0000
0000
,
0011
0001
0000
0010
0000
0100
0000
0001
0100
0000
1000
0000
0001
0000
0100
0000
,
1010
1000
0000
0010
0100
0001
0000
0100
1000
0000
0100
0000
0010
0000
1000
0000
,
0001
0010
0000
0100
0000
0001
0000
0100
1000
0001
0000
0100
0010
0001
0000
0010
,
0000
1000
0000
0100
0010
0000
0001
0000
2002
0000
0000
0000
0000
0000
3003
0000
,
1000
0100
0010
0001
1000
0010
0100
0010
1000
0001
0010
0100
1000
0001
0100
0001
,
1000
0100
1000
0100
0010
0001
0010
0001
1000
0010
0100
0001
1000
0000
0000
0000
,
0001
0010
0100
1000
0010
0100
0001
0010
0100
1000
0010
0100
0001
0010
0100
1000
,
0001
0010
0001
0100
0010
1000
0100
1000
0001
0100
0010
1000
0001
0000
0000
0000
,
0010
0001
0100
0001
1000
0100
1000
0010
1000
0001
0010
0001
1000
0100
1000
0001
,
0100
0001
0010
0001
1000
0010
1000
0100
0010
0000
0000
0000
0000
0000
0100
0000
,
1100
1001
0011
1001
1010
0110
0101
1010
,
2002
0000
0000
3003
;

//---------------dance-single - ----------------
#NOTES:
     dance-single:
     :
     Beginner:
     1:
     0.098,0.171,0.063,0.000,0.000,69.000,7.000,0.000,0.000,0.000:
0000
0000
0000
0000
,
0000
0000
0000
0000
,
0000
0000
0000
0000
,
0000
0000
0000
0000
,
1000
0000
0000
0000
,
0000
0000
0000
0000
,
0001
0000
0000
0000
,
0000
0000
0000
0000
,
0010
0000
0000
0000
,
0000
0000
0000
0000
,
0100
0000
0000
0000
,
0000
0000
0000
0000
,
1000
0000
0000
0000
,
1000
0000
0000
0000
,
0001
0000
0000
0000
,
0010
0000
0000
0000
,
0001
0000
0000
0000
,
0001
0000
0000
0000
,
0100
0000
0000
0000
,
0010
0000
0000
0000
,
0100
0000
0000
0000
,
0000
0000
0000
0000
,
1000
0000
0000
0000
,
1000
0000
1000
0000
,
1000
0000
0000
0000
,
0001
0000
0000
0000
,
0001
0000
0001
0000
,
0001
0000
0000
0000
,
1001
0000
0000
0000
,
0010
0000
0000
0000
,
1001
0000
0000
0000
,
0100
0000
0000
0000
,
0110
0000
0000
0000
,
1000
0000
0000
0000
,
0110
0000
0000
0000
,
0001
0000
0000
0000
,
1000
0000
0000
0000
,
0010
0000
0000
0000
,
0100
0000
0000
0000
,
0001
0000
0000
0000
,
0010
0000
0000
0000
,
1000
0000
0000
0000
,
0100
0000
0000
0000
,
0001
0000
0000
1001
,
0100
0000
0000
0000
,
0100
0000
0000
0000
,
0100
0000
0000
0000
,
0100
0000
0000
0000
,
0001
0000
0001
0000
,
0010
0000
0000
0000
,
0010
0000
0010
0000
,
0001
0000
0000
0000
,
1000
0000
1000
0000
,
0100
0000
0100
0000
,
1000
0000
1000
0000
,
0000
0000
1001
0000
,
1001
0000
0000
0000
,
0010
0000
1000
0000
,
0001
0000
0000
0000
,
1000
0000
0001
0000
,
0100
0000
0000
0000
,
0001
0001
0001
0000
,
1000
1000
0000
0100
,
0100
0000
0000
0000
;

//---------------dance-double - ----------------
#NOTES:
     dance-double:
     :
     Challenge:
     11:
     0.718,0.776,0.027,0.054,0.672,548.000,3.000,6.000,0.000,0.000:
00000000
00000000
00000000
00000000
,
00000000
00000000
00000000
00000000
,
00000000
00000000
00000000
00000000
,
00000000
00000000
00000000
00000000
00000000
00000000
00000000
00010000
,
10000000
01000000
00100000
00010000
01000000
00001000
00100000
00000010
,
00010000
00001000
00000010
00000100
00001000
00000001
00000100
00000000
,
00000010
00001000
00000001
00010000
00000100
00000010
00001000
00010000
,
00000100
01000000
00001000
00010000
00100000
01000000
00010000
00000000
,
10000000
01000000
00010000
00000000
00000100
00000010
00000001
00001000
,
00000001
00000100
00001000
00000000
01000000
00100000
10000000
00010000
,
10000000
01000000
00010000
00001000
01000000
00100000
00010000
00001000
,
01000000
00010000
00000100
00000010
00001000
00000000
00000001
00000010
,
00000100
00010000
00100000
01000000
00000100
00010000
00100000
10000000
,
01000000
00100000
00000010
00001000
01000000
00100000
00010000
00000100
,
00000001
00001000
00000010
00000100
00010000
10000000
00100000
01000000
,
00010000
00100000
01000000
00001000
00000001
00000010
00001000
00010000
,
00000010
00000100
00001000
00100000
00010000
00000010
00001000
01000000
,
00000100
00010000
00100000
00001000
00000010
00010000
01000000
00100000
,
00000010
01000000
00000100
00100000
00001000
00010000
10000000
01000000
,
00000100
00010000
00001000
00000001
00000100
00000000
00000000
00001000
,
00000001
00000000
00000010
00000100
00000010
00000000
00000001
00000000
00001000
00000100
00010000
00000000
00000100
00000000
00001000
00000000
,
00000010
00000000
00010000
00001000
00100000
00000000
00001000
00000000
01000000
00010000
10000000
00000000
00100000
00000000
00000000
00100000
,
00010000
00000000
00001000
00000000
01000000
00000000
00010000
00100000
00001000
00000000
00001000
00010000
00000100
00000000
00000010
00000000
,
00000001
00001000
00000010
00000000
00000100
00000000
00000001
00000000
00001000
00000010
00000000
00010000
00001000
00000000
00000000
00000000
,
00100000
00000000
00001000
00010000
00100000
00000000
01000000
00000000
00010000
10000000
01000000
00000000
00010000
00000000
00001000
00000000
,
00010000
00000000
00100000
00000000
00010000
00000000
00001000
00010000
00001000
00000100
00000010
00000000
00001000
00000000
00000001
00000000
,
00000010
00000000
00000100
00001000
00000010
00000000
00000100
00000001
00000010
00000000
00001000
00010000
00000100
00000000
00000000
00010000
,
00001000
00000000
00100000
00010000
01000000
00100000
10000000
00000000
01000000
00000000
00000000
00010000
00001000
00000000
00000000
00000000
,
00000100
00000001
00000000
00000010
00000100
00000000
00010000
00001000
00000000
00010000
00100000
00000000
10000000
00000000
01000000
00000000
,
00100000
00001000
00000000
00010000
00000010
00000000
00000100
00000000
00001000
00010000
00000000
00010000
00000010
00001000
00000100
00000000
,
00000010
00000001
00000000
00001000
00000010
00000000
00010000
00100000
01000000
00000000
00010000
00000000
10000000
01000000
00000000
00010000
,
00001000
00000010
00000000
00000100
00001000
00000000
00000001
00000000
00000100
00000010
00000000
00010000
00001000
01000000
00100000
00000000
,
10000000
00010000
00000000
00100000
00001000
00000000
00000100
00000001
00000000
00000100
00001000
00000000
00010000
00000000
00000100
00000000
,
00000010
00001000
00000000
00100000
01000000
00000000
10000000
00000000
00100000
00010000
00000000
00000010
00000100
00000000
00000000
00000001
,
00000010
00000100
00001000
00000000
01000000
00000000
00100000
00001000
00000000
00000100
00000010
00000000
00001000
00000000
00100000
00000000
,
02200000
00000000
00000000
03300000
,
10000000
01000000
10000000
00010000
00100000
00001000
00100000
00010000
01000000
00000000
00000000
00001000
00010000
00000000
00000000
00000000
,
00000010
00001000
00000010
00010000
00000100
00001000
00000100
00000010
00000001
00000000
00000000
00001000
00000010
00000000
00000000
00000000
,
00010000
00001000
00100000
00010000
01000000
00000000
00001000
00000000
00010000
00000100
00001000
00000010
00010000
00000000
00001000
00000000
,
00100000
00010000
00100000
01000000
10000000
00010000
01000000
00001000
00010000
00000100
00010000
00001000
00100000
00000000
00000000
00000000
,
00000010
00010000
00000100
00001000
00000010
00001000
00000001
00000010
00000100
00000000
00000000
00001000
00000100
00000000
00010000
00000000
,
00001000
00100000
00010000
01000000
00001000
00100000
00010000
10000000
01000000
00000000
00000000
10000000
00100000
00000000
01000000
00000000
,
00010000
00000000
10000000
01000000
00100000
00010000
00100000
00001000
00010000
00000000
00000100
00001000
00000100
00000010
00000001
00001000
,
00000010
00000000
00000100
00000001
00001000
00000010
00010000
00001000
01000000
00010000
10000000
00100000
01000000
00000000
00000000
00000000
,
00001000
00010000
00100000
00010000
00000100
00000010
00000001
00000100
,
00001000
00100000
10000000
00010000
00001000
01000000
00010000
00000000
,
10000000
00100000
00010000
00000010
00000100
00010000
10000000
01000000
,
00010000
00000100
00000010
00000001
00001000
00100000
01000000
00000000
,
00010000
00100000
00000000
01000000
00000000
00010000
00000000
00001000
00000100
00000000
00000001
00000000
00001000
00000000
00000100
00000000
,
00000010
00001000
00000000
00010000
00000000
00100000
00000000
00010000
00001000
00000000
00100000
00000000
01000000
00000000
00000000
00000000
,
10000000
01000000
00000000
00010000
00000000
00001000
00000000
00010000
00100000
01000000
00000000
00100000
00000000
00010000
00000000
00001000
,
00000010
00000000
00000001
00000000
00000100
00001000
00000000
00010000
00000000
00001000
00000010
00000000
00000100
00000000
00000000
00000000
,
00010000
00001000
00000000
00010000
00000000
10000000
00000000
01000000
00010000
00000000
00100000
00000000
00001000
00000000
00000010
00000000
,
00000001
00000100
00000000
00001000
00010000
00000010
00000000
00100000
00001000
00000000
00010000
00000000
00100000
00000000
10000000
00000000
,
01000000
00010000
00000000
00000100
00000000
00000010
00000000
00000001
00001000
00000010
00000000
00010000
00100000
10000000
00000000
00001000
,
00000000
00010000
00000000
00000100
00000010
00000000
00001000
00000000
00022000
00000000
00000000
00000000
00000000
00000000
00033000
00000000
,
10000000
00000000
00010000
00000000
00100000
00000000
00010000
01000000
00001000
00000000
00010000
00000000
00000100
00000000
00001000
00000100
,
00000010
00000000
00000001
00000000
00000100
00000000
00000010
00001000
00000100
00000000
00010000
00000000
00001000
00010000
00001000
01000000
,
00010000
00000000
10000000
00000000
01000000
00000000
00100000
00001000
00010000
00000000
00000010
00000000
00001000
00000000
00000001
00000100
,
00000001
00000010
00000100
00000000
00001000
00000000
00000010
00001000
00000100
00010000
00001000
00000000
00100000
01000000
10000000
00000000
,
00010000
00100000
00010000
01000000
00001000
00010000
00000100
00000010
,
00000001
00000000
00001000
00000000
00000010
00000000
00000100
00001000
00010000
00000000
00001000
00000000
00010000
00001000
01000000
00100000
,
00010000
00000000
00001000
01000000
00010000
00000000
10000000
01000000
00100000
00010000
00100000
01000000
00010000
00001000
00010000
00000000
,
00022000
00000000
00000000
00033000
;

//---------------dance-double - ----------------
#NOTES:
     dance-double:
     :
     Hard:
     8:
     0.490,0.489,0.090,0.144,0.180,354.000,10.000,16.000,0.000,0.000:
00000000
00000000
00000000
00000000
,
00000000
00000000
00000000
00000000
,
00000000
00000000
00000000
00000000
,
00000000
00000000
00000000
00000000
00000000
00000000
00000000
00001000
,
00000001
00000000
00000100
00000010
00001000
00000000
00000100
00010000
,
00001000
00000000
00100000
01000000
10000000
00000000
00000000
00100000
,
00010000
00000000
00001000
01000000
00010000
00000000
00100000
00001000
,
00010000
00000000
00001000
00000010
00000100
00000000
00001000
00000000
,
00000001
00001000
00000010
00000100
00001000
00000000
00000000
00100000
,
00001000
00010000
01000000
00100000
00010000
00000000
10000000
00000000
,
10000000
01000000
00010000
00000000
01000000
00010000
00001000
00000000
,
00010000
00000010
00000000
00001000
00000001
00000000
00000100
00000000
,
00000001
00001000
00000100
00010000
00001000
00100000
00010000
10000000
,
00010000
01000000
00001000
00010000
00000010
00001000
00000001
00000000
,
00000010
00000001
00000100
00000010
00001000
00000100
00010000
00001000
,
00100000
00010000
01000000
00100000
10000000
01000000
10000000
00000000
,
00010000
01000000
00100000
00010000
00001000
01000000
00010000
10000000
,
01000000
00010000
00001000
00100000
00001000
00010000
00000010
00000000
,
00010000
00001000
00000000
00000100
00000001
00000010
00000000
00000100
,
00010000
00000000
00001000
00000010
00000100
00000000
00000000
00010000
,
00000200
00000000
00000020
00000300
,
00002000
00000030
00020000
00003000
,
00200000
00030000
02000000
00300000
,
00002000
03000000
00000020
00003030
,
00000100
00001000
00000000
00000001
00010000
00000000
00001000
00000000
,
01000000
00010000
00000000
10000000
00001000
00000000
01000000
00000000
,
00001000
00010000
00000000
00001000
00100000
00000010
00000000
00010000
,
00000100
00000010
00000001
00000000
,
00001000
00000000
00000000
00000010
00000100
00000000
00000001
00000000
00000001
00001000
00000000
00000000
00000100
00000000
00010000
00000000
,
00001000
00000000
00000000
00100000
01000000
00000000
00100000
00000000
00010000
00000000
00000000
10000000
00100000
00000000
01000000
00000000
,
01000000
00010000
00000000
00000000
10000000
00000000
01000000
00000000
00100000
00000000
00001000
00000000
00001000
00010000
00000000
00000000
,
00000010
00000000
00000000
00000100
00000001
00000000
00000001
00000000
00001000
00000010
00000000
00000000
00001000
00000000
00000100
00000000
,
00010000
00001000
00000000
00000000
00010000
00000000
00000000
00100000
01000000
00000000
00010000
00000000
10000000
00000000
00100000
00000000
,
01000000
00000000
00000000
01000000
00001000
00000000
00010000
00000000
00010000
01000000
00000000
00000000
00100000
00000000
00010000
00000000
,
10000000
01000000
00010000
00001000
00000010
00000001
00001000
00000010
,
00000202
00000000
00000000
00000303
,
00001000
00000000
00000000
00000000
00000010
00000000
00010000
00000000
00001000
00000000
00000000
00000000
01000000
00000000
00010000
10000000
,
00010000
00000000
00000000
00000000
00100000
00000000
01000000
00000000
10000000
00000000
00000000
00000000
00010000
00000000
00100000
00001000
,
00100000
00000000
00011000
00000000
00000010
00001000
00001001
00000000
,
00000001
00000100
00000010
00010000
00001000
00000000
00010000
00000000
,
00101000
00000000
10010000
00000000
10000000
00100000
01000000
00000000
,
00011000
00000000
00001100
00000000
00001000
00000001
00000010
00000000
,
00001010
00000000
00000000
00000000
00000100
00000000
00000001
00000100
00000010
00000000
00000000
00000000
00001000
00000000
00001000
00000100
,
00010000
00000000
00001000
00100000
01000000
10000000
00010000
00000000
,
20000000
00000000
30000000
01000000
00010000
00001000
00000010
00000000
,
00000200
00000000
00000300
00010000
00001000
00000100
00000001
00000000
,
00001000
00000010
00010000
00001000
00100000
00010000
10000000
00100000
,
10000000
01000000
00010000
00001000
00000100
00000001
00001000
00000000
,
00000001
00000100
00000000
00000010
00000000
00000010
00000000
00000000
00001000
00000000
00000000
00000000
00000100
00000000
00000000
00000000
,
00010000
00001000
00000000
00001000
00000000
00100000
00000000
00000000
01000000
00000000
00000000
00000000
10000000
00000000
00000000
00000000
,
00100000
01000000
00000000
00010000
00000000
01000000
00000000
00000000
00001000
00010000
00000000
00000010
00000000
00001000
00000000
00000000
,
00000000
00000000
00000001
00000000
00000001
00001000
00000000
00001000
00000000
00000000
00000100
00000000
00000000
00000000
00000000
00000000
,
00010000
00000010
00000000
00000010
00000000
00001000
00000000
00000000
00000001
00000000
00000000
00000000
00000010
00000000
00000000
00000000
,
00000100
00001000
00000000
00000100
00010000
00000000
00000000
00000000
00001000
00000000
00000000
00000000
01000000
00000000
00000000
00000000
,
00010000
01000000
00000000
00100000
00000000
10000000
00000000
00000000
10000000
00000000
00000000
00000000
00010000
00100000
00000000
00001000
,
00100000
00000000
00001000
00010000
00022000
00000000
00000000
00033000
,
00010000
00000000
00001000
00000001
00000100
00000000
00000010
00001000
,
00010000
00000000
00001000
00100000
01000000
10000000
00010000
00000000
,
10000000
01000000
00010000
01000000
10000000
00000000
00010000
01000000
,
00001000
00010000
00100000
00010000
00001000
00000000
00010000
00000000
,
00001000
00000000
00000010
00000001
00001000
00000000
00000010
00010000
,
00001000
00000000
00010000
10000000
01000000
00000000
00100000
00000000
,
10000000
00100000
01000000
00001000
00010000
00000100
00000010
00000001
,
00002002
00000000
00000000
00003003
;

//---------------dance-double - ----------------
#NOTES:
     dance-double:
     :
     Medium:
     5:
     0.317,0.403,0.099,0.063,0.000,228.000,11.000,7.000,0.000,0.000:
00000000
00000000
00000000
00000000
,
00000000
00000000
00000000
00000000
,
00000000
00000000
00000000
00000000
,
00000000
00000000
00000000
00000000
00000000
00000000
00000000
10000000
,
00100000
01000000
00010000
00100000
,
00001000
00000000
00010000
00000100
00010000
00000000
00000000
00000010
,
00001000
00000001
00000100
00001000
,
00010000
00000000
00001000
00010000
00001000
00000000
00000000
00000000
,
01000000
00000000
00100000
10000000
00010000
00000000
00000000
10000000
,
01000000
00000000
00100000
00001000
00010000
00000000
00000000
00000000
,
00001000
00010000
00100000
00010000
,
00001000
00010000
00000100
00000000
,
00001000
00000010
00000000
00000010
00000100
00000000
00000001
00000000
,
00001000
00000010
00000000
00000010
00010000
00000000
00000000
00000000
,
00000100
00010000
00001000
01000000
,
00100000
10000000
00100000
00010000
,
00001000
00010000
00000000
00001000
00100000
00000000
00100000
00000000
,
00010000
10000000
00000000
01000000
10000000
00000000
01000000
00000000
,
00100000
00001000
00010000
00001000
,
00000010
00000100
00001000
00000000
,
00000001
00000000
00000100
00000000
,
00001000
00000000
00010000
00000000
,
01000000
00000000
10000000
00000000
,
00010000
00000000
00100000
00000000
,
01000000
00000000
00000000
00100000
00001000
00000000
00010000
00000000
,
00000100
00000000
00000000
00001000
00000010
00000000
00000100
00000000
,
00000001
00000000
00000000
00001000
00000010
00000000
00010000
00000000
,
00001000
00001000
00100000
00000000
,
00010000
10000000
01000000
00010000
,
00001000
00010000
00000010
00000100
,
00000001
00000010
00001000
00010000
,
00000010
00001000
00000100
00000010
,
00000001
00000100
00001000
00010000
,
01000000
10000000
00010000
01000000
,
00100000
00010000
00001000
00000010
,
00000002
00000000
00000000
00000003
,
00001000
00000000
00000010
00010000
00001000
00000000
00100000
00000000
,
00010000
00000000
10000000
00100000
01000000
00000000
00010000
00000000
,
10000000
00000000
01000000
00000000
00010000
01000000
00010000
00000000
,
00001000
00010000
00000100
00000000
,
00001000
00000000
00000010
00000100
00000001
00000000
00000000
00001000
,
00000100
00000000
00010000
00001000
01000000
00000000
00000000
00100000
,
10000000
01000000
00010000
00001000
,
01000000
00000000
00001000
00010000
00001000
00010000
00001000
00000000
,
00000200
00000000
00000300
00000010
00000001
00000000
00000100
00000000
,
00002000
00000000
00003000
00010000
01000000
00000000
00100000
00000000
,
00001000
00010000
00100000
00000000
10000000
01000000
00010000
00000000
,
00001000
00010000
00000100
00000000
00000010
00001000
00010000
00000000
,
00011000
00000000
00000011
00000000
,
00010100
00000000
00101000
00000000
,
10010000
00000000
01100000
00000000
,
00011000
00000000
00001100
00000000
,
00000010
00000000
00001000
00100000
,
00010000
00000000
10000000
00100000
,
00010000
00000000
00000010
00001000
,
00000001
00000000
00000010
00000000
00002002
00000000
00000000
00003003
,
00001000
00000010
00010000
00000001
,
00001000
00000000
00000100
00000000
00010000
00001000
00010000
00000000
,
00000010
00100000
00001000
00010000
,
00100000
01000000
10010000
00000000
,
00010000
10000000
00001000
00010000
,
00000001
00000000
00001000
00000000
00000010
00000000
00000000
00001000
,
00000001
00000000
00000010
00000000
00000100
00010000
00001000
00000000
,
00022000
00000000
00000000
00033000
;

//---------------dance-double - ----------------
#NOTES:
     dance-double:
     :
     Easy:
     2:
     0.159,0.201,0.054,0.027,0.000,114.000,6.000,3.000,0.000,0.000:
00000000
00000000
00000000
00000000
,
00000000
00000000
00000000
00000000
,
00000000
00000000
00000000
00000000
,
00000000
00000000
00000000
00000000
,
10000000
00000000
00000000
00000000
,
00010000
00000000
00000000
00000000
,
00100000
00000000
00000000
00000000
,
00001000
00000000
00000000
00000000
,
00010000
00000000
00000000
00000000
,
00000010
00000000
00000000
00000000
,
00001000
00000000
00000000
00000000
,
00000001
00000000
00000000
00000000
,
00001000
00000000
00000010
00000000
,
00000100
00000000
00000001
00000000
,
00001000
00000000
00000100
00000000
,
00010000
00000000
00001000
00000000
,
00100000
00000000
01000000
00000000
,
10000000
00000000
00010000
00000000
,
10000000
00000000
01000000
00000000
,
00010000
00000000
00001000
00000000
,
00010000
00000000
00000000
00000000
,
00000100
00000000
00000000
00000000
,
00000010
00000000
00000000
00000000
,
00001000
00000000
00000000
00000000
,
00100000
00000000
00000000
00100000
,
00001000
00000000
00000000
00001000
,
00010000
00000000
00000000
00010000
,
00000010
00000000
00001000
00000000
,
00000001
00000000
00000010
00000000
,
00000100
00000000
00010000
00000000
,
00001000
00000000
00000100
00000000
,
00000010
00000000
00010000
00000000
,
00001000
00000000
00010000
00000000
,
00100000
00000000
10000000
00000000
,
00010000
00000000
10000000
00010000
,
00200000
00000000
00000000
00300000
,
00001000
00000000
00010000
00000000
,
00000100
00000000
00001000
00000001
,
00001000
00000000
00000010
00000000
,
00000100
00000000
00000010
00001000
,
00000001
00000000
00001000
00000100
,
00000000
00010000
00001000
00000000
,
00010000
00000000
00100000
00000000
,
10000000
00100000
01000000
00010000
,
00000000
00000000
00010000
00000000
,
10000000
00000000
00010000
00000000
,
00100000
00000000
00001000
00000000
,
00010000
00000000
00001000
00000000
,
00011000
00000000
00000000
00000000
,
00001010
00000000
00000000
00000000
,
00010100
00000000
00000000
00000000
,
01001000
00000000
00000000
00000000
,
00010000
00000000
10000000
10000000
,
00100000
00000000
01000000
01000000
,
00010000
00000000
00100000
00000000
,
00001000
00010000
00001000
00000000
,
00010000
00000000
00001000
00000000
,
00000010
00000000
00000100
00001000
,
00000000
00001000
00000001
00000000
,
00000100
00000000
00001001
00000000
,
00000100
00010000
00000000
00010000
,
00001000
00100000
00010000
00000000
,
10000000
00000000
00010000
10000000
,
20020000
00000000
00000000
30030000
;
