#TITLE:Y' Know;
#SUBTITLE:- Bubblegum Crisis Tokyo 2040 Opening;
#ARTIST:Akira Sudou;
#TITLETRANSLIT:You Know;
#SUBTITLETRANSLIT:;
#ARTISTTRANSLIT:;
#CREDIT:;
#BANNER:Y' Know.png;
#BACKGROUND:Y' Know-bg.png;
#LYRICSPATH:;
#CDTITLE:Dj DMA Otaku Original.png;
#MUSIC:Y' Know.mp3;
#OFFSET:0.097;
#SAMPLESTART:12.000;
#SAMPLELENGTH:12.000;
#SELECTABLE:YES;
#BPMS:0.000=130.400;
#STOPS:419.000=2.000
;
#BGCHANGES:;
// cache tags:
#FIRSTBEAT:7.250;
#LASTBEAT:507.500;
#SONGFILENAME:Songs/Otaku's Dream 1st Anime Mix/DJ DMAxel - Y' Know/Y' Know.sm;
#HASMUSIC:1;
#HASBANNER:1;
#MUSICLENGTH:237.852;
// end cache tags

//---------------dance-single - ----------------
#NOTES:
     dance-single:
     :
     Challenge:
     9:
     0.631,0.560,0.450,0.000,0.294,943.000,107.000,0.000,0.000,0.000:
0000
0000
0000
0000
,
0000
0000
0000
0000
0000
0000
0000
0000
0000
0000
0000
0000
0000
1000
0000
0010
,
0000
1000
0010
1000
0000
0010
0100
0000
0010
0100
0000
0000
0100
0000
0010
0100
,
0010
0000
0010
0001
0000
0010
0001
0010
0000
1000
0000
0000
0000
1000
0000
0010
,
0000
1000
0010
1000
0010
0000
0100
0010
0000
0100
0000
0000
0010
0001
0000
0010
,
0001
0000
0000
0100
0001
0100
0000
0001
0000
1000
0000
0000
0000
1000
0010
0000
,
1000
0000
0010
1000
0010
0000
0100
0010
0000
0100
0000
0000
0100
0000
0010
0100
,
0010
0000
0010
0001
0010
0000
0001
0000
0000
1000
0000
0000
0010
0000
1000
0000
,
0000
1000
0010
1000
0010
0000
0100
0010
0000
0100
0000
0000
0010
0000
0001
0010
,
0001
0000
0010
0100
0000
0010
0000
0100
0000
0010
0000
0000
0010
0000
1010
0000
,
1000
0010
0100
0010
0001
0010
0100
0001
,
0100
0010
1000
0010
1000
0010
1010
0000
,
0110
0010
0100
0010
0100
0010
0110
0010
,
0001
0010
0011
0100
1000
0100
1100
0010
,
1000
0010
0100
0010
0100
0010
0001
0010
,
1000
0010
0100
0010
0001
0010
0011
0100
,
0001
0100
1000
0100
0100
0001
0100
0101
,
1000
0010
1000
0010
1000
0100
0100
1010
,
1000
0010
0100
0010
0001
0010
0011
0100
,
1000
0010
1000
0010
0100
0010
0110
0010
,
1000
0010
1000
0010
1000
0010
1010
0010
,
0001
0010
0001
0001
0100
0001
0101
0010
,
1000
0010
1000
0010
0100
0010
1000
0010
,
0100
0010
0001
0010
0001
0010
0011
0010
,
1000
0010
0100
0010
1000
0010
1010
0010
,
0100
0010
0110
0010
1000
0100
1100
0001
,
0001
0100
1000
0010
0001
0010
0001
0100
,
0010
1000
0010
1000
0100
1000
0010
1000
,
0010
1000
0010
1000
0001
1000
0001
0000
,
1000
0010
1000
0010
0100
0010
0110
0010
,
1000
0010
0001
0100
0010
0001
0010
0010
,
1000
0010
1000
0010
1000
0010
1010
0010
,
1000
0000
0010
0000
0101
0000
0001
0000
0010
0000
0001
0000
0011
0000
0000
0100
,
0000
1000
0000
0000
0010
0000
0000
1000
0000
0010
0000
0101
0000
0000
0000
0000
,
1100
0010
0000
1000
0010
1000
1010
0010
,
0100
0010
0001
0010
1000
0010
0110
0010
,
1000
0010
0001
0010
0001
0010
0001
0011
,
0000
0101
0000
0010
1000
0010
1010
0010
,
0110
0000
1000
0010
0100
0010
0110
0010
,
0001
0010
1000
0100
0001
0010
0011
0100
,
0100
1000
0010
1000
1010
0000
1010
0010
,
0110
0000
0010
0001
0010
0001
0011
0100
,
1000
0010
0000
0010
1000
0110
0010
0001
,
0010
0001
0100
0010
0100
0010
0110
1000
,
0010
0000
0000
0000
1010
0000
1000
0000
0010
0000
0010
0100
0000
0000
0010
0000
,
0000
1000
0000
0100
0000
0000
0001
0000
0000
0000
0000
0000
1000
0000
0010
0000
,
1000
0010
0100
0010
0100
0010
0110
0000
,
1010
0001
0010
0001
0010
0001
0101
0010
,
1000
0000
0010
0000
1000
0000
0010
0000
1000
0000
0000
0100
0000
0010
0000
1000
,
0010
1000
0010
0000
0100
0010
0000
0010
0000
0000
0000
0010
0001
0010
0001
0000
,
0010
1000
0010
1000
0010
0100
0001
0010
,
1000
0010
0100
0010
1000
0010
0100
0010
,
0001
0010
0010
1000
0010
1010
0010
0100
,
0010
0001
0010
0001
0010
0011
0100
0001
,
0100
0101
0010
1000
0010
0010
1010
0100
,
0010
1000
0010
1000
0010
1000
0010
0100
,
0010
0001
0010
1000
0010
1010
0010
0100
,
0010
0100
0010
0001
0010
0011
0100
0001
,
0100
0010
1000
0010
0100
0110
0000
0010
,
0001
0010
0001
0010
1000
1010
0000
0100
,
0000
0010
0000
0011
0100
0100
0001
0010
,
1000
0010
1000
0010
0100
0110
0010
1000
,
0010
0100
0010
0001
0010
0011
0100
0001
,
0010
0001
0010
0100
0010
0100
0001
0010
,
1000
0010
1000
0010
0100
0110
0010
1000
,
0010
1000
0010
1000
0010
1010
0100
0010
,
0100
0011
0001
0100
0001
0101
0100
1000
,
0010
0001
0100
1000
0010
1010
0010
0100
,
0010
0001
0010
0100
0010
0110
0010
0001
,
0010
1000
0010
0001
0010
1010
0010
0100
,
0010
0001
0010
1000
0000
0011
0001
0100
,
1000
0010
1000
0010
1000
1100
0010
0100
,
0010
0001
0010
0001
0010
0011
0100
0001
,
0100
0101
0010
1000
0000
1010
0000
0100
,
0010
0000
0000
0001
0000
0011
0001
0100
,
1000
0010
0001
0100
1000
0010
1000
0010
,
0100
0010
0100
0010
1000
1010
0010
0100
,
0010
0001
0010
0001
0010
0011
0100
0000
,
0101
0000
0000
1000
0010
0000
1000
0010
,
0100
0010
0100
0010
1000
1010
0010
0100
,
0010
0100
0010
0001
0010
0011
0001
0100
,
1000
0010
0100
0010
0100
0000
0101
0000
,
1010
0000
1000
0010
0010
1000
0010
0110
,
0000
1000
0010
0100
0010
0100
0010
0001
,
0010
1010
0000
0101
0000
0010
0001
0010
,
1010
0000
0100
0000
0000
0000
0110
0000
0010
0000
0100
0000
0010
0000
0000
0001
,
0000
0010
0000
0000
1001
0000
0000
0000
0000
0000
0010
0000
0000
0000
1010
0000
,
0100
0010
1000
0010
0100
0010
0010
0001
,
0010
1000
0010
1000
0100
0010
0000
0001
,
0010
0000
1000
0010
0000
1000
0000
0000
1000
0000
0010
0000
0000
1000
0010
1000
,
0010
0000
0100
0010
0000
0100
0000
0000
0000
0010
0000
0001
0000
0010
0001
0010
,
0001
0000
0010
0100
0000
0010
0000
0100
0000
0010
0100
0000
0010
0000
0100
0010
,
0000
1000
0000
0010
1000
0000
0010
0000
0000
1000
0000
0010
0000
1000
0010
1000
,
0010
0000
0100
0000
0010
0001
0000
0000
0010
0000
0010
0000
0010
0000
0011
0000
,
0001
0000
0010
0100
0000
0010
0000
0000
0100
0000
0010
0000
0000
1000
0010
1000
,
0010
1000
0000
0010
0000
0100
0010
0100
0000
0010
1000
0010
0000
1000
0000
0010
,
0000
0100
0010
0100
0000
0010
0001
0010
0000
0001
1000
0001
0000
1000
0010
1000
,
0010
0000
0000
0000
0000
1000
0000
0010
0000
1000
0010
1000
0000
0100
0000
0010
,
0100
0010
0001
0010
0000
0001
0010
1000
0000
0010
1000
0000
0000
0010
1000
0000
,
0100
1000
0000
0100
1000
0001
0000
0000
0100
0000
0001
0000
0000
0011
0000
0010
,
0000
1000
0010
0000
0000
1000
0000
0010
0000
1000
0010
1000
0000
1000
0010
0100
,
0000
0010
0000
0001
0000
0010
0000
0000
1000
0000
1000
0000
0100
0000
0010
0000
,
0100
0000
0010
0000
0100
0000
0010
0000
0100
0000
0000
0010
0000
0000
1000
0000
,
0100
0000
0000
0000
0001
0000
0010
0000
1000
0000
0000
0010
0000
0000
1000
0000
,
0000
0100
0000
0001
0000
0000
0000
0010
0000
1000
0000
0000
0100
0000
0000
0000
,
0010
1000
0010
0100
0010
0001
0100
0000
,
1000
0010
0100
0010
1000
0010
1000
1010
,
0100
0010
0001
0100
0010
0001
0010
0011
,
0001
0000
0101
0000
0000
0000
0000
1010
,
0000
0010
0100
0010
1010
0000
0100
0110
,
0010
1000
0010
0001
0100
1000
0010
0110
,
0010
1000
0010
0100
0010
0011
0000
0101
,
0000
0101
0000
0000
1000
0000
1000
0010
,
0000
1000
0010
0110
0001
0010
0100
0010
,
0000
0100
0010
1000
0000
1010
0000
0100
,
0010
0100
0110
0010
0000
0100
0100
0010
,
0100
0000
0000
0101
0000
0000
0000
0000
,
0101
1000
0010
0000
0101
0000
1000
0010
,
0000
1000
0100
0010
0010
1010
0000
0100
,
0010
0001
0010
0100
0010
0011
0001
0000
,
1100
0000
0010
1000
0010
1010
0100
0000
,
0010
0100
0010
1010
1000
0010
0000
0100
,
0010
0100
0001
0011
0010
0001
0000
0101
,
0010
0100
0010
0100
0010
0100
1000
0000
,
0010
1000
0110
0010
0100
0001
1001
0000
,
0100
0000
0000
0000
0010
0000
0000
0000
0000
1000
0000
0000
0000
0000
0010
0000
0000
0100
0000
0000
0001
0000
0000
0000
,
0010
0000
0000
0000
1000
0000
0000
0000
0000
0010
0000
0000
0000
0000
0100
0000
0000
0001
0000
0000
1100
0000
0000
0000
;

//---------------dance-single - ----------------
#NOTES:
     dance-single:
     :
     Hard:
     8:
     0.532,0.506,0.324,0.004,0.029,807.000,77.000,1.000,0.000,0.000:
0000
0000
0000
0000
,
0000
0000
0000
0000
0000
0000
0000
0010
,
1000
0010
0011
1000
0010
0000
1000
1000
,
0010
0100
0100
0100
0010
0000
0001
0001
,
0010
1000
0010
0100
0100
0000
0010
0010
,
1000
0100
0100
0010
0001
0000
1000
1000
,
0010
0010
0100
0000
0010
0001
0000
0010
,
0010
1000
0100
0100
0000
0100
0010
0010
,
0001
0001
0100
0100
0100
0000
1000
0010
,
1000
0010
0000
0110
0100
0010
0000
0001
,
0001
0100
1000
0010
1000
0010
0100
0010
,
0001
0010
1000
0000
0000
1010
0100
0000
,
0000
0011
0010
0100
1000
0010
0100
0000
,
0010
0000
1010
0100
0010
0001
0010
0000
,
0000
0001
0010
0100
0010
0001
0010
1000
,
0010
0100
0010
0001
0010
0001
0011
0000
,
0101
0100
0000
1000
0010
1000
1010
0010
,
0100
0010
1000
0010
0100
0010
0010
0100
,
0100
0001
0100
1000
0010
0010
0001
0000
,
0010
0000
1000
0000
0001
1000
1100
0000
,
0100
0001
0010
0100
0010
0001
0011
0000
,
0100
0000
0100
0010
1000
0010
1010
0000
,
0100
0010
0001
0010
0100
0010
0001
0010
,
0100
1000
0010
1000
0010
1000
1100
0000
,
0010
0100
0010
0001
0010
0000
0011
0001
,
0100
0100
0101
0100
1000
0010
1010
0010
,
1000
0010
1000
0010
1000
0010
0100
0010
,
0001
0010
0001
0010
0001
0010
0001
0010
,
0100
0010
0001
0100
1000
0010
1000
0010
,
0100
0010
1000
0010
0100
0010
0110
0010
,
1000
0010
1000
0010
0001
0010
0011
0100
,
1000
0100
1000
0100
0001
0100
0011
0001
,
0100
0100
0101
0000
0011
0000
0011
0100
,
0010
1000
0010
0000
1000
0010
0100
0010
,
0001
0010
1000
0010
0100
0010
1010
0000
,
0100
0010
0001
0010
0100
1000
0001
0100
,
1000
0010
1000
0010
1000
0010
1000
0010
,
0000
1010
0000
0000
0101
0000
0010
0001
,
0010
0100
0010
0100
0010
0100
0110
1000
,
0000
1010
0000
0000
0100
0001
0000
0010
,
0001
0010
0100
1000
0010
1000
1010
0100
,
0000
0110
0000
0001
0010
0001
0100
0000
,
1010
0000
0001
0100
1000
0100
1000
0010
,
1000
0010
0001
0000
0010
0000
0010
0001
,
0011
0000
0010
0110
0100
0000
0110
0000
,
1001
0010
0000
1010
0000
0000
0000
0000
,
0000
0000
0000
0000
0000
0000
0101
0010
,
1000
0010
0000
1010
0000
0100
0001
0000
,
1100
0010
0000
0011
0000
1000
0010
0000
,
1010
1000
0000
0010
0100
0010
0001
0010
,
0010
0000
1000
0010
0100
0000
0100
0010
,
0001
0010
1000
0010
1000
0010
0001
0010
,
0001
0010
0000
0001
0001
1100
0001
0100
,
1000
0010
0100
0010
0100
0110
0000
1000
,
0000
0010
1000
0010
0100
0010
0000
0011
,
0001
0100
1000
0010
1000
0010
1000
0010
,
0100
0010
0001
0010
0001
0001
0010
0001
,
0100
0000
1010
1000
0010
1010
0010
0100
,
0010
0100
0010
1000
0010
0100
0010
0010
,
0001
0100
1000
0010
0001
0011
0000
0100
,
0000
0001
0000
0010
1000
1010
0000
0100
,
0010
1000
0010
0100
0010
0110
0010
0001
,
0010
0001
0010
1000
0010
1010
0000
0100
,
0001
0010
1000
0010
0001
0010
0001
0010
,
0001
0100
0001
0100
1000
1010
0000
1000
,
0010
1000
0010
0000
0100
0010
0100
0010
,
1000
0100
1000
0010
1000
0001
1000
0001
,
0010
0001
0010
0100
0001
0100
0001
0100
,
0001
0010
0001
1000
0001
1000
0001
0000
,
0101
0100
0001
0010
0001
0010
0001
0100
,
0000
1001
0010
1000
0010
1000
0100
1000
,
0100
1000
0001
1000
0001
0100
0010
0100
,
0010
0001
0010
0100
0001
0100
1000
0100
,
0001
0100
1000
0010
0100
0110
0000
1000
,
0000
0001
0000
0010
0000
1000
0010
1000
,
0010
1000
0010
0100
0010
0001
0100
1000
,
0010
1000
0010
1000
0010
1000
0010
0100
,
0010
1000
0010
1000
0010
1010
0010
0000
,
0110
0000
0000
0100
0010
0001
0000
0010
,
0001
0010
1000
0100
0001
0100
1000
0010
,
1000
0010
0100
0010
0100
0110
0010
1000
,
0010
1000
0001
0100
0100
0001
0100
0100
,
0001
0000
1000
0000
0010
0000
1000
0010
,
1000
0010
1000
0010
1000
0100
1000
0001
,
1000
0001
0010
0000
0000
0011
0001
0010
,
0000
0100
0101
1000
0000
1100
0010
0000
,
0000
0100
0000
0000
0000
0000
0000
0000
,
0000
0000
0000
0000
0001
0100
0000
0100
,
1000
0011
0000
0010
1000
0010
0000
1010
,
0000
0110
0000
0001
0000
0101
1000
0010
,
1100
0001
0010
0000
1000
0010
0100
0010
,
0001
0010
0010
0001
0100
0001
0100
0000
,
1000
0010
1000
0000
1000
0100
1000
0010
,
0100
0010
0001
0000
0100
0101
1000
0000
,
1000
0010
1000
0000
1010
0010
0100
0010
,
0001
0010
1000
0000
0010
1000
0100
0000
,
0010
0000
0001
0000
0010
0000
0000
0100
,
0001
0100
0010
0000
1000
0000
0010
0000
,
0100
0010
0001
0010
,
0100
0000
0010
0000
0010
0001
0010
1000
,
0010
0100
0010
0001
0010
1000
0010
1000
,
0010
1000
0100
1000
0010
0100
0010
0001
,
0010
0000
1000
0000
0010
0000
0000
0000
1010
0000
0000
0100
0000
0000
0010
0000
,
0001
0000
0000
0100
0000
1000
0000
0000
0010
0000
0000
0100
0000
0000
0010
0000
,
0000
0001
0000
0000
0000
0010
0000
1000
0000
0000
0000
0000
0100
0000
0000
0000
,
0010
1000
0010
0100
0000
0010
0001
0100
,
0010
0001
0010
0100
1000
0010
1000
0010
,
0100
0010
0001
0010
0100
0010
0001
0010
,
0000
0011
0000
0000
0000
0000
0000
0100
,
0001
0100
1000
0010
1000
0010
0100
0010
,
1000
0100
0010
0100
0001
0010
0100
1000
,
0010
1000
0010
0100
0010
0100
0010
0100
,
0000
0110
0000
0000
0101
0000
0010
0001
,
0010
0001
0000
0010
1000
0100
1000
0010
,
1010
0100
0000
0010
0000
0110
0000
0000
,
0100
0001
0010
0011
0000
0001
0010
0001
,
0100
0000
0000
0101
0000
0000
0000
0000
,
0000
0000
0000
1001
,
0000
0010
1000
0010
1000
0010
0100
0010
,
0001
0010
0100
0000
0011
0000
0001
0100
,
0000
1000
0010
1000
0010
0100
0000
0100
,
0010
0100
0100
0001
1000
0000
0000
1000
,
0010
1000
0010
0100
0001
0010
0000
0101
,
0000
1000
0010
0001
0100
1000
0000
1000
,
0000
0010
0000
1000
0000
0010
0110
0000
,
1000
0000
0000
0002
0000
0000
0000
0000
0003
1000
0000
0000
0000
0000
0010
0000
0000
0100
0000
0000
0010
0000
0000
0000
,
0001
0000
0000
0000
0010
0000
0000
0000
0000
1000
0000
0000
0000
0010
0000
0000
0100
0000
0000
0010
0000
0000
0000
0000
;

//---------------dance-single - ----------------
#NOTES:
     dance-single:
     :
     Medium:
     6:
     0.422,0.533,0.311,0.029,0.000,621.000,74.000,7.000,0.000,0.000:
0000
0000
0000
0000
,
0000
0000
0000
0000
0000
0000
0000
1000
,
1010
0010
0100
0010
0001
0000
0010
0100
,
0010
0000
0010
0001
0010
0000
1000
0010
,
0000
0110
0100
0010
0001
0000
0100
0010
,
0100
0000
1000
0010
1000
0000
0001
0000
,
0010
1000
0010
0100
0010
0000
0100
0000
,
0011
0000
0010
1000
0010
0000
0000
0010
,
0001
0000
0100
0000
0010
0001
0010
0000
,
1010
0100
0010
0001
0010
0000
0001
0100
,
0000
0010
1000
0010
,
0100
0000
0010
0000
1000
0010
1000
0010
,
0100
0000
0010
0000
0001
0010
0011
0000
,
0100
0010
0001
1010
,
0100
0010
0100
0010
,
0001
0000
0010
0000
1000
0000
0010
1000
,
0100
0010
0100
0101
,
0010
0001
0010
1000
0010
1000
1010
0000
,
0100
0010
0001
0010
,
0100
0000
0010
0000
0010
0001
0011
0000
,
0100
1000
0010
1010
,
0100
0010
0100
1100
,
0100
0001
0010
0100
,
0010
0000
0001
0000
0010
0001
0011
0000
,
0100
1000
0010
1010
,
0100
0000
0110
0000
0100
0000
1100
0001
,
0100
1000
0010
1000
0100
1000
1010
0010
,
1000
0010
1000
0100
1000
0001
0101
0010
,
0001
0010
0001
0010
1000
0010
1010
0010
,
0100
0010
0001
0010
1000
0010
1010
0100
,
0010
0100
0010
1000
0010
1000
1010
0010
,
1000
0100
0001
0010
0001
0010
0011
0000
,
0100
0101
0010
0002
,
0000
0000
0000
0000
0000
1003
0000
0010
,
1000
0010
0100
0000
0010
0001
0010
0000
,
1000
0010
0100
0010
0000
0000
0011
0000
,
1000
1000
0000
0010
0100
0010
1000
0010
,
0000
0010
0000
0000
0010
0000
0001
0010
,
1000
0010
1000
0010
1000
0010
0100
0000
,
0010
0001
0000
0000
0000
1000
0000
0010
,
1000
0010
0100
0010
0001
0010
0100
0010
,
0000
0011
0000
0000
0000
0100
0101
0000
,
1010
0000
1010
1000
0000
0010
0110
0001
,
0010
0000
0100
0000
0110
1000
0000
0010
,
1100
0001
0100
0000
1000
2000
0000
0010
,
0000
0010
0000
3100
0000
0000
0000
0000
,
0000
0000
0000
0000
0000
0100
0001
1000
,
0000
0010
1000
0010
0100
0000
1000
0010
,
1000
0010
0000
0100
0010
0100
0001
0010
,
1000
0010
0100
0010
0000
0010
0000
0001
,
0000
0100
0000
0101
0000
1000
0010
1000
,
0000
0010
1010
0100
0010
0001
0010
1000
,
0010
0000
0100
0110
0000
0000
1001
0000
,
0000
0110
0000
0001
0000
0101
0000
1000
,
0000
0010
0000
1010
0100
0110
0000
1000
,
0000
0010
0000
1000
0000
0010
0000
0100
,
0000
0001
0000
0010
0000
0000
0011
0000
,
0100
0000
0001
0100
0000
1100
0000
0010
,
0000
1010
0000
0010
0001
0010
0000
0000
,
0001
0100
0000
0100
0000
0010
0000
0001
,
0000
0100
0000
1000
0100
1010
0000
0010
,
0000
0001
0000
0010
0000
0101
0000
0010
,
0000
0011
0000
0001
0000
1100
0000
1000
,
0000
0010
0000
0001
0000
0010
0000
1000
,
0000
0010
0000
1000
0000
0011
0000
0001
,
0000
0100
0000
0001
0000
1010
0010
0100
,
0010
0100
0010
1000
0010
1010
0000
0100
,
0001
0010
0100
0010
0001
0011
0100
1000
,
0100
0100
0010
0100
0010
0110
0010
1000
,
0010
1000
0100
0001
0000
0011
0100
1000
,
0010
1000
0010
0100
0000
1010
0010
0100
,
0010
0001
0010
0100
1000
0101
0010
1000
,
0010
1000
0010
0100
0010
0110
0010
0001
,
0010
0011
0100
1000
0100
1100
0000
0101
,
0010
0000
0000
0100
0000
0001
1000
0100
,
0010
0001
0100
1000
0010
2000
0000
0000
,
3010
0000
0000
0000
0000
0001
0010
0100
,
0010
0001
0010
1000
0010
0100
0010
0000
,
0110
0000
0000
0000
0000
0010
0001
0010
,
0100
1000
0100
0010
0001
0010
0001
0010
,
0001
0011
0000
0000
0000
0001
0010
0100
,
1000
0010
1000
0010
0100
0010
0100
0000
,
0110
0000
0000
0101
,
1000
0010
1010
0000
0100
0010
0001
0010
,
1000
0010
0000
1010
0000
0100
0010
0001
,
0010
1000
0010
0001
0010
0011
0000
0100
,
0000
0002
0000
0003
0000
0000
0000
0000
,
0000
0000
0000
0000
0010
0000
0000
1000
,
0110
0001
0000
0010
1000
0010
1000
0000
,
0010
0001
0010
0000
1000
0010
1000
0000
,
0010
0001
0100
0000
0001
0100
1000
0000
,
1000
0010
0001
0000
1000
0000
0010
0010
,
0010
0000
0100
0100
0100
0000
0010
0000
,
0001
0001
0001
0000
1000
0000
0000
0010
,
1000
0100
0010
0100
,
0000
0001
0010
0000
1000
0000
0010
0000
,
0100
0010
0001
0010
,
1000
0000
0010
0000
1000
0000
0000
0010
,
0100
0010
0001
0010
,
1000
0010
1000
0010
,
0100
0010
0010
0001
,
0010
1000
0010
1000
,
0010
0000
0000
0100
0100
0010
0000
1000
,
0000
0000
0001
0000
1000
0000
0000
0010
,
0000
0100
0001
0100
,
0010
0100
0010
0001
,
1000
0010
1000
0010
,
0100
0010
0001
0010
,
0001
0011
0000
0100
,
0010
1000
0010
1000
,
0100
1000
0100
0001
,
0100
0001
0010
1000
,
0010
1010
0000
0100
,
0010
0100
0010
0001
,
0100
0010
1000
1010
,
0100
0010
0100
0101
,
0010
0001
0000
0000
,
0010
0001
1000
1010
,
1000
0010
0100
0010
,
1000
0010
0100
0110
,
1000
0010
1000
1010
,
0100
0010
0001
0011
,
0100
0001
1000
0010
,
0100
0010
1000
0010
,
0200
0310
0001
0021
,
0030
0001
1000
2000
,
0000
3001
0001
0001
;

//---------------dance-single - ----------------
#NOTES:
     dance-single:
     :
     Easy:
     4:
     0.303,0.320,0.168,0.050,0.000,452.000,40.000,12.000,0.000,0.000:
0000
0000
0000
0000
,
0000
0000
0000
0000
0000
0000
0000
0010
,
0000
0100
0010
0000
1000
0000
0010
0000
,
0100
0000
0010
0000
0001
0000
0000
0010
,
0001
0000
0000
0100
0000
1000
0000
0010
,
0100
0000
0010
0000
0000
0100
0000
0010
,
1000
0010
0010
0000
,
0001
0010
0000
0100
0000
0010
0000
0001
,
0000
0010
0000
1000
0010
0000
0000
0100
,
0010
0000
0100
0000
0001
0000
0001
0010
,
0000
0000
0000
0000
0000
0000
0000
0100
,
0000
0010
0000
0100
0000
1000
0010
1000
,
0000
0000
0000
0000
0000
0000
0000
0110
,
0010
0000
0001
0000
0000
0010
1010
0000
,
0000
0000
0000
0100
,
0000
0010
0000
0100
0010
0000
0001
0010
,
0000
0000
0000
0000
0000
0000
0000
0100
,
0000
0110
0000
1000
0000
0010
0010
1000
,
0100
0010
0100
0001
,
0000
0010
0000
0001
1000
0000
0010
0000
,
0000
0100
0000
0010
1000
0000
0000
0110
,
0000
1000
0000
0010
0000
0001
0001
0010
,
0000
0100
0010
0000
0100
0000
0010
0000
,
0000
0100
0010
0000
0000
0100
0000
0110
,
0000
1000
0000
0010
0000
0100
0000
0001
,
0010
0000
0010
0000
0000
0100
0000
0110
,
1000
0000
0001
0000
0000
0100
0001
0010
,
0000
0100
0000
1000
0000
0010
0010
1000
,
0000
0100
0000
0010
0000
0001
0000
0101
,
0000
0010
0000
0010
0000
0100
0000
0110
,
0000
1000
0000
0001
0000
0100
0001
0010
,
0000
0100
0000
1000
0000
0010
0000
0110
,
0000
1000
0000
0001
0000
0100
0000
0002
,
0000
0000
0000
0000
0000
1003
0000
0010
,
0000
0100
0000
0010
0000
1000
0000
0010
,
0000
0100
0000
0010
0000
0100
0000
0010
,
0000
0100
0000
0010
0000
1000
0000
0010
,
0000
0000
0011
0000
0000
0000
0000
0100
,
0000
0100
0000
0010
0000
0100
0000
0010
,
0000
0001
0000
0010
0000
0001
0000
1000
,
0010
0000
1000
0000
0100
0000
0000
0010
,
0000
0100
0000
0100
0000
0100
0000
0011
,
0000
0100
0010
0000
0000
0010
0000
0010
,
0000
0001
0000
0001
0000
1000
0100
1000
,
0000
0010
0000
0100
0000
0010
0000
0020
,
0000
0000
0000
0000
0000
0030
0000
0000
,
0000
0000
0000
0000
0000
0000
0000
0101
,
0000
1000
0000
0010
0000
0100
0000
1000
,
0000
0010
0001
0000
0010
0000
0000
0100
,
0000
0010
0100
0000
0010
0000
0000
0001
,
0010
0000
1000
0000
0000
0010
0000
0100
,
0000
0010
0000
0010
0001
0000
0001
0000
,
0000
1000
0000
1000
0000
0010
0000
0110
,
0000
1000
0000
0100
0000
0100
0100
0001
,
0010
0000
0000
1000
0010
0000
0001
0010
,
0000
0100
0010
0000
0000
0100
0000
0001
,
0000
0010
0000
0001
0000
1000
0000
1010
,
0000
1000
0000
0100
0000
1000
0000
1100
,
0000
0001
0000
0010
0000
0001
0000
0011
,
0000
1000
0000
0100
0000
1000
0000
0010
,
0000
0010
0000
0100
0000
0001
0000
1100
,
0000
1000
0000
1000
0000
0010
0000
1010
,
0000
0010
0000
0001
0000
0010
0000
0011
,
0000
0100
0000
0100
0000
0001
0000
0010
,
0000
1000
0010
0000
0000
0100
0000
0110
,
0000
1000
0000
0010
0000
1000
0000
0100
,
0000
0001
0010
0000
0000
1000
0000
1010
,
0000
0100
0000
0100
0000
0010
0000
0010
,
0000
0001
0000
0010
0000
0001
0000
0011
,
0000
0100
0000
1000
0010
0000
0010
1000
,
0000
0100
0000
0010
0000
0001
0001
0010
,
0000
0100
0000
1000
0000
0010
0000
1010
,
0000
0100
0000
0010
0000
0001
0000
0110
,
0000
0001
0000
0010
0000
0001
0000
0011
,
0002
0000
0000
0000
0003
1000
0000
1000
,
0000
0010
0000
1000
0001
0000
0000
1000
,
0000
0010
0000
1000
0000
0100
0000
1000
,
0000
0010
0000
1000
0010
0000
0000
1000
,
0000
0000
0110
0000
0000
0000
0000
0100
,
0000
0001
0000
0100
0000
0001
0000
0100
,
0000
0010
0000
0100
0000
0010
0000
0100
,
0000
1000
0000
0100
0000
1000
0000
0010
,
0000
0110
0000
0000
,
0000
0001
0000
0100
0000
1000
0000
0010
,
0000
1000
0000
0010
0000
0110
0000
1000
,
0000
0010
0000
0100
0000
0010
0000
0220
,
0000
0000
0000
0000
0000
0330
0000
0000
,
0000
0000
0000
0000
0000
0000
0000
1001
,
0000
0010
0000
0100
0000
0010
0000
0100
,
0000
0010
0000
0010
0000
0100
0000
0100
,
0000
0010
0000
0010
0000
0001
0000
0001
,
0000
1000
0000
1000
0000
0010
0000
1000
,
0000
0010
0000
0100
0000
0001
0000
0010
,
0000
0001
0000
0010
0000
0100
0000
0001
,
0000
0100
0000
1000
0000
0010
0000
1000
,
0010
0000
0000
0100
0000
0010
0002
0000
,
0000
0000
0000
0000
0000
0000
0000
0003
,
0000
2000
0000
0000
,
0000
0000
0000
3000
0000
0000
0000
0020
,
0000
0000
0000
0000
0030
0000
0000
0100
,
0000
0001
0000
0100
0000
0010
0000
1000
,
0000
0100
0000
0001
0000
0010
0000
1000
,
0010
0000
0000
0100
0000
0010
0000
0011
,
0000
0000
0002
0000
0000
0003
0000
2000
,
0000
0000
0000
0000
0000
3000
0000
0000
,
0000
0010
0100
0010
,
0001
1000
0010
0001
,
0001
1000
0010
1000
,
0000
1010
0000
0000
0000
0100
0000
0100
,
0010
0000
0100
0000
0001
0000
0000
0010
,
0000
0001
0000
0010
0000
0100
0000
0010
,
0100
0000
0000
0001
0100
0000
0001
0100
,
0000
0000
0010
0000
1000
0000
0000
0010
,
1000
0010
0100
0010
,
0100
0000
0010
0000
0000
0001
0010
0001
,
0000
0100
0000
0001
0000
0100
1000
0100
,
0000
0010
0000
1000
0000
0000
0000
0000
,
0000
0100
0000
0010
0000
0001
0000
0011
,
0100
0000
0000
0001
0100
0000
1100
0000
,
0010
0000
1000
0000
0010
0000
0000
0100
,
0000
0110
0010
0000
0000
0001
0000
0010
,
0001
0010
0000
1000
0000
1010
0000
0100
,
0000
0101
0000
0010
1010
0000
0000
1010
,
0000
1000
0000
0100
0000
0110
0000
0100
,
0000
0001
0000
0010
0000
1000
0000
0002
,
0000
0000
0000
0000
0000
0003
2000
0000
,
0000
0000
0000
0000
0000
0000
3000
0010
;
