#TITLE:Casket of Star;
#SUBTITLE:;
#ARTIST:ZUN;
#TITLETRANSLIT:;
#SUBTITLETRANSLIT:;
#ARTISTTRANSLIT:;
#CREDIT:;
#BANNER:casket-bn.png;
#BACKGROUND:casket-bg.png;
#LYRICSPATH:;
#CDTITLE:cdtitle.png;
#MUSIC:Casket of Star.mp3;
#OFFSET:-0.060;
#SAMPLESTART:99.760;
#SAMPLELENGTH:12.000;
#SELECTABLE:YES;
#BPMS:0.000=166.960,128.000=160.700,196.000=166.960,200.000=190.000,200.500=166.900,324.000=160.800,392.000=166.960;
#STOPS:;
#BGCHANGES:;
// cache tags:
#FIRSTBEAT:0.000;
#LASTBEAT:424.000;
#SONGFILENAME:Songs/keyboard/Casket of Star/rofl.sm;
#HASMUSIC:1;
#HASBANNER:1;
#MUSICLENGTH:174.236;
// end cache tags

//---------------dance-single - Copied from Copied f----------------
#NOTES:
     dance-single:
     Copied from Copied f:
     Hard:
     11:
     1.000,1.000,1.000,0.792,0.915,1068.000,348.000,138.000,0.000,64.000:
1001
0010
1100
0010
1000
0010
1001
0100
,
1000
0010
1001
0100
1000
0001
1010
0100
,
1010
0001
1100
0010
1000
0001
1010
0100
,
1000
0010
1100
0001
1000
0010
1100
0010
,
1001
0100
1000
0010
0000
1000
0100
0001
,
0000
0000
0010
0000
0100
0000
1000
0000
0000
0000
0100
0000
0110
1000
0101
1000
,
0011
0100
0100
0011
0100
0100
0011
0011
,
0010
0100
0010
0100
0011
0000
0010
0100
0011
0100
1010
0100
0011
0100
1001
0100
,
0020
0000
0001
2030
0000
3200
1302
0023
,
0000
0230
0001
2300
0000
3020
0132
0000
,
1203
0320
0032
1023
0000
0230
2301
3021
,
0130
0100
0001
1000
0001
1000
0001
1000
0001
1000
0100
0001
1000
0100
0001
1000
,
0020
0000
0001
2030
0000
3200
1302
0023
,
0000
0230
0001
2300
0000
3020
0132
0000
,
1203
0320
1032
0123
0000
0230
2301
3021
,
0130
0100
0001
1000
0001
1000
0001
1000
0001
1000
0100
0001
1000
0100
0001
1000
,
0020
0001
0000
2031
0000
3210
0302
1023
,
0000
0231
0000
2310
0000
3120
0032
1000
,
0203
1320
0032
1023
0000
0231
2300
3012
,
0000
0010
0000
0010
0000
0010
0000
0103
,
0020
0001
0000
2031
0000
3210
0302
1023
,
0000
0231
0000
2310
0000
3120
0032
1000
,
0203
1320
0032
1023
0000
1032
0023
1230
,
0000
1000
0000
1000
0000
1000
0000
1000
,
0311
0000
0100
0000
1001
0100
0011
1000
,
0001
0000
0010
0000
1100
0010
0101
1000
,
0110
0000
0101
0000
0101
0000
1010
0001
,
0000
0000
0000
0000
0000
0000
0000
0000
0001
0000
0010
0000
0101
1010
0101
0010
,
1100
0010
0100
0001
1000
0010
0100
0001
1100
0010
0100
0001
1000
0010
1100
0001
,
1000
0010
0100
0001
1000
0010
0100
0001
1100
0010
1100
0001
1100
0010
1100
0001
,
1100
0010
0100
0001
1000
0010
0100
0001
1100
0010
0100
0001
1100
0010
1100
0001
,
1000
0010
0100
0001
1000
0010
0101
0010
1100
0001
1100
0001
0110
1000
0110
0001
,
0000
0000
0000
0000
0000
0000
0010
0100
1000
0010
0100
1000
0010
0010
0100
0010
,
1001
0000
0000
0101
0000
0000
0110
0000
1000
0000
0101
0000
1010
0000
0101
0000
,
1001
0000
0000
0110
0000
0000
1010
0000
0100
0000
0001
0100
0010
0000
0101
0000
,
1000
0000
0101
0000
1010
0000
0110
0000
0011
0000
0000
1010
0000
0000
0110
0000
,
1100
0000
1000
0001
1000
0000
1000
0000
1001
0000
1010
0000
1100
0000
1010
0000
,
1001
0000
1000
0010
1000
0000
1100
0000
1000
0000
1001
0000
1010
0000
1100
0000
,
1010
0000
1000
0001
1000
0000
1100
0000
1010
0000
1000
0001
1000
0000
1010
0000
,
1000
0100
1010
0001
0110
1000
0011
1000
0110
1000
0001
0110
1000
0001
1010
0100
,
1001
0100
0010
1001
0100
0010
1001
0000
1100
0010
1001
0100
1010
0001
0110
1000
,
0020
0000
0001
0230
0000
0000
2301
0000
0000
0000
3102
0000
0023
0000
0231
0000
,
2300
0000
0010
3002
0000
0000
1023
0000
0230
0000
0001
2300
0000
0000
3201
0000
,
0000
0000
0000
0000
0000
0000
0000
0000
0321
0000
0000
0000
0000
0000
0000
0000
0230
0000
0000
0000
0000
0000
0000
0000
2301
0000
0000
0000
0000
0000
0000
0000
3020
0000
0000
0000
0000
0000
0000
0000
0100
0000
0000
0000
0032
0000
0000
0000
0000
0000
0000
0000
0000
0000
0000
0000
0123
0000
0000
0000
0000
0000
0000
0030
,
0020
0000
0000
0000
0000
0000
0000
0000
0100
0000
0000
0000
0000
0000
0000
0000
0000
0000
0000
0000
0000
0000
0000
0000
0100
0000
0000
0000
0000
0000
0000
0030
0020
0000
0000
0000
0000
0000
0000
0000
1230
0000
0000
0000
0000
0000
0000
0000
0302
0000
0000
0000
0000
0000
0000
0000
2103
0000
0000
0000
0000
0000
0000
0000
,
3020
0000
0001
0230
0000
0000
2301
0000
0000
0000
3102
0000
0023
0000
0231
0000
,
2300
0000
0001
3020
0000
0000
1032
0000
0203
0000
1000
0320
0000
0000
2031
0000
,
0000
0000
3021
0000
0230
0000
2301
0000
3200
0000
0001
0320
0000
0000
0132
0000
,
2003
0010
0000
0010
0000
0010
0000
0010
,
3001
0100
0011
1000
0001
0100
1001
0010
,
0001
0100
1001
0010
0001
1000
0101
0010
,
0101
1000
0011
0100
0001
1000
0101
0010
,
0001
0100
0011
1000
0001
0100
0011
0100
,
1001
0010
0001
0100
0000
0010
0100
0001
,
0000
0000
1000
0000
0010
0000
0100
0000
0000
0000
0010
0000
1000
0001
1000
0001
,
1010
0100
0100
1010
0100
0100
1010
1010
,
0100
0010
0100
0010
0101
0000
1000
0001
0110
0001
1010
0100
0011
1000
0011
0100
,
0020
0000
0001
2030
0000
3200
1302
0023
,
0000
0230
0001
2300
0000
3020
0132
0000
,
1203
0320
0032
1023
0000
0230
2301
3021
,
0130
0100
0001
1000
0001
1000
0001
1000
0001
1000
0100
0001
1000
0100
0001
1000
,
0020
0000
0001
2030
0000
3200
1302
0023
,
0000
0230
0001
2300
0000
3020
0132
0000
,
1203
0320
0032
1023
0000
0230
2301
3021
,
0130
0100
0001
1000
0001
1000
0001
1000
0001
1000
0100
0001
1000
0100
0001
1000
,
0001
0100
1000
0001
0100
1000
0011
0100
1000
0001
0110
0001
1100
0010
1001
0100
,
0001
1000
0110
0001
1000
0010
0101
1000
0100
0001
0110
0001
1010
0001
1000
0001
,
1100
0001
1010
0100
0011
1000
0011
0100
0001
1000
0110
0001
1010
0001
1100
0010
,
1000
0100
0010
0001
1000
0100
0010
0001
1000
0100
0010
0001
1000
0100
0010
0001
,
1100
0010
0001
1000
0010
0001
1100
0010
0001
1000
0110
1000
0011
0100
1001
0010
,
1000
0001
0110
1000
0001
0100
1010
0001
0010
1000
0110
1000
0101
1000
0001
1000
,
0011
1000
0101
0010
1100
0001
1100
0010
1000
0001
0110
1000
0101
1000
0011
0100
,
1000
0100
0010
0001
1000
0100
0010
0001
1000
0100
0010
0001
1000
0100
0010
0001
,
1010
0100
0010
0001
1100
0101
1010
0101
,
1000
0100
0010
0001
1010
0101
0110
0101
,
1010
0100
0011
0001
1010
0100
0011
1001
,
0000
0000
0100
0000
0010
0000
0001
0000
1010
0000
0101
0000
1001
0110
1001
0100
,
0011
0100
0010
1000
0001
0100
0010
1000
0011
0100
0010
1000
0001
0100
0011
1000
,
0001
0100
0010
1000
0001
0100
0010
1000
0011
0100
0011
1000
0011
0100
0011
1000
,
0011
0100
0010
1000
0001
0100
0010
1000
0011
0100
0010
1000
0011
0100
0011
1000
,
0001
0100
0010
1000
0001
0100
1010
0100
0011
1000
0011
1000
0110
0001
1100
0010
,
0000
0000
0000
0000
0000
0000
0100
0010
0001
0100
0010
0001
0100
0100
0010
0100
,
1001
0000
0000
1010
0000
0000
0110
0000
0001
0000
1010
0000
0101
0000
1010
0000
,
1001
0000
0000
0110
0000
0000
0101
0000
0010
0000
1000
0010
0100
0000
1010
0000
,
0001
0000
1010
0000
0101
0000
0110
0000
1100
0000
0000
0101
0000
0000
0110
0000
,
0011
0000
0001
1000
0001
0000
0001
0000
1001
0000
0101
0000
0011
0000
0101
0000
,
1001
0000
0001
0100
0001
0000
0011
0000
0001
0000
1001
0000
0101
0000
0011
0000
,
0101
0000
0001
1000
0001
0000
0011
0000
0101
0000
0001
1000
0001
0000
0101
0000
,
0001
0010
0101
1000
0110
0001
1100
0001
0110
0001
1000
0110
0001
1000
0101
0010
,
1001
0010
0100
1001
0010
0100
1001
0000
0011
0100
1001
0010
0101
1000
0110
0001
,
1010
0001
0010
1100
0001
1000
0110
0001
0010
0100
1010
0001
1100
0001
0110
0001
,
1010
0001
1000
0011
0100
0010
0101
0010
1001
0100
1000
0011
1000
0010
0101
1000
,
0010
0100
1001
0100
0011
1000
0110
0001
1100
0010
0001
1010
0100
0001
1100
0010
,
0101
1000
0010
0100
0010
0001
1000
0100
1010
0001
1100
0001
0110
1000
0011
0100
,
0011
1000
0010
0101
1000
0100
0011
1000
0100
0010
1001
0010
0101
1000
0110
1000
,
0011
0100
1000
0011
0100
0001
1100
0001
0110
1000
0010
0101
0010
0001
1100
0010
,
0001
1000
0011
1000
0110
1000
0011
0100
1001
0010
1000
0011
0100
0001
1100
0010
,
0101
1000
0100
0010
0001
1000
0010
0100
0010
1000
0100
0010
0001
0010
0100
0010
,
1001
0010
1100
0000
1100
0010
1001
0100
,
1000
0010
1001
0100
1000
0001
1010
0100
,
1010
0001
1100
0010
1000
0001
1010
0100
,
1000
0010
1100
0001
1000
0010
1100
0010
,
1001
0100
1000
0010
0000
0100
0010
1000
,
0000
0000
0001
0000
0100
0000
0010
0000
0000
0000
0100
0000
0001
0010
0100
1000
,
0101
0010
0010
0101
0010
0010
0101
0101
,
0010
0100
0010
0100
0011
0000
0001
1000
0110
1000
0101
0010
1100
0001
1100
0010
,
1001
0000
0000
0000
;
