#TITLE:See Me Now;
#SUBTITLE:GrooveT remix;
#ARTIST:ROBKAY & SNOOKY;
#TITLETRANSLIT:;
#SUBTITLETRANSLIT:;
#ARTISTTRANSLIT:;
#CREDIT:daydensteve;
#BANNER:SeeMeNow-bn.png;
#BACKGROUND:SeeMeNow-bg.jpg;
#LYRICSPATH:;
#CDTITLE:;
#MUSIC:SeeMeNow_GrooveTremix.ogg;
#OFFSET:-0.400;
#SAMPLESTART:137.214;
#SAMPLELENGTH:10.080;
#SELECTABLE:YES;
#BPMS:0.000=144.000;
#STOPS:428.000=1.250
,433.000=1.250
;
#BGCHANGES:;
// cache tags:
#FIRSTBEAT:16.000;
#LASTBEAT:978.000;
#SONGFILENAME:Songs/toune 6/see me now/SeeMeNow.sm;
#HASMUSIC:1;
#HASBANNER:1;
#MUSICLENGTH:417.142;
// end cache tags

//---------------dance-single - ----------------
#NOTES:
     dance-single:
     :
     Challenge:
     10:
     0.714,0.967,0.686,0.479,0.310,1598.000,286.000,200.000,0.000,0.000:
0000
0000
0000
0000
,
0000
0000
0000
0000
,
0000
0000
0000
0000
,
0000
0000
0000
0000
,
1000
0100
0010
0001
,
0010
0100
1000
0010
,
0100
0000
0001
0000
0010
0000
0001
1000
,
0200
0000
1300
0200
0000
0310
0001
1000
,
1001
1000
0101
0001
1000
0100
0110
0100
,
1000
0001
0110
0010
1000
0010
1010
1000
,
0001
0010
0110
0010
0001
1000
0110
0100
,
0001
0000
0100
0000
0101
0000
0001
0000
1000
0000
0010
0000
1010
0000
1000
0100
,
0010
0001
0101
0001
1001
0010
1010
1000
,
1010
0010
0110
1000
1001
0110
1001
0110
,
1001
0101
0011
0110
1100
1010
0110
0101
,
1001
0000
1000
0100
0010
0001
1000
0100
0010
0001
1000
0100
0010
0001
1000
0001
,
1000
0010
1000
0010
,
0001
0000
0000
0000
0010
0000
0000
0000
1000
0000
0000
0000
0100
0000
0000
1000
,
0001
1000
0100
0001
,
0100
0000
0000
1000
0000
0000
0010
0000
0100
0001
1000
0100
,
0010
1001
1000
0101
,
0001
0000
0000
0000
0110
0000
0000
0000
1000
0000
0000
0000
1010
0000
0000
0010
,
0100
1001
0010
1010
,
0010
0000
0202
0000
0303
0010
0100
0001
,
1000
0100
1100
0100
0010
0001
1001
1000
,
0010
0100
1001
0001
0010
0001
0011
0010
,
0100
1000
1001
0001
0100
0010
1001
1000
,
0100
1000
1100
0100
0010
0001
0022
0033
,
0110
0000
1010
0010
0100
0001
1001
0001
,
0100
0000
0010
0000
1001
0000
0100
0000
1000
0100
1000
0100
1000
0000
0100
0000
,
0010
0001
1000
0100
0010
0100
1000
0001
,
0010
0000
0001
0000
0010
0000
0001
0000
1000
0000
0001
1000
0001
1000
0001
1000
,
0001
0100
0010
1000
0100
1000
0010
0000
,
0200
0000
0000
0000
0320
0000
0000
0000
2030
0000
0000
0000
3001
0000
0000
0001
,
1000
0100
1000
0100
0010
0001
0010
0000
,
0002
0000
0000
0000
0203
0000
0000
0000
0320
0000
0000
0000
0030
0000
0000
1000
,
0001
0010
0001
0010
0100
1000
0100
0000
,
2000
0000
0000
0000
3020
0000
0000
0000
0230
0000
0000
0000
0301
0000
0000
0001
,
0100
0001
0100
0001
1000
0010
1000
0000
,
0020
0000
0000
0000
0032
0000
0000
0000
2003
0000
0000
0000
3000
0000
0000
0100
,
0010
1000
0010
0001
1000
0100
0001
0000
,
0200
0000
0000
0000
2300
0000
0000
0000
3002
0000
0000
0000
1003
0000
0000
0010
,
0100
0001
0100
1000
0001
0010
1000
0000
,
0020
0000
0000
0000
0032
0000
0000
0000
2003
0000
0000
0000
3000
0000
0000
0100
,
0010
1000
0010
0100
0001
0010
0001
0000
,
2000
0000
0000
0000
3200
0000
0000
0000
0320
0000
0000
0000
0031
0000
0000
0010
,
0001
0001
0001
0001
1000
0020
0000
0230
,
0000
0302
0000
2003
0000
0200
0000
3300
,
1000
0100
0010
0001
1000
0100
0010
0010
,
0100
0001
1000
0010
0100
0001
1000
1000
,
0001
0010
0100
1000
0001
0010
0100
0100
,
0010
1000
0001
0100
0010
1000
0001
0001
,
0100
0001
1000
0010
0100
0001
1000
1000
,
0001
0010
0100
1000
0001
0010
0100
0100
,
0010
1000
0001
0100
0010
1000
0001
0001
,
1000
0100
0010
0001
1000
0100
0001
0001
,
2000
0000
0000
0020
3000
0000
0200
0030
,
0020
0300
0000
2000
0030
0000
0002
3000
,
0200
0003
0000
0020
0300
0000
2000
0030
,
0002
0000
0000
3003
0000
0000
0020
0000
,
2000
0030
0000
0200
3000
0000
0020
0300
,
0002
0030
0000
2000
0003
0000
0020
3000
,
0000
0000
0000
0000
0030
0000
0010
0100
,
0001
0010
0100
0010
0001
0001
0100
0010
,
2000
0000
0000
0020
3000
0000
2000
0030
,
0002
3000
0000
0200
0003
0000
0020
0300
,
2000
0030
0000
0002
3000
0000
2000
0003
,
0020
0000
0000
3030
0000
0000
0000
0000
,
2000
0000
0000
0200
3000
0000
0020
0300
,
0002
0030
0000
2000
0003
0000
0020
3000
,
0000
0000
0030
0000
,
1001
1001
0110
0110
,
1001
0000
0000
0000
0000
1000
0001
1000
,
0020
0000
0230
0002
0300
2003
0000
0020
,
0000
3030
0000
0000
1000
0010
0100
0002
,
0000
0003
0000
0000
0010
1000
0010
0200
,
0000
0300
0000
0000
0000
0000
0010
0200
,
0000
0300
0000
0000
0000
0000
0001
0200
,
0000
0300
0010
2000
0000
3000
0100
0020
,
0000
0031
0000
1000
0000
0010
0000
0100
,
0001
1000
0100
0010
0100
1000
0001
0010
,
0100
1000
0001
0010
0100
1000
0001
0010
0100
1000
0100
0010
0001
0000
0000
0000
,
1001
0101
1010
0110
,
1100
0000
0000
0000
0011
0000
0000
0000
0101
0000
0000
0000
1010
0000
0000
0010
,
0110
1001
1001
0101
,
1010
0000
0101
0000
1010
0000
2200
3300
,
1010
0000
0110
0010
1000
0010
1010
1000
,
0001
0100
0101
0001
0100
0010
0110
0100
,
1000
0001
1001
0010
1000
0100
1001
0010
,
0001
0000
0100
0000
0202
0000
0000
0303
0000
0000
0010
0000
2020
0000
0000
3030
,
1000
0100
1010
0001
1001
0100
0110
0001
,
1100
0100
0011
0001
0110
0010
1010
0001
,
0101
0010
1010
0010
0110
0001
1001
0001
,
1010
0100
1100
0001
1001
0100
0020
0030
,
0011
0010
1001
0010
1100
1000
1100
0100
,
0101
0010
1010
0100
1001
0010
0011
0100
,
1100
0000
0000
0200
0320
0032
0000
0023
,
0000
0230
0000
2300
0000
3002
0000
0013
,
1001
0000
0000
0000
1000
0000
0010
0100
0001
0000
0001
1000
0000
1000
0010
0000
,
1000
0000
0000
0000
1000
0000
1000
0100
0010
0000
0010
0001
0000
0001
0100
0000
,
0010
0000
0000
0000
1000
0000
0001
1000
0010
0000
0010
1000
0000
0001
0100
0000
,
0001
0000
0000
0000
0100
0000
0001
1000
0001
0000
0010
0001
0000
0001
0100
0000
,
0010
0000
0000
0000
0001
0000
0100
0010
1000
0000
1000
0001
0000
0001
0100
0000
,
0001
0000
0000
0000
0001
0000
0001
0010
0100
0000
0100
1000
0000
1000
0010
0000
,
0100
0000
0000
0000
0001
0000
1000
0001
0100
0000
0100
0001
0000
1000
0010
0100
,
0001
2002
3003
0202
0303
2020
3030
2001
,
3001
0000
0000
0000
0001
0000
0001
0010
0100
0000
0100
1000
0000
1000
0010
0000
,
0202
0303
0000
0000
1001
0000
0000
0000
1000
0000
1000
0100
0010
0000
0010
0001
,
0000
0001
0100
0000
2020
3030
0000
0000
0101
0000
0000
0000
0100
0000
0100
0001
,
1000
0000
1000
0010
0000
0010
0100
0000
0001
0000
0000
0000
0100
0000
0100
0001
,
1000
0000
1000
0010
0000
0010
0100
0000
1001
0000
0000
0000
0100
0000
0100
0001
,
1001
0000
0000
0000
0100
0000
0100
0001
1001
0000
0001
0000
1010
0000
0001
0000
,
0101
0001
0011
0001
1001
0020
0000
0230
,
0000
0302
0000
2003
3002
0000
0000
0000
,
0000
1000
1000
1000
1000
0000
1000
1000
,
0000
1000
0000
1003
0001
0001
1000
0100
,
0010
0000
0001
0000
1000
0000
0010
0000
0100
0000
0000
0000
0001
0000
0001
1000
,
0100
0000
0100
0010
0000
0010
0001
0000
0001
0000
0000
0000
0001
0000
1000
0001
,
0010
0000
0010
0100
0000
0100
1000
0000
0001
0000
0000
0000
1000
0000
0010
0100
,
0001
0000
0001
1000
0000
1000
0010
0000
1000
0000
0000
0000
0010
0000
0100
0010
,
1000
0000
0000
0000
0000
0000
1000
0000
0000
0001
0000
0000
0000
0000
0000
0000
0001
0000
0000
0000
0010
0000
0000
0000
0100
0000
0000
0000
0000
0000
0000
0000
0000
0000
0000
0000
1000
0000
0000
0000
0000
0000
1000
0000
0000
0001
0000
0000
,
0010
0000
0010
0100
0000
0100
1000
0000
1000
0000
0000
0000
1000
0000
0001
1000
,
0100
0000
0100
0010
0000
0010
0001
0000
1000
0000
0000
0000
0001
0000
0100
0010
,
1000
0000
1000
0001
0000
0001
0100
0000
0100
0000
0002
0000
0003
0000
2000
0000
,
3000
0000
0020
0000
0030
0000
2000
0000
0002
0000
3003
0000
1001
0000
0001
1000
,
0100
0000
0100
0010
0000
0010
0001
0000
2002
0000
3003
0000
0011
0000
1000
0001
,
0010
0000
0010
0100
0000
0100
1000
0000
0202
0000
0303
0000
1010
0000
0010
0100
,
0001
0000
0001
1000
0000
1000
0010
0000
2002
0000
3003
0000
0110
0000
0100
0010
,
1000
0000
0000
0000
0000
0000
1000
0000
0000
0001
0000
0000
0000
0000
0000
0000
0001
0000
0000
0000
0010
0000
0000
0000
0220
0000
0000
0000
0000
0000
0330
0000
0000
0000
0000
0000
1001
0000
0000
0000
0000
0000
1000
0000
0000
0001
0000
0000
,
0010
0000
0010
0100
0000
0100
1000
0000
2002
0000
3003
0000
1100
0000
0001
1000
,
0100
0000
0100
0010
0000
0010
0001
0000
2020
0000
3030
0000
0101
0000
0100
0010
,
1000
0000
0000
0000
0000
0000
1000
0000
0000
0001
0000
0000
0000
0000
0000
0001
0000
0000
0100
0000
0000
0000
0000
0000
2002
0000
0000
0000
0000
0000
3003
0000
0000
0000
0000
0000
0001
0000
0000
0000
0000
0000
0000
0000
1000
0000
0000
0000
,
0010
0000
0000
0000
0100
0000
0000
0000
0001
0000
0000
0000
0100
0000
0000
0000
0001
0000
0000
0000
1000
0000
0000
0000
0020
0000
0000
0000
0000
0000
0030
0000
0000
0000
0000
0000
1001
0000
0000
0000
0000
0000
0001
0000
0000
1000
0000
0000
,
0100
0000
0100
0010
0000
0010
0001
0000
2002
0000
3003
0000
0110
0000
0100
0010
,
1000
0000
1000
0001
0000
0001
0100
0000
0220
0000
0330
0000
0101
0000
0010
0100
,
0001
0000
0001
1000
0000
1000
0010
0000
2200
0000
3300
0000
0011
0000
0001
1000
,
0100
0000
0000
0000
0000
0000
0100
0000
0000
0010
0000
0000
0000
0000
0000
0000
0010
0000
0000
0000
0001
0000
0000
0000
0220
0000
0000
0000
0000
0000
0330
0000
0000
0000
0000
0000
0001
0000
0000
0000
0000
0000
0100
0000
0000
0010
0000
0000
,
1000
0000
1000
0001
0000
0001
0100
0000
0100
0000
0000
0000
0100
0000
0010
0100
,
0001
0000
0001
1000
0000
1000
0010
0000
0100
0000
0000
0000
0010
0000
1000
0001
,
0010
0000
0010
0100
0000
0100
1000
0000
0100
0000
0010
0000
0001
0000
0001
0000
,
0100
0010
1000
0100
0010
0000
0001
0000
,
0100
1000
0100
0001
,
1000
0000
0000
0000
0010
0000
0000
0001
1000
0000
0000
0000
0001
0000
0000
0000
,
0010
1000
0010
0001
,
0100
0000
0010
1000
0001
0010
0100
0000
0000
1001
0000
0000
,
0001
1010
1000
0110
,
0001
0000
0000
0000
0101
0000
0000
0100
0010
0000
0000
0000
1001
0000
0000
0000
,
0100
0101
0100
2020
,
3030
0100
0010
1000
0001
0010
0011
0010
,
0100
1000
1001
0001
0100
0010
1001
1000
,
0100
1000
1100
0100
0010
0001
1001
1000
,
0010
0100
1001
0001
0010
0001
0011
0010
,
0100
1000
2200
3300
0110
0000
0101
0100
,
0010
1000
1001
1000
0010
0100
1001
0001
,
0010
0001
0011
0010
0100
1000
0001
0010
,
0100
0010
0001
1000
0100
1000
0100
1000
,
0001
0000
1000
0001
1000
0000
0000
0001
2000
0000
0000
0000
0000
0000
0000
0000
,
0000
0000
3020
0030
,
0000
0000
0002
0003
,
0000
0000
2002
3003
,
0022
0033
2020
3030
,
0000
0000
2002
3003
,
0000
0000
2002
3003
,
0000
0000
1000
0010
,
0100
0001
1100
1001
,
0101
1010
0110
1100
,
0011
0101
1010
0110
,
1001
1001
0101
1010
,
0101
0110
1010
0000
1100
0000
1010
0000
,
0101
0110
1001
1001
,
0110
1010
0101
0011
1100
0000
0011
0000
,
1001
0000
1100
0000
0011
1000
0001
0010
,
0100
1000
0001
0010
0100
1000
0001
0100
0010
0000
1000
0000
0110
0000
0010
0000
,
1000
0010
1010
1000
0001
0100
0101
0001
,
0100
0010
0110
0100
1000
0001
1001
0010
,
1000
0100
1001
0010
0001
0100
0101
0010
,
0100
0010
1010
0001
1000
0100
1010
0010
,
0001
0100
1010
1000
0010
0100
0101
0010
,
0100
0010
1001
0001
0100
0010
1001
0010
,
0100
0001
1010
0001
1000
0100
1001
0001
,
0010
0100
0020
0030
0011
0010
1001
0010
,
1100
1000
1100
0100
0101
0010
1010
0100
,
1001
0010
0011
0100
1100
0001
1010
0100
,
1001
0100
0011
0001
0011
0010
1010
0100
,
0101
0010
1001
0100
1100
0010
0011
0001
,
1001
0001
0101
0100
1001
1000
1010
0010
,
0110
0100
0101
0001
1001
1000
1100
0100
,
0110
0010
0011
0001
1001
0100
0010
0001
,
1000
0000
0100
0000
0010
0000
0001
0000
0010
0000
0000
0000
0001
1000
0001
1000
,
0001
0000
1000
0000
0001
0000
0100
0000
0010
0000
1000
0000
0010
0000
0100
0001
,
0010
0000
0010
0100
0000
0100
1000
0000
0010
0000
0000
0000
0010
0000
0100
0010
,
1000
0000
0100
0001
0000
0010
0100
0000
1000
0000
0000
0000
1000
0000
0100
0010
,
0001
0000
0000
0000
0000
0000
0001
0000
0000
1000
0000
0000
0000
0000
0000
0000
0010
0000
0000
0000
0100
0000
0000
0000
0010
0000
0000
0000
0000
0000
0000
0000
0000
0000
0000
0000
0010
0000
0000
0000
0000
0000
0100
0000
0000
0010
0000
0000
,
0100
0000
0001
1000
0000
1000
0001
0000
0100
0000
0000
0000
0100
0000
0010
1000
,
0001
0000
1000
0001
0000
0001
0100
0000
0010
0000
0000
0000
1000
0000
0001
1000
,
0100
0000
0001
0010
0000
1000
0001
1000
0100
0000
2020
0000
3030
0000
0202
0000
,
0303
0000
2002
0000
3003
0000
1002
0000
1003
0000
0000
0000
1000
0000
1000
0100
,
0010
0000
0010
0001
0000
0001
0100
0000
2020
0000
3030
0000
1001
0000
0001
0010
,
0100
0000
0100
1000
0000
1000
0010
0000
0202
0000
0303
0000
1010
0000
0010
1000
,
1001
0000
0000
0000
0110
0000
0010
1000
1001
0000
1000
0000
0101
0000
1000
0000
,
1010
1000
1100
1000
1001
0200
0000
0320
,
0000
2030
0000
3002
2003
0000
0000
0000
,
0000
0001
0001
0001
0001
0000
0001
0001
,
0000
0001
0000
3001
1000
1000
0001
0010
,
0100
0000
1000
0000
0001
0000
0100
0000
0010
0000
0000
0000
1000
0000
1000
0001
,
0010
0000
0010
0100
0000
0100
1000
0000
1000
0000
0000
0000
1000
0000
0001
1000
,
0100
0000
0100
0010
0000
0010
0001
0000
1000
0000
0000
0000
0001
0000
0100
0010
,
1000
0000
1000
0001
0000
0001
0100
0000
0001
0000
0000
0000
0100
0000
0010
0100
,
0001
0000
0000
0000
0000
0000
0001
0000
0000
1000
0000
0000
0000
0000
0000
0000
1000
0000
0000
0000
0001
0000
0000
0000
0100
0000
0000
0000
0000
0000
0000
0000
0000
0000
0000
0000
0001
0000
0000
0000
0000
0000
0001
0000
0000
1000
0000
0000
,
0100
0000
0100
0010
0000
0010
0001
0000
0001
0000
0000
0000
0001
0000
1000
0001
,
0010
0000
0010
0100
0000
0100
1000
0000
0001
0000
0000
0000
1000
0000
0010
0100
,
0001
0000
0001
1000
0000
1000
0010
0000
0010
0000
2000
0000
3000
0000
0020
0000
,
0030
0000
2000
0000
3000
0000
0002
0000
0200
0000
0303
0000
1001
0000
1000
0001
,
0010
0000
0010
0100
0000
0100
1000
0000
2002
0000
3003
0000
1100
0000
0001
1000
,
0100
0000
0100
0010
0000
0010
0001
0000
2020
0000
3030
0000
0101
0000
0100
0010
,
1000
0000
1000
0001
0000
0001
0100
0000
2002
0000
3003
0000
0110
0000
0010
0100
,
0001
0000
0000
0000
0000
0000
0001
0000
0000
1000
0000
0000
0000
0000
0000
0000
0100
0000
0000
0000
0010
0000
0000
0000
0220
0000
0000
0000
0000
0000
0330
0000
0000
0000
0000
0000
1001
0000
0000
0000
0000
0000
0001
0000
0000
1000
0000
0000
,
0100
0000
0100
0010
0000
0010
0001
0000
2002
0000
3003
0000
0011
0000
1000
0001
,
0010
0000
0010
0100
0000
0100
1000
0000
0202
0000
0303
0000
1010
0000
0010
0100
,
0001
0000
0000
0000
0000
0000
0001
0000
0000
1000
0000
0000
0000
0000
0000
1000
0000
0000
0010
0000
0000
0000
0000
0000
2002
0000
0000
0000
0000
0000
3003
0000
0000
0000
0000
0000
1000
0000
0000
0000
0000
0000
0000
0000
0001
0000
0000
0000
,
0100
0000
0000
0000
0010
0000
0000
0000
1000
0000
0000
0000
0010
0000
0000
0000
1000
0000
0000
0000
0001
0000
0000
0000
0200
0000
0000
0000
0000
0000
0300
0000
0000
0000
0000
0000
1001
0000
0000
0000
0000
0000
1000
0000
0000
0001
0000
0000
,
0010
0000
0010
0100
0000
0100
1000
0000
2002
0000
3003
0000
0110
0000
0010
0100
,
0001
0000
0001
1000
0000
1000
0010
0000
0220
0000
0330
0000
1010
0000
0100
0010
,
1000
0000
1000
0001
0000
0001
0100
0000
0022
0000
0033
0000
1100
0000
1000
0001
,
0010
0000
0000
0000
0000
0000
0010
0000
0000
0100
0000
0000
0000
0000
0000
0000
0001
0000
0000
0000
1000
0000
0000
0000
0220
0000
0000
0000
0000
0000
0330
0000
0000
0000
0000
0000
1000
0000
0000
0000
0000
0000
0010
0000
0000
0100
0000
0000
,
0001
0000
0001
1000
0000
1000
0010
0000
0010
0000
0000
0000
0010
0000
0100
0010
,
1000
0000
1000
0001
0000
0001
0100
0000
0010
0000
0000
0000
0100
0000
0001
1000
,
0100
0000
0100
0010
0000
0010
0001
0000
0010
0000
0100
0000
1000
0000
1000
0000
,
0010
0100
0001
0010
0100
0000
1000
0000
,
0010
0001
0010
1000
,
0001
0000
0000
0000
0100
0000
0000
1000
0001
0000
0000
0000
1000
0000
0000
0000
,
0100
0001
0100
1000
,
0010
0101
0000
0101
0000
0000
1001
0000
,
1000
0101
0001
0110
,
1000
0000
0000
0000
1010
0000
0000
0010
0100
0000
0000
0000
1001
0000
0000
0000
,
0010
1010
0010
0101
,
1000
0000
0000
0000
0010
0000
0200
0000
0000
0300
0000
0000
2002
0000
0000
3003
0000
0000
0010
0000
0000
0000
0000
0000
,
0100
1000
0001
0100
,
0010
0000
0000
0000
1000
0000
0000
0010
0100
0000
0000
0000
0001
0000
0000
0000
,
0100
1000
0010
0001
,
0010
0000
0000
0000
1000
0010
0000
1000
0100
0000
0000
0000
0010
0000
0000
0000
,
0100
1000
0001
0010
,
0102
0000
0000
0000
1000
0000
0000
0100
0100
0000
0000
0000
0010
0000
0000
0000
,
0100
0010
1000
0100
,
1000
0000
0000
0010
0010
0000
0000
0000
0103
0000
0000
0000
0000
0000
0000
0000
;
