#TITLE:Evening Star v2;
#SUBTITLE:Valley Of The Damned;
#ARTIST:Dragonforce;
#TITLETRANSLIT:;
#SUBTITLETRANSLIT:;
#ARTISTTRANSLIT:;
#CREDIT:;
#BANNER:Evening Star.png;
#BACKGROUND:Evening Star-bg.png;
#LYRICSPATH:;
#CDTITLE:!john-cdtitle.png;
#MUSIC:eveningstar.mp3;
#OFFSET:-5.950;
#SAMPLESTART:46.164;
#SAMPLELENGTH:12.000;
#SELECTABLE:YES;
#BPMS:0.000=75.000,32.000=76.800,36.000=185.080;
#STOPS:;
#BGCHANGES:;
// cache tags:
#FIRSTBEAT:0.000;
#LASTBEAT:1150.167;
#SONGFILENAME:Songs/CMDKDF Pack/Evening Star (John11)/Evening Star.sm;
#HASMUSIC:1;
#HASBANNER:1;
#MUSICLENGTH:399.313;
// end cache tags

//---------------dance-single - Blank----------------
#NOTES:
     dance-single:
     Blank:
     Hard:
     13:
     1.000,1.000,1.000,0.386,1.000,3086.000,709.000,154.000,0.000,9.000:

0101
0000
1000
0000
0010
0001
0100
0000
0011
0000
0000
0000
1000
0000
0000
0000
,
0101
0000
1000
0000
2010
0001
0100
0000
3201
0010
0001
1000
0000
0001
1300
0000
,
1010
0000
0000
0100
1010
0000
0000
0100
1010
0000
1000
0011
0000
1100
0000
0000
,
0011
0000
0100
0100
0011
0000
0100
0010
1100
0000
0000
0101
0000
0010
0101
0000
,
1001
0000
0000
0001
1000
0010
0100
0000
0101
0000
1000
1010
0001
0000
0100
0100
,
1001
0000
0000
0010
0101
0000
0000
0010
1100
0010
0001
1010
0000
1010
0001
0000
,
0110
1000
0100
0000
0101
0010
1000
0000
1010
0100
0001
0110
0000
0010
1100
0000
,
1001
0100
0010
0001
0010
0100
1000
0100
0010
0001
0010
0100
1000
0000
0000
0000
,
0000
0000
0000
0000
,
1001
0000
0010
0100
0010
0001
0110
0000
1000
0000
0110
0000
1000
0000
0110
0000
,
1010
0000
0001
0010
0100
0010
0101
0000
0010
0000
0101
0000
0010
0000
0101
0000
,
1010
0000
0001
1000
0001
1000
0110
0000
1000
0000
0110
0000
1000
0000
0110
0000
,
0101
0000
1000
0100
0010
0100
1001
0000
0100
0000
1001
0000
0100
0000
1001
0000
,
1100
0000
0001
0010
0001
0010
0101
0000
1000
0000
0101
0000
1000
0000
0101
0000
,
0110
0000
1000
0001
1000
0100
0011
0000
0100
0000
0011
0000
0100
0000
0011
0000
,
1001
0000
0100
0010
0100
0010
1100
0000
0001
0000
1100
0000
0001
0000
1100
0000
,
1001
0010
1000
0001
1000
0001
1000
0010
1000
0010
1000
0010
0100
0010
0100
0010
,
1001
0100
0010
0001
0010
0100
0010
0001
1000
0100
0010
0100
1000
0001
0010
0100
,
1000
0001
0010
0001
0010
0001
0100
0010
0100
0010
0100
0010
1000
0100
1000
0100
,
0010
0001
0010
0100
0010
0001
0010
0100
1000
0010
0100
0001
0010
0100
1000
0010
,
0100
0001
0010
0001
0010
0001
1000
0001
1000
0001
1000
0100
0010
0001
0010
0100
,
1000
0010
0100
0010
1000
0100
0010
0100
1000
0001
0010
0100
0010
0100
1000
0001
,
1000
0001
1000
0010
1000
0010
1000
0100
1000
0100
0010
0001
0010
0001
0010
0001
,
0010
0100
0010
0100
1000
0001
0010
0100
0010
0001
1000
0001
0010
0100
1000
0000
,
0100
0010
0001
0010
0100
0010
0001
0010
0100
0010
0001
0010
0100
0010
0001
0010
,
1001
0000
0010
1000
0010
1000
0010
0000
0100
0001
0100
0001
0100
0000
0100
0010
,
0100
0000
0001
1000
0001
1000
0001
0000
0100
0010
0100
0010
0100
0000
0001
0010
,
0001
0000
1000
0010
1000
0010
1000
0000
1000
0100
1000
0100
1000
0000
0010
1000
,
0010
0000
0000
0000
0000
0000
0001
0000
0000
0100
0000
0000
0001
0000
0000
0100
0000
0000
0001
0000
0000
0000
0000
0000
1000
0000
0000
0001
0000
0000
1000
0000
0000
0001
0000
0000
1000
0000
0000
0000
0000
0000
0010
0000
0100
0000
0010
0000
,
1001
0000
0000
0010
0000
0000
0010
0000
0000
1001
0100
0000
0010
0000
0000
0010
0000
0000
1001
0100
0000
0010
0100
1000
,
0011
0000
0000
0100
0000
0000
0100
0000
0000
0011
0000
0000
0100
0000
0000
0100
0000
0000
0011
0000
0000
0100
0001
0100
,
1010
0000
0001
0000
0001
0000
1010
0001
0010
0001
0010
0000
0011
0000
0100
0000
,
1010
0100
1000
0010
0100
0001
0110
0000
1000
0000
1000
0000
0011
0000
1000
0000
,
1010
0001
0010
0001
0010
0001
0100
0001
0010
0001
0010
0001
0100
0001
0010
0001
,
0100
0010
1000
0010
1000
0010
0100
0010
1000
0010
1000
0010
0100
0010
1000
0010
,
1000
0001
1000
0001
1000
0001
0100
0001
0100
0001
0100
0001
0010
0100
0010
0100
,
1000
0010
1000
0010
1000
0010
0100
0001
0100
0001
0100
0001
1000
0010
1000
0100
,
1000
0010
1000
0010
1000
0010
0100
0010
1000
0010
1000
0010
0100
0010
1000
0010
,
0100
0001
0100
0001
0100
0001
1000
0001
0100
0001
0100
0001
1000
0001
0100
0001
,
0100
0010
0100
0010
0100
0010
1000
0010
1000
0010
1000
0010
1000
0001
1000
0001
,
0100
0001
0100
0001
0100
0001
1000
0010
1000
0010
1000
0010
0100
0001
0100
0010
,
1001
0000
0100
0010
0001
0000
1001
0000
0001
0010
0100
0010
1001
0000
1001
0010
,
0101
0000
0010
0100
0001
0010
0101
0000
0010
1000
0110
1000
0110
0000
0110
0000
,
1001
0000
0010
1000
0010
0000
0101
0000
0000
0000
0110
0000
1010
0000
0110
0000
,
1001
0000
0010
1000
0010
0000
0101
0000
0000
0000
0110
0000
1010
0000
0110
0000
,
1001
0010
0100
0010
0001
1000
0100
0010
0001
1000
0010
1000
0010
0100
0001
0010
,
0100
0010
0001
1000
0100
0010
0100
0010
0100
1000
0001
1000
0001
0010
0100
1000
,
0110
0110
0110
0110
0110
0110
0110
0110
,
0011
0000
0000
0000
0000
0000
0000
0000
0000
0101
0000
0000
0000
0000
0000
0000
0000
0000
0110
0000
0000
0000
0000
0000
0000
0000
0000
1010
0000
0000
0000
0000
0000
0000
0000
0000
1100
0000
0000
0000
0000
0000
0000
0000
1001
0000
0000
0000
,
0101
1000
1100
0100
1001
0010
1001
0001
,
0101
0010
0011
0100
1001
1000
1100
0010
,
1000
1000
0011
0100
1100
0010
1100
0001
,
1010
0010
1100
0100
0110
1000
0110
0010
,
0010
1000
0011
0010
1001
0001
1010
1000
,
0110
0100
1010
1000
0011
0001
0110
0100
,
1010
0000
1010
0101
0000
0000
1001
0000
,
1001
0000
1010
1010
1001
0000
0000
0000
,
0100
0010
1010
0001
0101
1000
1001
0010
,
1010
0001
1001
1000
1001
0100
1100
0010
,
1000
0010
1010
0100
0101
1000
1100
0001
,
1001
0100
0110
1000
1010
0010
1010
0010
,
0100
0010
1010
0100
1100
0010
1010
0100
,
0101
0010
0110
1001
0100
0010
0110
0100
,
0110
1000
1010
0011
1000
0100
1100
0010
,
0110
0000
0000
1001
0000
0000
1100
0000
1100
0000
0001
0010
0100
1000
0001
0010
,
1001
0000
0001
0010
0100
0000
1000
0100
0010
0000
0010
0100
0010
0000
1000
0001
,
1000
0000
0010
1000
0010
0000
0100
0001
1010
0000
0000
0000
1010
0000
0000
0000
,
0102
0100
0100
0013
2000
0001
0100
3010
,
0120
0100
0100
0001
0000
1000
0031
0100
,
1001
0000
0001
1000
0001
0000
1000
0001
1000
0000
0010
1000
0100
0000
0001
0100
,
0010
0000
1000
0001
0010
0000
0001
1000
0100
0000
0010
0100
0010
0000
0100
0010
,
1100
0010
0001
0010
0001
0010
1001
0010
0001
0010
0001
0010
1001
0010
0001
0010
,
0101
0010
0100
0010
0100
0010
0100
0010
0100
0010
0100
0010
0101
0010
0100
0010
,
0201
0001
0001
0001
,
1302
1000
1000
1000
,
1013
0100
1000
0100
1010
0001
0110
0001
0010
0100
0010
0100
1010
0001
0010
0100
,
1001
0100
0010
0001
1000
0100
0010
0001
1100
0010
1000
0001
0100
0010
1000
0001
,
2100
0100
0100
0100
,
3201
0001
0001
0001
,
1310
0100
0001
0010
0001
0100
1010
0100
0010
0100
0010
0100
1010
0100
0010
0100
,
1010
0100
0010
0100
0010
0100
1010
0100
0001
0100
0001
0100
1010
0100
1000
0100
,
0011
0100
1000
0100
0011
0100
0011
0100
1000
0100
0011
0100
0011
0100
1000
0100
,
0011
0100
1000
0001
0010
0100
1000
0001
0010
0100
1000
0001
0010
0100
1000
0001
,
0110
0000
0000
0000
,
0000
0000
0000
0000
,
0110
0000
0000
0000
,
0001
0010
0100
1000
0010
0100
0001
0010
0100
1000
0010
0100
0001
0010
0100
1000
,
0110
0001
0010
0001
0110
1000
0001
1000
0110
1000
0010
1000
0110
0001
0100
0001
,
0110
1000
0100
1000
0110
0001
0100
0001
0110
0001
1000
0001
0110
1000
0100
1000
,
0101
0000
0000
0101
0000
0001
0101
0000
,
0101
0000
0000
0000
0000
0100
1000
0001
0010
0100
1000
0100
0010
0001
0010
0100
,
1001
0000
0010
0100
0010
0001
0110
0000
1000
0000
0110
0000
1000
0000
0110
0000
,
1010
0000
0001
0010
0100
0010
0101
0000
0010
0000
0101
0000
0010
0000
0101
0000
,
1010
0000
0001
1000
0001
1000
0110
0000
1000
0000
0110
0000
1000
0000
0110
0000
,
0101
0000
1000
0100
0010
0100
1001
0000
0100
0000
1001
0000
0100
0000
1001
0000
,
1100
0000
0001
0010
0001
0010
0101
0000
1000
0000
0101
0000
1000
0000
0101
0000
,
0110
0000
1000
0001
1000
0100
0011
0000
0100
0000
0011
0000
0100
0000
0011
0000
,
1001
0000
0100
0010
0100
0010
1100
0000
0001
0000
1100
0000
0001
0000
1100
0000
,
1000
0001
1000
0001
1000
0001
1000
0001
1000
0001
1000
0001
1000
0001
1000
0001
,
1010
0000
0010
0100
0010
0001
0110
0000
1000
0000
0110
0000
1000
0000
0110
0000
,
1010
0000
0001
0010
0100
0010
0101
0000
0010
0000
0101
0000
0010
0000
0101
0000
,
1010
0000
0001
1000
0001
1000
0110
0000
1000
0000
0110
0000
1000
0000
0110
0000
,
0101
0000
1000
0100
0010
0100
1001
0000
0100
0000
1001
0000
0100
0000
1001
0010
,
0100
0010
1001
0000
0010
0000
0101
0000
1000
0000
0101
0010
1000
0010
0101
0000
,
0100
0011
0100
0011
0100
0011
0100
0011
,
0001
1100
0001
1100
0001
1100
0001
0000
,
0100
0010
0001
1000
0010
0100
0001
0010
1000
0100
0010
0001
0100
0010
1000
0001
,
1010
0110
0011
1010
1010
0110
0110
0101
,
1100
0001
0110
1001
0010
0100
0001
0010
,
1100
1001
1100
0110
1100
1010
1100
0110
,
1010
0100
1010
1100
0010
0100
1000
0010
,
1010
0110
0110
0101
1010
0110
0110
1001
,
1001
0010
0101
1001
0100
0001
1000
0010
,
0101
0000
0100
0000
1010
0000
0110
0000
1100
0000
0000
1010
0000
0000
1100
0000
,
0110
0001
0010
0001
1100
0010
0001
1000
0110
0001
0010
0100
0011
0100
1000
0001
,
1100
0110
1100
1001
1010
0011
0110
0101
,
0110
1000
0110
0110
0010
0001
1000
0100
,
0011
1100
1010
0101
0011
1100
1100
0101
,
1100
0010
1100
0101
0100
1000
0010
1000
,
0011
0110
1100
0110
1010
1001
0110
1100
,
1010
1000
0110
1100
0010
0100
1000
0010
,
0101
0000
0010
0000
1010
0000
1100
0000
0101
0000
0000
1100
0000
0000
1001
0000
,
0001
0010
0100
1000
0000
0000
1000
0100
0010
0001
0000
0000
0001
0010
0100
1000
0000
0000
1000
0100
0010
0001
0000
0000
,
0001
0010
1100
0100
1001
0001
1001
1000
,
0101
0100
0011
0010
1001
0001
1100
0100
,
1000
0100
0011
0001
1100
0100
1100
0100
,
1010
0010
1100
1000
0110
0010
0110
0100
,
0010
1000
0011
0100
1001
1010
1000
0010
,
0110
0010
1010
0011
1000
0010
0110
0100
,
1010
1010
0000
0000
0101
0000
1001
0000
,
1001
0000
1010
1010
1001
0000
0000
0000
,
0100
1000
1010
1000
0101
1000
1001
1000
,
1010
1000
1001
1000
1001
1000
1100
1000
,
1000
0010
1010
0010
0101
0010
1100
0010
,
1001
0010
0110
0010
1010
0010
1010
0010
,
0100
0100
1010
0100
1100
0100
1010
0101
,
0100
0100
0110
1001
0100
0100
0110
0100
,
0110
0001
1010
0011
0001
0001
1100
0110
,
0110
0000
1001
0000
0001
0000
1100
0000
0001
0000
0001
0010
0100
1000
0001
0010
,
1001
0000
0001
0010
0100
0000
1000
0100
0010
0000
0010
0100
0010
0000
1000
0001
,
1000
0000
0010
1000
0010
0000
0100
0001
1010
0000
0000
0000
1010
0000
0000
0000
,
0102
0100
0100
0013
2000
0001
0100
3010
,
0120
0100
0100
0001
0000
1000
0031
0100
,
1001
0000
0001
1000
0001
0000
1000
0001
1000
0000
0010
1000
0100
0000
0001
0100
,
0010
0000
1000
0001
0010
0000
0001
1000
0100
0000
0010
0100
0010
0000
0100
0010
,
1100
0001
1000
0001
1000
0001
1100
0001
1000
0001
1000
0001
1100
0001
1000
0001
,
1010
0001
0010
0001
0010
0001
0010
0001
0010
0001
0010
0001
1010
0001
0010
0001
,
1020
1000
1000
1000
,
2130
0100
0100
0100
,
3101
0010
0100
0010
0101
1000
0011
1000
0001
0010
0001
0010
0101
1000
0001
0010
,
1100
0010
0001
1000
0100
0010
0001
1000
0110
0001
0010
0100
0010
0001
1000
0001
,
0210
0010
0010
0010
,
1320
1000
1000
1000
,
0131
0010
1000
0001
1000
0010
0101
0010
0001
0010
0001
0010
0101
0010
0001
0010
,
0101
0010
0001
0010
0001
0010
0101
0010
1000
0010
1000
0010
0101
0010
0100
0010
,
1001
0010
0100
0010
1001
0010
1001
0010
0100
0010
1001
0010
1001
0010
0100
0010
,
1001
0010
0100
1000
0001
0010
0100
1000
0001
0010
0100
1000
0001
0010
0100
1000
,
0110
0000
0000
0000
,
0000
0000
0000
0000
,
0110
0000
0000
0000
,
1000
0100
0010
0001
0100
0010
1000
0100
0010
0001
0100
0010
1000
0100
0010
0100
,
1001
0100
0010
0100
1001
0100
1000
0100
1001
0100
0001
0100
1001
0100
0010
0100
,
1001
0100
0010
0100
1001
0100
0010
0100
1001
0010
0100
0010
1001
0100
0010
0100
,
1001
0000
0000
0101
0000
0001
0101
0000
,
0101
0000
0000
0000
0000
0100
1000
0001
0010
0100
1000
0100
0010
0001
0010
0100
,
1001
0000
0010
0100
0010
0001
0110
0000
1000
0000
0110
0000
1000
0000
0110
0000
,
1010
0000
0001
0010
0100
0010
0101
0000
0010
0000
0101
0000
0010
0000
0101
0000
,
1010
0000
0001
1000
0001
1000
0110
0000
1000
0000
0110
0000
1000
0000
0110
0000
,
0101
0000
1000
0100
0010
0100
1001
0000
0100
0000
1001
0000
0100
0000
1001
0000
,
1100
0000
0001
0010
0001
0010
0101
0000
1000
0000
0101
0000
1000
0000
0101
0000
,
0110
0000
1000
0001
1000
0100
0011
0000
0100
0000
0011
0000
0100
0000
0011
0000
,
1001
0000
0100
0010
0100
0010
1100
0000
0001
0000
1100
0000
0001
0000
1100
0000
,
1000
0001
1000
0001
1000
0001
1000
0001
1000
0001
1000
0001
1000
0001
1000
0001
,
1010
0000
0010
0100
0010
0001
0110
0000
1000
0000
0110
0000
1000
0000
0110
0000
,
1010
0000
0001
0010
0100
0010
0101
0000
0010
0000
0101
0000
0010
0000
0101
0000
,
1010
0000
0001
1000
0001
1000
0110
0000
1000
0000
0110
0000
1000
0000
0110
0000
,
0101
0000
1000
0100
0010
0100
1001
0000
0100
0000
1001
0000
0100
0000
1001
0010
,
0100
0010
1001
0000
0010
0000
0101
0000
1000
0000
0101
0010
1000
0010
0101
0000
,
0100
0011
0100
0011
0100
0011
0100
0011
,
0001
1100
0001
1100
0001
1100
0001
0000
,
0100
0000
0000
0010
0000
0000
0001
0000
0000
1000
0000
0000
0010
0000
0000
0100
0000
0000
0001
0000
0000
0010
0000
0000
1000
0000
0000
0100
0000
0000
0010
0000
0000
0001
0000
0000
0100
0000
0000
0010
0000
0000
1000
0000
0010
0000
0100
0000
,
1001
0000
0010
0000
0010
0000
1001
1100
0010
0000
0010
0000
1001
1100
0010
0000
,
0101
0000
0000
0000
0000
0000
0010
0000
0000
0000
0000
0000
0010
0000
0000
0000
0000
0000
0101
0000
0000
1001
0000
0000
0010
0000
0000
0000
0000
0000
0010
0000
0000
0000
0000
0000
0101
0000
0000
1001
0000
0000
0100
0000
0010
0000
0100
0000
,
1001
0010
0100
1000
0100
1000
0001
0010
0100
0010
0100
1000
0001
0010
0001
0010
,
0100
1000
0100
1000
0001
0010
0100
0010
0100
1000
0001
0010
2002
0000
0000
3003
,
0110
0000
0000
0000
0000
0000
1000
0000
0000
0000
0000
0000
1000
0000
0000
0000
0000
0000
0110
0000
0000
0101
0000
0000
1000
0000
0000
0000
0000
0000
1000
0000
0000
0000
0000
0000
0110
0000
0000
0101
0000
0000
1000
0000
0001
0000
0100
0000
,
0011
0000
0000
0000
0000
0000
1000
0000
0000
0000
0000
0000
1000
0000
0000
0000
0000
0000
0011
0000
0000
0110
0000
0000
1000
0000
0000
0000
0000
0000
1000
0000
0000
0000
0000
0000
0011
0000
0000
0110
0000
0000
0001
0000
1000
0000
0001
0000
,
0010
0100
1000
0001
0010
0100
0010
0001
0010
0100
1000
0001
0010
0100
1000
0100
0010
0100
1000
0001
1000
0001
0010
0100
,
1000
0001
0010
0100
1000
0001
0010
0001
1000
0100
0010
0001
1000
0100
1000
0001
0010
0100
1000
0001
0010
0100
1000
0001
,
0020
0000
0000
0000
0000
0000
0000
0000
0000
0000
0000
0000
0000
0000
0030
1000
,
0002
0000
2003
3020
,
0230
0000
0000
0000
0000
0000
0000
0000
0000
0000
0320
0032
2003
3020
0230
0000
,
2300
0000
0000
0000
0000
0000
0000
0000
0000
0000
0000
0000
0000
0000
0000
0000
0000
0000
0000
0000
0000
0000
0000
3000
4004
0000
0000
0000
0000
0000
0000
0000
0000
0000
0000
0000
0000
0000
0000
0000
0000
0000
0000
0000
0000
0000
0000
3003
2000
0000
0000
0000
3002
0000
0000
0000
0203
0000
0000
0000
0320
0000
0000
0000
,
0032
0000
0000
0000
0000
0000
0000
0000
0203
2300
3020
0230
0302
0023
0230
2300
,
3020
0000
0000
0000
0000
0000
0000
0000
0000
0000
0000
0000
0000
0000
0000
0000
0000
0000
0000
0000
0000
0000
0000
0000
0000
0000
0000
0000
0000
0000
0000
0030
0440
0000
0000
0000
0000
0000
0000
0000
0000
0000
0000
0000
0000
0000
0000
0000
0000
0000
0000
0000
0000
0000
0000
0000
0000
0000
0000
0000
0330
0000
0000
0000
,
2000
0000
0000
0000
0000
0000
0000
0000
0000
0000
0000
0000
3020
0000
0000
0000
0000
0000
0000
0000
0000
0000
0000
0000
0230
0000
0000
0000
0000
0000
0000
0000
0000
0000
0000
0000
0000
0000
0000
0000
0000
0000
0302
0000
0000
0000
0000
0000
0000
0000
0000
0000
0000
0000
0000
0000
0000
0000
0000
0000
2003
0000
0000
0000
0000
0000
0000
0000
0000
0000
0000
0000
3020
0000
0000
0000
0000
0000
0000
0000
0000
0000
0000
0000
0000
0000
0000
0000
0230
0000
0000
0000
0000
0000
0000
0000
0320
0000
0000
0000
0000
0000
0000
0000
0000
0000
0000
0000
0000
0000
0000
0000
0032
0000
0000
0000
0000
0000
0000
0000
2003
0000
0000
0000
0000
0000
0000
0000
0000
0000
0000
0000
0000
0000
0000
0000
3020
0000
0000
0000
0000
0000
0000
0000
0230
0000
0000
0000
0000
0000
0000
0000
0000
0000
0000
0000
0000
0000
0000
0000
0000
0000
0000
0000
0000
0000
0000
0000
0302
0000
0000
0000
0000
0000
0000
0000
0000
0000
0000
0000
0023
0000
0000
0000
0000
0000
0000
0000
0000
0000
0000
0000
,
2030
3002
0203
0320
2030
3002
0203
0320
2030
3002
0000
0000
0000
0000
0000
0003
,
1000
0100
0010
0001
0100
0010
1000
0001
0010
0100
1000
0001
0100
0010
1000
0100
,
0010
0000
0010
0001
1000
0100
0010
0001
1000
0000
0000
0000
0000
0000
0000
0010
,
0001
0010
0100
1000
0100
0010
0100
1000
0001
0010
0100
1000
0001
0010
0100
1000
,
0001
1000
0100
0010
0001
1000
0100
0010
0001
0000
0000
0000
0000
0000
0000
0000
,
0100
0000
0000
1000
0000
0000
0001
0000
0000
1000
0000
0000
0100
0000
0000
0010
0000
0000
0001
0000
0010
0000
0100
0000
1000
0000
0000
0001
0000
0000
0010
0000
0100
0000
0010
0000
0001
0000
0000
1000
0000
0000
0100
0000
0000
0010
0000
0000
,
0001
0000
0100
0000
0010
0000
1000
0000
0000
0100
0000
0000
0010
0000
0001
0000
1000
0000
0001
0000
0000
0010
0000
0000
0100
0000
0010
0000
0100
0000
0010
0000
0000
0100
0000
0000
1000
0000
0000
0100
0000
0000
0010
0000
0000
0100
0000
0000
,
1000
0000
0100
0000
0010
0000
0001
0000
0000
0010
0000
0000
0100
0000
1000
0000
0100
0000
0010
0000
0000
0001
0000
0000
0100
0000
0010
0000
1000
0000
0100
0000
0000
0010
0000
0000
0100
0000
1000
0000
0001
0000
0010
0000
0000
0100
0000
0000
,
1000
0100
0010
0001
0010
0100
1000
0100
0010
0001
0010
0100
1000
0100
0010
0001
0010
0100
1000
0100
0010
0001
0010
0100
,
0020
2030
3200
0320
0032
0023
0230
2300
,
3020
0230
0320
0032
2003
3002
0023
0230
,
0310
0001
0010
0100
0010
0100
1000
0001
0010
0100
0010
0100
1000
0001
0010
0100
,
1000
0000
0020
0000
0130
0001
0010
0100
0010
0100
1000
0001
0200
0000
0000
0000
,
0301
0001
0001
0001
0002
0000
0000
0000
1003
1000
1000
1000
2000
0000
0000
0000
,
3010
0010
0010
0010
0020
0000
0000
0000
0130
0100
0100
0100
0200
0000
0000
0000
,
0310
0100
0010
0001
0000
0000
0100
0010
0100
1000
0000
0000
1000
0010
1000
0100
0000
0000
0001
0100
0001
0010
0000
0000
,
0011
0100
0011
0100
0011
0100
0011
0100
2002
0000
0000
0000
0000
0000
3003
0000
,
0001
0010
1000
0010
0001
0010
1000
0010
0001
0010
1000
0010
0001
0010
1000
0010
,
1100
0001
1000
0001
0100
0001
1000
0001
0100
0001
1000
0001
0100
0001
1000
0001
,
0110
1000
0100
1000
0010
1000
0100
1000
0010
1000
0100
1000
0010
1000
0100
1000
,
0011
0100
0010
0100
0001
0100
0010
0100
1001
0100
0010
0100
1000
0100
0010
0100
,
1001
0010
1000
0010
0001
0010
1000
0010
0001
0010
1000
0010
0001
0010
1000
0010
,
1100
0001
1000
0001
0100
0001
1000
0001
0100
0001
1000
0001
0100
0001
1000
0001
,
0110
1000
0100
1000
0010
1000
0100
1000
0010
1000
0100
1000
0010
1000
0100
1000
,
0011
0100
0010
0100
0001
0100
0010
0100
1001
0100
0010
0100
1000
0100
0010
0100
,
1010
0001
0010
0001
0100
0001
0110
0001
0100
0001
0010
0001
0110
0001
0010
0001
,
1010
0100
0010
0100
1000
0100
1010
0100
1000
0100
0010
0100
1010
0100
0010
0100
,
1001
0010
1000
0010
0001
0010
1001
0010
0001
0010
1000
0010
1001
0010
1000
0010
,
0101
1000
0001
1000
0110
1000
0001
1000
0110
1000
0001
1000
0011
1000
0001
1000
,
0011
0100
0001
0100
1000
0100
1001
0100
1000
0100
0001
0100
1001
0100
0001
0100
,
0011
1000
0001
1000
0010
1000
0011
1000
0010
1000
0001
1000
0011
1000
0001
1000
,
0110
0001
0010
0001
1010
0001
1010
0001
0100
0001
1010
0001
1010
0001
0010
0001
,
1100
0010
0100
0010
1100
0010
1100
0010
0001
0010
1100
0010
1100
0010
0100
0010
,
0101
1000
0010
1000
0101
1000
0101
1000
0010
1000
0101
1000
0101
1000
0010
1000
,
0101
1000
0010
1000
0001
1000
0010
1000
0002
0000
0000
0000
0003
0000
0000
0000
,
0020
0000
0030
2000
3001
0200
0310
0002
,
0203
0000
0300
0020
0031
2000
3100
0200
,
0320
0000
0030
2000
3000
0200
0301
0020
,
0230
0000
0300
0020
0032
0003
0200
0300
,
0010
1000
0010
1000
0010
2000
3000
0100
0001
0100
0001
0100
0001
0200
0300
0000
,
1000
0001
1000
0001
1000
0002
0003
0000
0100
0010
0100
0010
0100
0020
0030
0000
,
2000
3020
0230
0302
2003
3200
0320
0230
0320
0032
0023
0230
,
0320
0000
0000
0000
0230
0000
0000
0000
2300
0000
0000
0000
3002
0000
0000
0000
0203
0000
0000
0000
0320
0000
0000
0000
2030
0000
0000
0001
0000
0000
0010
0000
0000
0100
0000
0000
0010
0000
0000
0001
0000
0000
0010
0000
0000
0100
0000
0000
,
3001
0000
0010
0000
0100
0000
1000
0000
0000
0000
0000
0000
1000
0000
0100
0000
0010
0000
0001
0000
0000
0000
0000
0000
0100
0000
0000
0000
0000
0000
0100
0000
0010
0000
0100
0000
0010
0000
0000
0001
0000
0000
0010
0000
0000
0000
0000
0000
,
0100
0000
0010
0000
1000
0000
0100
0000
0000
0010
0000
0000
0001
0000
0010
0000
0100
0000
1000
0000
0000
0010
0000
0000
0100
0000
0010
0000
0001
0000
0100
0000
0000
0010
0000
0000
0001
0000
0010
0000
0100
0000
0010
0000
0000
1000
0000
0000
,
0010
0000
0000
0100
0000
0000
1000
0000
0000
0100
0000
0000
0010
0000
0100
0000
1000
0000
0010
0000
0000
0001
0000
0000
1000
0000
0100
0000
0010
0000
1000
0000
0000
0100
0000
0000
0010
0000
0000
0001
0000
0000
0100
0000
0000
0000
0010
0000
,
1000
0000
0010
1000
0000
0010
1000
0000
0000
0002
0000
0000
2003
0000
0000
0000
0000
0000
3000
0000
0000
0000
0000
0000
,
0010
0000
0000
0000
0000
0000
0000
0000
0000
0000
0000
0000
0000
0000
0000
0000
0100
0000
0000
0000
0000
0000
0000
0000
0000
0000
0000
0000
0000
0000
0000
0000
0010
0000
0000
0000
0000
0000
0000
0000
0000
0000
0000
0000
0000
0000
0000
0000
0100
0000
0000
0000
0000
0000
0000
0000
0000
0000
0000
0000
0001
0000
0000
0000
0000
0000
0000
0000
0000
0000
0000
0000
0100
0000
0000
0000
0000
0000
0000
0000
0000
0000
0000
0000
0000
0000
0000
0000
0010
0000
0000
0000
0000
0000
0000
0000
0000
0000
0000
0000
1000
0000
0000
0000
0000
0000
0000
0000
0000
0000
0000
0000
0000
0000
0000
0000
0000
0000
0000
0000
0001
0000
0000
0000
0000
0000
0000
0000
0000
0000
0000
0000
0100
0000
0000
0000
0000
0000
0000
0000
0000
0000
0000
0000
0000
0000
0000
0000
0010
0000
0000
0000
0000
0000
0000
0000
0000
0000
0000
0000
1000
0000
0000
0000
0000
0000
0000
0000
0000
0000
0000
0000
0000
0000
0100
0000
0000
0000
0000
0000
0000
0000
0000
0000
0000
0000
0000
0000
0000
0000
0000
0000
,
0000
0010
0000
0000
0000
0000
0100
0000
0000
1000
0000
0000
0100
0000
0000
0010
0000
0000
0001
0000
0000
0100
0000
0000
0010
0000
0000
1000
0000
0000
0010
0000
0000
1000
0000
0000
0010
0000
0000
0000
0000
0000
0000
0000
0000
0000
0000
0000
,
0200
0000
0000
0000
0000
0000
0000
0000
0000
0000
0000
0000
0000
0000
0000
0000
0000
0000
0000
0000
0000
0300
0010
0000
2000
0000
0000
0000
0000
0000
0000
0000
0000
0000
0000
0000
3002
0000
0000
0000
0000
0000
0000
0000
0000
0000
0000
0000
,
0203
0010
0001
0010
0001
0010
0001
0010
2300
0010
0001
0010
0001
0010
0001
0010
,
3001
0000
0010
0100
0010
0000
1000
0000
0011
0000
1000
0000
0011
0000
1000
0000
,
0110
0000
1000
0010
1000
0000
0010
0000
1100
0000
0010
0000
1100
0000
0010
0000
,
1001
0000
0010
0001
0010
0000
0100
0000
1010
0000
0100
0000
1010
0000
0100
0000
,
0101
0000
0010
0100
0010
0000
1000
0000
0101
0000
1000
0000
0101
0000
1000
0000
,
1002
0000
0000
0000
0000
0000
0003
1000
0200
0000
0000
0000
2300
0000
0000
0000
,
3002
0000
0000
0000
0000
0000
0000
0000
0000
0000
0000
0000
0000
0000
0000
0000
0000
0000
0000
0000
0000
0000
0000
0000
0000
0000
0000
0000
0000
0000
0000
0003
0002
0000
0000
0000
0000
0000
0000
0000
0000
0000
0000
0000
0000
0000
0000
0000
0000
0000
0000
0000
0000
0000
0000
0000
0000
0000
0000
0000
0000
0000
0000
0000
,
1003
0000
0000
0000
0010
0000
0000
0000
0100
0000
0000
0000
1000
0000
0000
0100
0000
0000
0010
0000
0000
0001
0000
0000
0010
0000
0000
0100
0000
0000
0001
0000
0000
1000
0000
0000
0100
0000
0000
0010
0000
0000
1000
0000
0000
0010
0000
0000
,
0100
1000
0001
1000
0010
1000
0100
1000
0110
0000
0000
0000
0110
0000
0000
0000
,
0110
0000
0001
1000
0001
0100
1001
0000
0010
0000
1001
0000
0010
0000
1001
0000
,
0011
0000
0100
0001
1000
0001
1100
0000
0001
0000
1100
0000
0001
0000
1100
0000
,
0011
0000
0100
0010
0100
0010
1001
0000
0010
0000
1001
0000
0010
0000
1001
0000
,
1100
0000
0010
1000
0001
1000
0110
0000
1000
0000
0110
0000
1000
0000
0110
0000
,
1010
0000
0100
0001
0100
0001
1100
0000
0010
0000
1100
0000
0010
0000
1100
0000
,
1001
0000
0010
0100
0010
1000
0101
0000
1000
0000
0101
0000
1000
0000
0101
0000
,
0110
0000
1000
0001
1000
0001
1010
0000
0100
0000
1010
0000
0100
0000
1010
0000
,
0100
0000
1010
0000
0010
0100
0010
0100
0010
0100
0010
0100
0010
0100
0010
0100
,
0011
0000
0001
1000
0001
0100
1001
0000
0010
0000
1001
0000
0010
0000
1001
0000
,
0011
0000
0100
0001
1000
0001
1100
0000
0001
0000
1100
0000
0001
0000
1100
0000
,
0011
0000
0100
0010
0100
0010
1001
0000
0010
0000
1001
0000
0010
0000
1001
0000
,
1100
0000
0010
1000
0001
1000
0110
0000
1000
0000
0110
0000
1000
0000
0110
0000
,
1000
0000
0100
1000
0001
0010
1100
0000
0010
0000
1100
0000
0010
0000
1100
0000
,
1000
0000
0100
0010
1000
0010
0101
0000
1000
0000
0101
0000
1000
0000
0101
0000
,
0100
1010
0100
1010
0100
1010
0100
1010
,
0100
1010
0100
1010
0100
1010
0100
1010
,
0011
1000
0011
1000
0011
1000
0011
1000
0011
1000
0011
1000
0011
1000
0011
1000
,
0011
0100
1010
0100
1010
0100
1010
0100
1010
0100
1010
0100
1010
0100
1010
0100
,
1001
0010
1001
0010
1001
0010
1001
0010
1001
0010
1001
0010
1001
0010
1001
0010
,
1001
0100
1010
0001
1010
0001
1010
0001
1010
0001
1010
0001
1010
0001
1010
0001
,
1020
0000
0000
0000
0000
0000
0000
0000
0000
0000
0000
0000
0000
0000
0000
0000
0000
0000
0000
0000
0000
0000
0000
0000
0000
0000
0000
0000
0000
0000
0000
0000
0000
0000
0000
0000
0000
0000
0000
0000
0000
0000
0000
0000
0000
0000
0000
0000
0000
0000
0000
0000
0000
0000
0000
0000
0000
0000
0000
0000
0000
0000
0000
0000
0100
0000
0000
0000
0000
0000
0000
0000
0000
0000
0000
0000
0000
0000
0000
0000
0000
0000
0000
0000
0000
0000
0000
0000
0000
0000
0000
0000
0000
0000
0000
0000
0000
0000
0000
0000
0000
0000
0000
0000
0000
0000
0000
0000
0000
0000
0000
0000
0000
0000
0000
0000
0000
0000
0000
0000
0030
0000
0000
0000
0000
0000
0000
0000
0000
0001
0000
0000
0200
0000
0000
0000
0000
0000
0000
0000
0000
0000
0000
0000
0000
0000
0000
0000
0000
0000
0000
0000
0000
0000
0000
0000
0000
0000
0000
0000
0000
0000
0000
0000
0000
0000
0000
0000
0000
0000
0000
0000
0000
0000
0000
0000
0000
0000
0000
0000
0000
0000
0000
0000
0000
0000
0000
0000
0000
0000
0000
0000
,
0000
0000
0000
0000
0000
0000
0300
0000
0000
0000
0000
0000
0000
0000
0000
0000
0000
0000
0002
0000
0000
0000
0000
0000
0000
0000
0000
0000
0000
0000
0000
0000
0000
0000
0000
0000
0000
0000
0000
0000
0000
0000
0000
0000
0000
0000
0000
0000
0000
0000
0000
0000
0000
0000
0000
0000
0000
0000
0000
0000
0000
0000
0000
0000
0000
0000
0000
0000
0000
0000
0000
0000
0000
0000
0000
0000
0000
0000
0000
0000
0000
0000
0000
0000
0003
0000
0000
0000
0000
0000
0000
0000
0000
0000
0000
0000
0200
0000
0000
0000
0000
0000
0000
0000
0000
0000
0000
0000
0000
0000
0000
0000
0000
0000
0000
0000
0000
0000
0000
0000
0000
0000
0000
0000
0000
0000
0000
0000
0000
0000
0000
0000
0000
0000
0000
0000
0000
0000
0000
0000
0000
0000
0000
0000
0000
0000
0000
0000
0000
0000
0000
0000
0000
0000
0000
0000
0000
0000
0000
0000
0000
0000
0000
0000
0000
0000
0000
0000
0000
0000
0000
0000
0000
0000
0000
0000
0010
0000
0000
0000
0000
0000
0000
0000
0000
0000
0000
0000
0000
0000
0000
0000
,
0000
0000
0000
0000
0000
0000
0000
0000
0000
0000
0000
0000
0000
0000
0000
0000
0000
0000
0000
0000
0000
0000
0000
0000
0000
0000
0000
0000
0000
0000
0000
0000
0000
0000
0000
0000
0000
0000
0000
0000
0000
0000
0000
0000
0000
0000
0000
0000
0300
0000
0000
0000
0000
0000
0000
0000
0000
1000
0000
0000
0020
0000
0000
0000
0000
0000
0000
0000
0000
0000
0000
0000
0000
0000
0000
0000
0000
0000
0000
0000
0000
0000
0000
0000
0000
0000
0000
0000
0000
0000
0000
0000
0000
0000
0000
0000
0000
0000
0000
0000
0000
0000
0000
0000
0000
0000
0000
0000
0000
0000
0000
0000
0100
0000
0000
0000
0000
0000
0000
0000
0000
0000
0000
0000
0000
0000
0000
0000
0000
0000
0000
0000
0000
0000
0000
0000
0000
0000
0000
0000
0000
0000
0000
0000
0000
0000
0000
0000
0000
0000
0000
0000
0000
0000
0000
0000
1000
0000
0000
0000
0000
0000
0000
0000
0000
0000
0000
0000
0000
0000
0000
0000
0000
0000
0000
0000
0000
0000
0000
0000
0000
0000
0000
0000
0000
0000
0000
0000
0000
0000
0000
0000
,
0000
0000
0000
0000
0000
0000
0000
0000
0000
0000
0000
0000
0000
0000
0000
0000
0030
0000
0000
0000
2200
0000
0000
0000
0000
0000
0000
0000
0000
0000
0000
0000
0000
0000
0000
0000
3300
0000
0000
0022
0000
0000
0000
0000
0000
0000
0000
0000
0000
0000
0000
0000
0000
0000
0033
0000
0000
0000
0220
0000
0000
0000
0000
0000
,
0000
0000
0000
0000
,
0000
0000
0000
0000
,
0000
0000
0000
0000
,
0000
0000
0000
0000
,
0330
0000
0000
0000
0000
0000
0000
0000
0000
0000
0000
0000
1000
0000
0000
0000
0000
0000
0000
0000
0000
0000
0000
0000
0001
0000
0000
0000
0000
0000
0000
0000
0000
0000
0000
0000
0010
0000
0000
0000
0000
0000
0000
0000
0000
0000
0000
0000
0100
0000
0000
0000
0000
0000
0000
0000
0000
0000
1000
0000
0000
0000
0000
0000
0000
0000
0000
0000
0000
0000
0000
0000
0011
0000
0000
0000
0000
0000
0000
0000
0000
0000
0100
0000
0000
0000
0000
0000
0000
0000
0000
0000
0000
0000
0000
0001
0000
0000
0000
0000
0000
0000
0000
0000
0000
0000
0000
0000
1000
0000
0000
0000
0000
0000
0000
0000
0000
0000
0000
0000
0100
0000
0000
0000
0000
0000
0000
0000
0000
0000
0000
0000
0011
0000
0000
0000
0000
0000
0000
0000
0000
0000
0000
0000
0100
0000
0000
0000
0000
0000
0000
0000
0000
0000
0000
0000
0011
0000
0000
0000
0000
0000
0000
0000
0000
0000
0000
0000
0100
0000
0000
0000
0000
0000
0000
0000
0000
0000
0000
0000
0011
0000
0000
0000
0000
0000
0000
0000
0000
0000
0000
0000
,
1000
0000
0000
0000
0000
0011
0000
0000
0000
1000
0000
0000
0011
0000
0000
1000
0000
0000
0000
0011
0000
0000
0000
1000
0000
0000
0000
0011
0000
0000
0000
0000
1000
0000
0000
0000
0100
0000
0000
0000
0011
0000
0000
1000
0000
0000
0000
0011
0000
0000
0100
0000
0000
0000
0000
0010
0000
0000
0000
0001
0000
0000
0000
0100
,
0000
0000
0000
0000
0000
0000
0011
0000
0000
0000
0000
0000
0000
0000
0000
0000
0000
0000
1000
0000
0000
0000
0000
0000
0000
0000
0000
0000
0000
0000
0011
0000
0000
0000
0000
0000
0000
0000
0000
0000
0000
0000
1000
0000
0000
0000
0000
0000
0000
0000
0000
0000
0000
0000
0011
0000
0000
0000
0000
0000
0000
0000
0000
0000
0000
0000
1000
0000
0000
0000
0000
0000
0000
0000
0000
0000
0000
0000
0011
0000
0000
0000
0000
0000
0000
0000
0000
0000
0000
0000
0000
0000
0100
0000
0000
0000
0000
0000
0000
0000
0000
0000
0000
0000
0000
1000
0000
0000
0000
0000
0000
0000
0000
0000
0000
0000
0000
0010
0000
0000
0000
0000
0000
0000
0000
0000
0000
0000
0000
0100
0000
0000
0000
0000
0000
0000
0000
0000
0000
0000
0000
0000
0000
0000
0001
0000
0000
0000
0000
0000
0000
0000
0000
0000
0000
0000
1000
0000
0000
0000
0000
0000
0000
0000
0000
0000
0000
0000
0010
0000
0000
0000
0000
0000
0000
0000
0000
0000
0000
0000
0100
0000
0000
0000
0000
0000
0000
0000
0000
0000
0000
0000
,
0000
0000
0000
0001
0000
0000
0000
0000
0000
0000
0000
0000
1000
0000
0000
0000
0000
0000
0000
0000
0000
0000
0000
0000
0000
0000
0000
0010
0000
0000
0000
0000
0000
0000
0000
0000
0000
0000
0000
0100
0000
0000
0000
0000
0000
0000
0000
0000
0001
0000
0000
0000
0000
0000
0000
0000
0000
0000
0000
0000
1000
0000
0000
0000
0000
0000
0000
0000
0000
0000
0000
0000
0010
0000
0000
0000
0000
0000
0000
0000
0000
0000
0000
0000
0100
0000
0000
0000
0000
0000
0000
0000
0000
0000
0000
0000
0001
0000
0000
0000
0000
0000
0000
0000
0000
0000
0000
0000
1000
0000
0000
0000
0000
0000
0000
0000
0010
0000
0000
0000
0000
0000
0000
0000
0000
0000
0000
0000
1000
0000
0000
0000
0000
0000
0000
0000
0000
0000
0000
0000
0000
0011
0000
0000
0000
0000
0000
0000
0000
0000
0000
0000
0000
0011
0000
0000
0000
0000
0000
0000
0000
0000
0000
0000
0000
0000
0000
0000
0000
0000
0000
0000
0000
0000
0000
0000
0000
0000
0000
0000
0000
0000
0000
0000
0000
0000
0000
0000
0000
0000
0000
0000
,
0000
0000
0000
0000
0000
0000
0000
0000
0000
0000
0000
0000
0000
1001
0000
0000
0000
0000
0000
0000
0000
0000
0000
0000
;
