#TITLE:Malicious Fingers;
#SUBTITLE:FINALBOSS [MetalStyle];
#ARTIST:SnappleMan[projektCHAOS];
#TITLETRANSLIT:;
#SUBTITLETRANSLIT:;
#ARTISTTRANSLIT:;
#CREDIT:ocremix.org;
#BANNER:Malicious Fingers-bn.png;
#BACKGROUND:Malicious Fingers-bg.png;
#LYRICSPATH:;
#CDTITLE:audioslave'srevenge-Blades of Fury-cdtitle.png;
#MUSIC:Malicious Fingers (Final Boss).mp3;
#OFFSET:0.020;
#SAMPLESTART:62.280;
#SAMPLELENGTH:15.000;
#SELECTABLE:YES;
#DISPLAYBPM:*;
#BPMS:0.000=100.000,32.000=50.000,35.000=200.000,161.000=400.001,173.000=200.000,237.000=400.000,239.000=200.000,240.000=400.000,242.000=200.000,243.000=400.000,245.000=200.000,246.000=400.000,248.000=200.000,249.000=400.000,251.000=200.000,252.000=400.000,254.000=200.000,255.000=400.000,257.000=200.000,258.000=400.000,260.000=200.000,269.000=400.000,271.000=200.000,272.000=400.000,274.000=200.000,275.000=400.000,277.000=200.000,278.000=400.000,280.000=200.000,343.000=400.000,355.000=200.000,388.000=800.002,408.000=400.008,411.000=50.002,411.500=200.003;
#STOPS:;
#BGCHANGES:;
// cache tags:
#FIRSTBEAT:0.000;
#LASTBEAT:412.500;
#SONGFILENAME:Songs/toune 4/Malicious Fingers/mali.sm;
#HASMUSIC:1;
#HASBANNER:1;
#MUSICLENGTH:123.932;
// end cache tags

//---------------dance-single - ----------------
#NOTES:
     dance-single:
     :
     Hard:
     10:
     0.846,1.000,0.347,0.420,0.299,639.000,43.000,52.000,57.000,13.000:
2010
0000
0100
0100
3100
0000
0000
0000
,
1001
0000
0000
0202
0000
0303
0000
0000
,
0102
0000
0010
0010
0013
0000
0000
0000
,
1001
0000
0000
2020
0000
3030
0100
0000
,
0010
0000
1000
0100
1000
0000
0010
0001
,
0020
0000
0000
1030
0000
0000
0100
0010
,
0001
0000
0010
0100
1000
0000
0100
0010
,
0001
0010
0100
1000
0100
0010
0001
0010
0001
0010
0100
0010
0100
1000
0100
1000
0100
0010
0001
0010
0100
0010
0001
0010
,
0200
0000
1000
0000
0001
0000
0010
0000
0010
1000
0010
0001
0310
0000
1000
0000
,
0010
0000
0100
0010
0001
0000
0001
0100
,
1000
0000
1000
0100
1000
0000
1000
0100
,
0010
0001
0010
0100
0001
0000
0010
0100
,
0001
0010
0100
1000
0010
0000
1000
0100
,
0010
0100
1000
0010
0100
0000
0001
0010
,
0001
0100
1000
0010
0100
0000
1001
0000
,
0100
0010
0001
0010
0100
0000
0110
0000
,
1000
0100
0010
0100
1000
0000
1020
0000
,
0130
0000
0010
0000
0001
0000
0010
0100
,
1000
0100
0010
0001
0110
0000
0102
0000
,
0013
0000
1000
0000
0010
0000
0100
0010
,
0001
0000
0010
0000
0100
0000
1000
0000
0100
0000
0001
0010
2100
0000
0000
0000
,
3100
0000
0010
0000
0101
0000
1000
0100
,
0010
0100
0001
0010
0200
0000
1300
0100
,
0010
0100
0001
0010
0100
1000
1000
0100
,
0010
0000
0001
0000
0010
0000
0100
0000
0010
0000
0001
1000
0100
0000
1000
0000
,
0100
0010
0001
0100
1000
0110
0000
0001
,
0010
0000
1000
0000
1000
0000
0100
0000
0012
0000
1000
0100
0013
0000
0100
0000
,
0001
0010
1000
0010
0001
1100
0000
1100
,
0010
0000
0001
0000
0100
0000
0010
0000
2000
0000
0001
0010
3100
0000
0010
0000
,
0001
1000
0001
0010
0100
1001
0000
1001
,
0010
0100
0001
0010
1000
0010
0100
0010
,
0001
0100
1000
0100
0010
1100
0000
0110
,
0001
0010
0001
0010
0200
0000
0310
0001
,
0010
0000
0100
0000
0010
0000
0001
0000
0100
0000
1000
0000
0100
0000
0010
1000
,
0010
0001
0010
0100
0001
0010
0100
1000
,
0100
1000
0100
0000
0001
0000
0010
0000
0001
0000
0000
0000
0100
0000
0010
0000
,
0001
0000
0100
0000
0010
0000
0001
0000
0100
0010
0100
0000
0010
0000
0001
0000
,
0010
0000
0100
1000
0100
0010
0001
0010
,
0100
0001
0100
0000
0010
0000
0100
0000
0001
0000
0000
0000
0010
0000
1000
0000
,
0010
0100
1000
0010
0001
0010
0100
1000
,
0100
0010
2002
0000
0000
0000
0000
0000
,
0000
0000
0000
0000
,
0000
0000
0000
3013
,
1000
0000
0010
1000
0100
0000
0100
1000
,
0010
1001
0000
0110
0000
1001
0100
0010
,
0001
0000
0001
0010
0100
0000
0001
0000
0100
0000
0000
0000
1000
0000
0100
0000
,
0010
0101
0000
0110
0000
1010
0100
0010
,
1000
0000
0100
0010
0100
0000
0001
0000
0010
0000
0000
0000
1000
0000
0100
0000
,
0010
0200
0001
0000
0310
0001
1000
0100
,
0010
0000
0002
0000
1000
0000
0000
0000
0013
0000
0100
0000
1000
0000
0100
0010
,
0001
2000
0100
0000
0001
0000
0100
0000
,
3010
0000
0100
0010
0001
0010
0000
0100
,
1000
0100
0012
0000
0103
0000
0100
0010
,
0100
0000
1000
0010
0001
0000
1000
0000
0100
0000
0001
0000
0100
0000
1000
0000
,
0001
0010
0120
0000
1030
0000
0100
0010
,
0001
0000
1000
0010
0100
0000
1000
0000
0100
0000
0010
0000
0001
0000
0010
0000
,
0100
0000
1000
0100
0010
0001
0010
0001
,
0010
0000
0100
1000
0100
0001
0100
1000
,
0100
1000
0200
0000
0010
0000
0001
0000
,
1300
0220
0000
0331
,
0202
0000
0313
0022
,
0000
1033
2020
0000
,
3031
0100
2002
0000
0000
0000
3103
0000
,
2020
0000
3130
0202
,
0000
1303
2020
0000
,
3031
0100
0001
0000
0010
1000
0010
0000
,
1000
0010
0001
0010
1000
0100
0001
0100
,
1000
0100
2200
0000
0000
0000
3310
0000
,
0202
0000
1303
2020
,
0000
3031
2002
0000
,
3103
0000
1000
0100
0001
0010
0100
0001
,
0010
1000
0100
1000
0100
0010
0001
0100
,
0010
0000
1000
0100
0010
0000
0001
0000
0100
0000
0001
0000
1000
0000
0100
0000
,
0010
0001
0100
1000
0100
0010
0100
1000
,
0100
0000
0010
1000
0001
0100
0010
1000
,
0100
0010
0001
0010
0100
0001
0100
1000
,
0100
0000
0010
0001
0010
0000
0100
0000
0010
0000
0001
0000
0100
0000
1000
0000
,
0100
0010
0001
0010
1000
0100
0001
0100
,
0010
0001
0010
1000
0200
0000
0310
0000
,
0001
0100
1000
0000
0020
0000
1030
0000
,
1000
0000
0010
0000
0001
0000
0010
0100
0010
0000
0000
0000
1000
0000
0100
0000
,
0010
0000
0000
0000
0001
0000
0010
0000
0001
0000
0010
0000
0100
0000
1000
0010
,
1000
0000
0001
0100
1000
0000
0010
1000
,
0010
0000
0001
0000
0010
0000
0100
0010
0100
0000
0000
0000
0001
0000
0010
0100
,
1000
0000
0000
0000
1000
0000
0100
0000
0001
0000
0010
0000
0100
0000
1000
0010
,
1000
0000
0100
0000
0001
0000
0001
0100
0001
0000
0010
0000
0200
0000
0000
0000
,
0000
1000
0000
1000
,
0000
0010
0000
0001
,
0000
0000
1000
0000
0010
0001
0310
0100
,
1000
0000
0100
0000
0010
0000
0001
0100
0001
0000
0010
0000
0100
0000
1000
0100
,
1000
0010
0100
1000
0010
0000
0001
0010
,
1000
0000
0100
0010
0100
0000
0010
0000
0001
0000
0010
0100
1000
0000
0100
0000
,
0010
0001
0010
0100
1000
0000
0100
0010
,
0001
0000
0010
0000
1000
0000
0100
0000
0010
0000
0100
0000
1000
0010
0100
0000
,
0001
0000
0010
0000
0100
0000
1000
0000
0010
0000
0100
0000
0001
0010
0100
0000
,
0010
0001
0010
0100
1000
0100
1000
0100
,
0001
0000
0010
0000
0100
0010
1000
0100
1000
0100
0010
0000
0000
0000
0000
0000
,
2002
0MM0
00M0
0M00
0000
00M0
0000
0000
0M00
0000
0000
0000
0000
0000
00M0
0000
,
0000
0000
0M00
0000
0000
0000
0000
00M0
0000
0000
0000
0000
0M00
0000
0000
0000
,
0000
00M0
0000
0M00
0000
0M00
00M0
0000
0000
0M00
00M0
0000
0M00
00M0
0000
0M00
,
00M0
0000
0M00
0000
00M0
0M00
00M0
0M00
0000
00M0
0M00
00M0
0M00
00M0
0M00
00M0
,
0M00
00M0
0M00
00M0
0M00
00M0
0M00
00M0
0000
0M00
00M0
0000
0M00
00M0
0000
0M00
,
0000
0000
00M0
0000
0000
0M00
0000
0000
0000
0000
00M0
0000
0000
0000
3M03
M00M
,
M00M
M00M
M00M
0000
0000
0000
0000
0000
0000
0000
0000
0000
0000
0000
0000
0000
;
