#TITLE:Go Beyond!!;
#SUBTITLE:;
#ARTIST:Ryu* v.s. Sota;
#TITLETRANSLIT:;
#SUBTITLETRANSLIT:;
#ARTISTTRANSLIT:;
#CREDIT:Darkmage;
#BANNER:gobeyond-bn.png;
#BACKGROUND:gobeyond-bg.png;
#LYRICSPATH:;
#CDTITLE:!darkmagetitle2.png;
#MUSIC:gobeyond.ogg;
#OFFSET:-0.037;
#SAMPLESTART:63.900;
#SAMPLELENGTH:10.900;
#SELECTABLE:YES;
#BPMS:0.000=200.000;
#STOPS:;
#BGCHANGES:0.000=gobeyond-bg.png=1.000=0=0=1,
99999=-nosongbg-=1.000=0=0=0 // don't automatically add -songbackground-
;
// cache tags:
#FIRSTBEAT:5.000;
#LASTBEAT:382.000;
#SONGFILENAME:Songs/Archmage and Dark0wl Hammer of Thor UltraHyperMegaPack/Go Beyond!!/Go Beyond!!.sm;
#HASMUSIC:1;
#HASBANNER:1;
#MUSICLENGTH:119.808;
// end cache tags

//---------------dance-single - Darkmage----------------
#NOTES:
     dance-single:
     Darkmage:
     Challenge:
     14:
     0.804,1.000,0.901,0.184,0.593,543.000,108.000,22.000,0.000,1.000:
0000
0000
0000
0000
,
0000
0000
1001
0001
0101
0100
0110
0010
,
1010
0000
1000
0000
1001
0000
0100
0010
1000
0000
0100
0000
1001
0000
0000
0000
,
0010
0010
1001
1000
1100
0100
0110
0010
,
0011
0000
0001
0000
0101
0000
0000
0110
0000
0000
1010
0000
1001
0000
0000
0000
,
0000
0000
1010
0010
0110
0100
0101
0001
,
0011
0000
0010
0000
0110
0000
0000
1100
0000
0000
0011
0000
0101
0000
0000
0000
,
0000
0000
1001
0000
0000
0000
0110
0110
,
0110
0000
0000
0000
1000
0000
0000
0001
0000
0000
0100
0000
0010
0000
1000
0000
,
0001
0100
0010
1000
1001
0000
0000
0000
1001
0000
0000
0000
0101
0000
0100
0000
,
0010
1000
1010
0100
1000
0010
0000
0100
,
0001
0010
0110
0000
0110
0000
0110
0100
,
1000
0010
0101
0101
0000
0110
0000
1100
,
0000
0110
1001
0000
1001
0000
0110
0010
,
1000
0001
1100
0100
0000
1000
0000
0010
,
0000
0100
0101
0000
0100
0000
1010
0100
,
0001
0100
0010
0000
1000
0001
0010
0100
,
0010
0001
1001
0000
0110
0000
1001
1000
,
0010
0100
0110
0010
0000
1000
0000
0001
,
0000
1000
1100
0100
1000
0010
0100
0001
,
0010
0001
0100
0010
1000
0010
0000
0001
,
0000
0000
0100
0010
1001
0000
0000
0000
1001
0000
0000
0000
1100
0000
1100
0000
,
0000
0011
0011
0011
0000
0101
0000
1010
,
0010
0100
0010
1000
0001
0000
0001
0000
1000
0100
1000
0100
0001
0000
0001
0000
,
0200
1300
0000
0000
,
0000
1001
0000
0100
,
0000
0010
0000
1000
,
0000
0001
0000
0000
,
0000
0000
0000
1000
,
0000
0001
0000
0100
,
0000
0010
0000
1000
,
0000
0001
0000
0000
,
0000
0000
0000
1000
,
0000
1100
0000
0110
,
0000
0011
0000
0101
,
0000
0110
0000
0000
,
0000
0000
0000
0110
,
0000
1100
0000
0101
,
0000
1010
0000
0011
,
0000
0110
0000
0000
,
0000
0000
0000
1100
,
0000
1101
0000
0000
,
0000
0000
0000
1100
,
0000
0101
0000
0000
,
0000
0000
0000
1100
,
0000
0101
0000
1100
,
0000
0011
0000
1010
,
0000
1001
0000
0000
,
0000
0000
0000
0000
,
0000
0000
0000
0000
,
0000
1010
0000
0000
,
0000
0000
0000
0000
,
0000
1001
0001
1000
,
0001
0000
0000
0000
1000
0100
1000
0100
0010
0001
1000
0010
0100
0001
0010
0100
,
0010
0001
1000
0010
1000
0100
1000
0100
0010
0001
1000
0010
0100
0010
1000
0001
,
0010
0100
0010
0001
1000
0010
1000
0010
0100
0001
0100
0010
1000
0001
0010
0001
,
0100
0010
0100
0001
1000
0010
1000
0010
0100
0001
0010
0100
1000
0100
0010
0001
,
1000
0010
0100
0010
1000
0100
1000
0100
0010
0001
1000
0010
0100
0001
0010
0001
,
0100
0010
1000
0001
1000
0100
1000
0100
0010
0100
1000
0010
0100
0001
0010
0100
,
0010
0100
1000
0001
1000
0010
1000
0010
0100
0001
0010
0100
1000
0001
0100
0010
,
0100
0001
0010
0100
1000
0100
0010
0001
1000
0100
0010
0001
1000
0100
0010
0001
,
1000
0100
0010
0001
1000
0100
1000
0100
0010
0001
1000
0010
0100
0001
0010
0100
,
0010
0001
1000
0100
1000
0010
1000
0010
0100
0001
0010
0100
0010
0001
1000
0010
,
0100
0001
0100
0010
1000
0100
1000
0100
0010
0100
1000
0001
0010
0100
0010
0100
,
1000
0001
0100
0010
1000
0010
1000
0010
0100
0001
0010
0100
0010
0001
1000
0010
,
0100
0010
1000
0001
1000
0001
0100
0001
0010
0100
0010
0001
1000
0010
0100
0010
,
1000
0001
0010
0100
0010
0001
0010
0001
1000
0010
0100
0010
1000
0001
0010
0100
,
1000
0100
0010
0001
1000
0001
0100
0001
0010
0100
0010
0001
1000
0010
0100
0010
,
1000
0001
0010
0100
1000
0100
0010
0001
1000
0100
0010
0001
1000
0100
0010
0001
,
1000
0100
0010
0001
2001
0000
0000
0000
0100
0000
0000
0000
3200
0000
0000
0000
,
0010
0320
0001
0032
,
1000
1000
2003
0000
0010
0000
0100
0000
,
0010
0100
0010
0100
,
0010
0010
3020
0000
1000
0000
2030
0000
,
0100
3200
0010
0320
,
0001
0032
0100
0010
,
0100
0013
0100
1000
,
0001
0000
1100
0010
0001
1000
0011
1000
,
0001
0010
0101
0010
0001
0100
1010
0100
,
0110
0101
1001
0001
0101
0100
1001
1000
,
0101
0100
1001
1000
1010
0010
1001
0001
,
0101
0110
1001
0000
1001
0000
0110
1001
,
0000
1001
1010
0101
0000
0011
0000
1100
,
0000
0000
1000
0001
0100
0000
0100
0000
0001
0010
0001
0010
0100
0000
0100
0000
,
2000
3001
0010
0100
,
1000
2002
0000
0000
,
0000
0000
3003
0020
,
0000
0230
0000
0000
,
0000
0000
0300
0020
,
0000
2030
0000
3002
,
0000
0023
0000
0230
,
0000
2300
0000
0000
,
0000
0000
0000
0000
,
0000
0000
0000
0000
,
0000
0000
0000
0000
,
0000
0000
3000
0000
;
