#TITLE:V(for EXTREME);
#SUBTITLE:KEYBOARD;
#ARTIST:TAKA;
#TITLETRANSLIT:;
#SUBTITLETRANSLIT:;
#ARTISTTRANSLIT:;
#CREDIT:;
#BANNER:V(for EXTREME).png;
#BACKGROUND:V(for EXTREME)-bg.png;
#LYRICSPATH:;
#CDTITLE:./CDTITLES/BEATMANIA IIDX.PNG;
#MUSIC:V(for EXTREME).mp3;
#OFFSET:-0.335;
#SAMPLESTART:81.880;
#SAMPLELENGTH:11.960;
#SELECTABLE:YES;
#DISPLAYBPM:150.000;
#BPMS:0.000=150.000;
#STOPS:;
#BGCHANGES:;
// cache tags:
#FIRSTBEAT:0.000;
#LASTBEAT:257.000;
#SONGFILENAME:Songs/mongol/extreme/V(for EXTREME).sm;
#HASMUSIC:1;
#HASBANNER:1;
#MUSICLENGTH:107.554;
// end cache tags

//---------------dance-single - ----------------
#NOTES:
     dance-single:
     :
     Hard:
     11:
     1.000,1.000,1.000,0.251,1.000,850.000,132.000,27.000,0.000,60.000:
1000
0100
0010
0001
0100
0010
1000
0100
0010
0001
1000
0001
0010
0100
1000
0100
,
0010
0000
0001
0010
0001
0000
2000
0000
3101
0000
0010
0100
0010
0000
0002
0000
,
1103
0000
0001
1000
0001
0000
0020
0000
1031
0000
0010
1000
0100
0000
0020
0000
,
1130
0000
0010
1000
0100
0010
0000
0001
0010
0100
0000
1000
0010
0100
0000
0001
,
0100
0010
0000
1000
0001
0100
0000
0001
1000
0100
0000
0010
0001
0010
0100
1000
,
0100
0010
0000
0001
1000
0100
0000
0010
0100
0010
0000
1000
0100
1000
0000
0001
,
0010
0001
0000
1000
0010
1000
0000
0001
0100
0001
0000
0010
0100
1000
0100
0010
,
0001
0010
0000
0100
1000
0010
0000
0100
0001
0010
0000
0001
0100
1000
0000
0001
,
0010
1000
0000
0100
0010
0001
0000
1000
0100
0010
0000
0001
0010
0100
0000
1000
,
0100
0010
0001
0010
0100
1000
0100
0010
0100
0010
1000
0100
0001
0100
1000
0010
,
0001
0010
0100
0010
0100
1000
0100
0010
0001
0010
0100
0010
0001
0010
1000
0010
,
0001
0100
1000
0100
0010
0100
1000
0010
0001
0010
0100
0010
0001
1000
0100
0001
,
1000
0010
0001
0010
0100
0010
0100
1000
0100
0010
0001
0010
0100
0010
0001
1000
,
0110
0000
1000
0100
0010
0001
0010
0100
1000
0000
1001
0010
0100
0001
0010
0100
,
1001
0000
0010
0100
0010
1000
0001
0010
0110
0000
1000
0010
0100
0001
0010
0100
,
1000
0100
0010
0000
0101
0000
1010
0000
0001
0010
0100
0000
1001
0000
0010
0001
,
1000
0100
0010
0100
1000
0001
0010
0100
0010
0001
1000
0100
0010
0001
1001
0000
,
2001
3010
0201
0310
1200
0310
0021
0130
,
2001
3010
0201
0310
1200
0310
0012
1003
,
1010
0101
0110
1100
0101
0011
0110
1001
,
1010
0110
1100
0101
1010
0101
1001
0110
,
1100
0101
0011
0110
1100
0110
0011
0110
,
1000
0001
0010
1000
0001
0010
0100
1000
0100
0010
0001
0010
1000
0010
0100
0001
,
1000
0000
0000
1000
0001
0010
0100
1000
0100
1000
0001
0010
0001
0100
0010
0001
,
1000
0000
0000
0001
0010
0100
0010
1000
0100
0010
1000
0001
0010
0100
1000
0100
,
0010
0000
0000
1000
0010
0100
0010
1000
0100
0010
0001
0010
0100
0010
0001
1000
,
0100
0000
0000
0010
0001
1000
0100
0001
1000
0100
0010
0001
0100
0010
1000
0100
,
0010
0001
0100
0010
1000
0100
0010
0001
0100
0010
0001
0010
0100
1000
0010
0100
,
0001
0000
1000
0000
0000
0000
0010
0000
0001
0000
0000
0000
1000
0000
0100
0000
0000
0000
0001
0000
0100
0000
0000
0000
0010
0000
0001
0000
0000
0000
0100
0000
0000
0000
0000
0000
0001
0000
0000
1000
0000
0000
0100
0000
0000
0010
0000
0000
,
0001
1100
0011
0110
1010
0101
1001
1010
,
0001
0000
0100
0000
0000
0000
1000
0000
0010
0000
0000
0000
0100
0000
0010
0000
0000
0000
0001
0000
1000
0000
0000
0000
0100
0000
0010
0000
0000
0000
0001
0000
0000
0000
0000
0000
0010
0000
0000
0100
0000
0000
1000
0000
0000
0001
0000
0000
,
1010
0101
0110
1100
1001
0101
0110
1010
,
0001
0000
0010
0000
0000
0000
1000
0000
0100
0000
0000
0000
0010
0000
0100
0000
0000
0000
0001
0000
0010
0000
0000
0000
1000
0000
0001
0000
0000
0000
1000
0000
0000
0000
0000
0000
0001
0000
0000
1000
0000
0000
0001
0000
0000
0010
0000
0000
,
0101
0110
1100
1001
0011
0110
0101
1010
,
1000
0001
0000
0001
1000
0000
0100
0010
0000
0010
0100
0000
0001
1000
0000
0001
1000
0000
1000
0001
0000
1000
0001
0000
,
1001
0000
0110
0000
1000
0100
0011
0000
0010
0100
1001
0000
0100
0010
0001
0010
,
0100
1000
0001
0100
0010
0100
0001
1000
0100
1000
0001
0010
0001
1000
0100
0010
,
0001
0010
0100
0010
1000
0001
0010
1000
0010
0100
0010
0001
0010
1000
0100
0010
,
1000
0000
0001
0010
0100
1000
0001
0010
0001
1000
0100
0010
0001
0010
0100
1000
,
0001
0010
0001
0010
0001
0010
0001
1000
0100
1000
0100
1000
0001
0100
0001
0100
,
0010
1000
0001
1000
0100
0001
1000
0001
0100
1000
0001
1000
0100
0001
1000
0001
,
0100
0000
0000
1000
0100
0010
0001
0010
0100
1000
0001
0010
0100
1000
0010
1000
,
0100
0010
0001
1000
0100
0010
0001
0100
0001
0010
0100
1000
0100
1000
0100
0010
,
0001
0010
0001
0010
0100
1000
0010
0100
0001
0010
0100
1000
0100
0010
0001
0100
,
0010
0000
0000
1000
0100
0010
0001
0010
0100
1000
0001
0010
0100
1000
0100
0010
,
0001
1000
0100
1000
0001
0010
0001
1000
0010
1000
0001
0100
0001
1000
0010
0100
,
0001
1000
0001
0100
0010
1000
0001
0100
0010
1000
0001
1000
0010
0100
0001
1000
,
0001
0100
1000
0000
1001
0000
1010
0000
1000
0010
0100
0000
0101
0000
1001
0000
,
0001
0010
0100
0000
0110
0000
0101
0000
0001
0100
0010
0000
1100
0000
0011
0000
,
1000
0100
1010
0000
0001
0010
0101
0000
0001
0010
0001
0100
0010
1000
0100
1000
,
0010
0100
0001
0010
0001
1000
0100
1000
0010
0100
0020
1000
0001
1000
0001
1000
,
0031
0000
1010
0110
0101
0000
0011
0101
0110
0000
1010
1001
0101
0000
0100
0010
,
0100
0000
0010
1000
0100
0010
0001
0010
1000
0001
0100
1000
0100
0010
0001
0010
,
0100
0000
0101
0110
1100
0000
1010
1001
0101
0000
1001
0110
1001
0000
1000
0100
,
0001
0000
1000
0010
0001
0100
0010
1000
0100
0010
0001
0010
0100
0010
1000
0001
,
2000
0000
0101
0011
3210
0000
0011
1301
1020
0000
1100
0101
1031
0000
0001
1000
,
0001
0000
0010
0100
0010
0001
1000
0100
0001
0010
0100
1000
0001
0010
1000
0100
,
0020
0000
1100
1001
0132
0000
1010
0110
2103
0000
0101
0011
3110
0000
0001
0010
,
1000
0100
1001
0000
0001
0010
1001
0000
1010
0100
0101
0000
0011
0010
1010
0000
,
1001
0000
0001
0010
0100
1000
0100
0010
0002
0000
2010
0000
0113
0000
3021
0000
,
1031
0000
0010
0100
1000
0001
0100
0010
2000
0000
0102
0000
3110
0000
1203
0000
,
1300
0100
0010
1000
0100
0010
0001
0010
0100
0001
0010
0100
1000
0001
1000
0001
,
2002
0010
0100
0010
0100
0010
0100
0010
0100
0010
0100
0010
0100
0010
0100
0010
,
0100
0010
0100
0010
0100
0010
0100
0010
0100
0010
0100
0010
0100
0010
0100
0010
,
0100
3003
0000
0000
;
