#TITLE:Wolf & Raven;
#SUBTITLE:;
#ARTIST:Sonata Arctica;
#TITLETRANSLIT:;
#SUBTITLETRANSLIT:;
#ARTISTTRANSLIT:;
#CREDIT:;
#BANNER:;
#BACKGROUND:;
#LYRICSPATH:;
#CDTITLE:;
#MUSIC:Wolf & Raven.ogg;
#OFFSET:-0.250;
#SAMPLESTART:45.600;
#SAMPLELENGTH:12.000;
#SELECTABLE:NO;
#DISPLAYBPM:*;
#BPMS:0.000=339.500,240.000=319.999,256.000=339.499;
#STOPS:;
#BGCHANGES:;
// cache tags:
#FIRSTBEAT:32.000;
#LASTBEAT:664.000;
#SONGFILENAME:Songs/toune 4/Wolf & Raven2/Wolf & Raven.sm;
#HASMUSIC:1;
#HASBANNER:0;
#MUSICLENGTH:122.122;
// end cache tags

//---------------dance-single - ----------------
#NOTES:
     dance-single:
     :
     Easy:
     6:
     0.478,0.680,0.393,0.237,0.000,332.000,48.000,29.000,0.000,0.000:
0000
0000
0000
0000
,
0000
0000
0000
0000
,
0000
0000
0000
0000
,
0000
0000
0000
0000
,
0000
0000
0000
0000
,
0000
0000
0000
0000
,
0000
0000
0000
0000
,
0000
0000
0000
0000
,
0001
0000
0010
0000
,
0001
0000
0100
0000
,
0010
0000
1000
0000
,
0010
0000
0100
0000
,
1000
0000
0001
0000
,
0010
0000
0001
0000
,
0100
0000
0010
0000
,
1000
0000
0001
0000
,
0100
0000
1000
0000
,
0100
0000
0001
0000
,
0010
0000
1000
0000
,
0010
0000
0001
0000
,
1000
0000
0001
0000
,
0100
0000
0001
0000
,
1000
0000
0100
0000
,
1000
0000
0010
0000
,
0001
0000
0010
0000
,
0100
0000
1000
0000
,
0001
0000
0010
0000
,
0100
0000
1000
0000
,
0010
0000
0100
0000
,
1000
0000
0001
0000
,
0100
0000
0010
0000
,
0002
0000
0100
0000
,
1003
0000
0010
0000
,
0100
0000
0001
0000
,
1000
0000
0001
0000
,
2002
0000
0000
3003
,
0010
0000
0100
0000
,
1000
0000
0001
0000
,
1100
0000
1100
0000
,
0101
0000
1001
0000
,
0010
0000
0100
0000
,
1000
0000
0001
0000
,
0010
0000
1000
0000
,
2020
0000
0000
3030
,
0001
0000
0100
0000
,
0001
0000
1000
0000
,
0001
1000
0100
0000
,
1000
0100
0010
0000
,
0110
0000
0110
0000
,
0001
0000
1000
0000
,
1001
0000
0001
0100
,
0001
0000
1000
0000
,
0100
0000
0010
0000
,
0100
0000
0100
0000
,
1000
0000
0001
0100
,
0001
0000
0010
0000
,
1100
0000
1100
0000
,
0110
0000
1000
0000
,
0001
0000
0100
0010
,
0100
0000
1000
0000
,
0001
0100
0001
0000
,
1000
0100
1000
0000
,
0010
0100
0010
0000
,
0001
0100
0001
0000
,
0101
0000
0010
0000
,
1000
0000
0100
0000
,
0001
0000
0100
0000
,
0202
0000
0000
0303
,
0010
0000
1000
0000
,
0001
0000
0100
0000
,
1001
0000
1001
0000
,
1100
0000
0101
0000
,
0010
0000
1000
0000
,
0001
0000
0100
0000
,
0010
0000
0001
0000
,
0022
0000
0000
0033
,
0100
0000
1000
0000
,
0100
0000
0001
0000
,
1001
0000
0110
0000
,
1001
0000
0110
0000
,
1010
0000
1010
0000
,
0100
0000
0001
0000
,
0101
0000
0100
1000
,
0100
0000
0001
0000
,
1000
0000
0010
0000
,
1000
0000
1000
0000
,
0001
0000
0100
1000
,
0100
0000
0010
0000
,
1001
0000
1001
0000
,
1010
0000
0001
0000
,
0100
0000
1000
0010
,
1000
0000
0001
0000
,
0100
1000
0100
0000
,
0001
1000
0001
0000
,
0010
1000
0010
0000
,
0100
1000
0100
0000
,
0002
0000
0100
0000
,
1000
0000
0100
0000
,
2003
0000
0001
0000
,
0100
0000
0001
0000
,
3020
0000
1000
0000
,
0100
0000
1000
0000
,
0032
0000
0100
0000
,
1000
0000
0100
0000
,
0023
0000
1000
0000
,
0100
0000
1000
0000
,
0230
0000
1000
0000
,
0001
0000
0010
0000
,
0320
0000
0100
0000
,
0001
0000
0100
0000
,
2030
0000
0001
0000
,
0100
0000
0001
3000
,
1001
0000
0010
0000
,
0100
0000
0010
0000
,
1000
0000
1000
0000
,
0100
0000
0100
0000
,
0101
0000
0010
0000
,
1000
0000
0100
0000
,
0001
0000
0100
0000
,
0202
0000
0000
0303
,
0010
0000
1000
0000
,
0001
0000
0100
0000
,
1001
0000
1001
0000
,
1100
0000
0101
0000
,
0010
0000
1000
0000
,
0001
0000
0100
0000
,
0010
0000
0001
0000
,
0022
0000
0000
0033
,
0100
0000
1000
0000
,
0100
0000
0001
0000
,
1001
0000
0110
0000
,
1001
0000
0110
0000
,
1010
0000
1010
0000
,
0100
0000
0001
0000
,
0101
0000
0100
1000
,
0100
0000
0001
0000
,
1000
0000
0010
0000
,
1000
0000
1000
0000
,
0001
0000
0100
1000
,
0100
0000
0010
0000
,
1001
0000
1001
0000
,
1010
0000
0001
0000
,
0100
0000
1000
0010
,
1000
0000
0001
0000
,
0100
1000
0100
0000
,
0001
1000
0001
0000
,
0010
1000
0010
0000
,
0100
1000
0100
0000
,
0002
0000
0100
0000
,
1000
0000
0100
0000
,
2003
0000
0001
0000
,
0100
0000
0001
0000
,
3020
0000
1000
0000
,
0100
0000
1000
0000
,
0032
0000
0100
0000
,
1000
0000
0100
0000
,
0023
0000
1000
0000
,
0100
0000
1000
0000
,
0230
0000
1000
0000
,
0001
0000
0010
0000
,
0320
0000
0100
0000
,
0001
0000
0100
0000
,
2030
0000
0001
0000
,
0100
0000
0001
3000
,
0010
0000
0000
0000
,
0100
0000
0000
0000
,
1001
0000
0000
0000
;

//---------------dance-single - Copied from----------------
#NOTES:
     dance-single:
     Copied from:
     Medium:
     8:
     0.579,0.680,0.319,0.041,0.000,451.000,39.000,5.000,0.000,0.000:
0000
0000
0000
0000
,
0000
0000
0000
0000
,
0000
0000
0000
0000
,
0000
0000
0000
0000
,
0000
0000
0000
0000
,
0000
0000
0000
0000
,
0000
0000
0000
0000
,
0000
0000
0000
0000
,
0001
0100
0010
0000
,
0010
0100
1000
0000
,
1000
0100
0010
0000
,
0100
0010
0001
0000
,
0001
0010
1000
0000
,
1000
0010
0001
0000
,
0100
0010
1000
0000
,
0100
0010
0001
0100
,
0001
0100
0010
0000
,
0001
1000
0010
0100
,
1000
0100
1000
0000
,
0001
0100
0010
0001
,
1000
0010
0100
0000
,
0001
1000
0010
0100
,
1000
0100
1000
0000
,
0001
0010
0001
0100
,
0010
1000
0100
0000
,
1000
0001
0010
0100
,
0010
1000
0010
0000
,
0001
0100
1000
0100
,
0010
0001
0100
0000
,
0100
0010
1000
0000
,
0100
0010
0001
0100
,
0020
0000
0000
0000
,
1030
0000
0001
0000
,
0100
0001
0100
0000
,
1000
0010
0100
0000
,
0110
0000
1000
0000
,
0001
0100
0001
0000
,
1000
0100
1000
0000
,
0110
0000
1001
0000
,
1100
0000
0101
0000
,
0010
1000
0010
0000
,
0100
0001
0100
0000
,
0010
1000
0100
0010
,
0100
0000
0001
0000
,
0100
0010
0100
0000
,
1000
0100
1000
0000
,
0001
0100
0101
0000
,
1000
0100
1100
0000
,
1010
0000
0100
0001
,
0100
0000
1000
0000
,
0001
0000
0100
0010
,
1000
0000
0100
0000
,
0010
0000
0001
0010
,
1000
0000
0010
0001
,
0100
0000
1000
0100
,
0001
0000
1000
0000
,
1100
0000
0001
0000
,
1000
0000
0001
0000
,
0110
0000
0001
1000
,
0001
0000
0001
0100
,
1000
0000
0000
1000
0000
0000
1000
0000
,
0010
0000
0000
0010
0000
0000
0010
0000
,
0100
0000
0000
0001
0000
0000
1000
0000
,
0001
0000
0110
0000
,
0110
0000
0010
0000
,
0001
0010
0001
0000
,
0100
1000
0001
0000
,
1001
0000
0100
0000
,
0010
0001
0010
0000
,
0100
0001
0100
0000
,
1001
0000
0110
0000
,
0101
0000
0011
0000
,
1000
0100
1000
0000
,
0001
0010
0001
0000
,
1000
0100
0001
1000
,
0001
0000
0010
0000
,
0001
1000
0001
0000
,
0100
0001
0100
0000
,
0002
0000
0203
0000
,
0320
0000
2030
0000
,
3000
0010
0001
0010
,
0001
0000
0100
0000
,
0010
0000
0001
1000
,
0100
0000
0001
0000
,
1000
0000
0010
1000
,
0100
0000
1000
0010
,
0001
0000
0100
0001
,
0010
0000
0100
0000
,
0101
0000
0010
0000
,
0100
0000
0010
0000
,
1001
0000
0010
0100
,
0010
0000
0010
0001
,
0100
0000
0000
0100
0000
0000
0100
0000
,
1000
0000
0000
1000
0000
0000
1000
0000
,
0001
0000
0000
0010
0000
0000
0100
0000
,
0010
0000
1001
0000
,
0110
0000
0001
1000
,
0100
0000
0010
0001
,
1000
0000
0100
0000
,
0010
0001
1000
0001
,
1000
0000
0010
0100
,
0001
0000
0010
1000
,
0100
0000
1000
0000
,
0001
0100
0001
0100
,
1000
0000
0001
0100
,
0010
0000
0100
1000
,
0010
0000
1000
0001
,
0100
0001
0100
1000
,
0010
0000
0010
0100
,
1000
0000
0010
0001
,
1000
0000
0010
0100
,
0001
0010
0001
0010
,
0100
0000
1000
0001
,
0100
0001
0100
0001
,
1000
0000
0000
1000
0000
0000
0001
0000
,
0000
0001
0000
0000
0100
0000
0001
0000
,
1001
0000
1000
0000
,
0010
1000
0010
0000
,
0001
0100
0010
0000
,
0110
0000
0001
0000
,
1000
0010
1000
0000
,
0001
0010
0001
0000
,
0110
0000
1001
0000
,
0011
0000
1010
0000
,
0100
0001
0100
0000
,
0010
1000
0010
0000
,
0100
0001
0010
0100
,
0010
0000
1000
0000
,
0001
0000
0000
0001
0000
0000
0001
0000
,
1000
0000
0000
1000
0000
0000
0010
0000
,
0110
0000
0110
0000
,
1001
0000
0110
0000
,
1001
1000
0010
1000
,
0010
0000
0001
0000
,
1000
0000
0010
0100
,
0001
0000
0010
0000
,
0100
0000
1000
0100
,
0001
0000
0100
1000
,
0010
0000
0001
0010
,
1000
0000
0001
0000
,
0011
0000
1000
0000
,
0001
0000
1000
0000
,
0110
0000
1000
0001
,
1000
0000
1000
0010
,
0001
0000
0000
0001
0000
0000
0001
0000
,
0100
0000
0000
0100
0000
0000
0100
0000
,
0010
0000
0000
1000
0000
0000
0001
0000
,
1000
0000
0110
0000
,
1001
0000
0010
0100
,
0001
0000
1000
0010
,
0100
0000
0001
0000
,
1000
0010
0100
0010
,
0100
0000
1000
0001
,
0010
0000
1000
0100
,
0001
0000
0100
0000
,
0010
0001
0010
0001
,
0100
0000
0010
0001
,
1000
0000
0001
0100
,
1000
0000
0100
0010
,
0001
0010
0001
0100
,
1000
0000
1000
0001
,
0100
0000
1000
0010
,
0100
0000
1000
0001
,
0010
1000
0010
1000
,
0001
0100
0101
0000
,
0000
1001
0000
0000
,
0110
0000
0000
0000
;

//---------------dance-single - Copied from----------------
#NOTES:
     dance-single:
     Copied from:
     Hard:
     11:
     1.000,1.000,0.328,1.000,0.000,753.000,40.000,128.000,0.000,0.000:
0000
0000
0000
0000
,
0000
0000
0000
0000
,
0000
0000
0000
0000
,
0000
0000
0000
0000
,
0000
0000
0000
0000
,
0000
0000
0000
0000
,
0000
0000
0000
0000
,
0000
0000
0000
0000
,
0001
0100
0001
0000
1000
0100
1000
0000
,
1000
0010
1000
0010
0100
0010
0100
1000
,
0001
0100
0001
0000
0010
1000
0010
0000
,
0100
1000
0100
1000
0001
0100
0001
0100
,
1000
0010
1000
0000
0100
1000
0100
0000
,
0010
0100
0010
0100
1000
0100
1000
0010
,
0001
1000
0001
0000
0100
0010
0100
0000
,
0100
1000
0100
1000
0010
1000
0010
0100
,
0001
0010
0001
0000
1000
0100
1000
0000
,
0010
0100
0010
0100
0001
0010
0001
1000
,
0100
0010
0100
0000
0010
0100
0010
0000
,
1000
0010
1000
0010
0100
0010
0100
1000
,
0001
0010
0001
0000
0100
0010
0100
0000
,
0100
1000
0100
1000
0010
1000
0010
0100
,
0001
0010
0001
0000
1000
0100
1000
0000
,
0010
0100
0010
0100
0001
0010
0001
1000
,
0100
0010
0100
0000
0010
0100
0010
0000
,
1000
0010
1000
0010
0100
0010
0100
1000
,
0001
0010
0001
0000
0010
1000
0010
0000
,
0010
0100
0010
0100
1000
0100
1000
0010
,
0001
1000
0001
0000
0100
0010
0100
0000
,
1000
0010
1000
0010
0001
1000
0001
0100
,
0010
1000
0010
0100
1000
0010
1000
0010
,
0200
0020
0000
0000
0000
0000
0000
0330
,
1001
0000
0001
0000
1000
0001
1000
0000
,
0010
0000
0100
0000
0100
1000
0100
0000
,
0001
0000
0100
0000
0001
0100
0001
0000
,
0002
0000
1000
0000
0013
1000
0010
0000
,
0100
0000
1000
0000
1000
0100
1000
0000
,
0010
0000
0100
0000
0010
0100
0010
0000
,
0202
0000
0000
0303
2002
0000
0000
3003
,
0220
0000
0000
0330
2002
0000
0000
3003
,
0110
0000
1000
0000
0100
1000
0100
0000
,
0001
0000
0100
0000
0001
0100
0001
0000
,
0010
0000
0100
0000
0010
0100
0010
0000
,
0200
0000
0001
0000
1300
0001
1000
0000
,
0100
0000
1000
0000
0100
1000
0100
0000
,
0010
0000
0100
0000
0001
0100
0001
0000
,
2000
3002
0203
0000
,
1300
0000
0100
0001
0100
0001
0100
0001
,
2000
0001
3200
0001
,
2300
0001
3200
0001
,
0320
0000
0000
0130
,
0002
0000
0000
0000
,
2003
0000
0001
0000
0200
0000
0000
3000
,
0320
0000
0000
0230
0000
0000
2300
0000
,
3020
0000
0000
0032
,
0023
0000
0000
0000
,
0031
1000
0001
1000
0001
1000
0001
0000
,
0100
0001
0100
0001
0100
0001
0100
0000
,
1000
0000
0000
0100
0000
0000
1000
0000
,
0200
0000
0000
1300
,
0001
0000
0100
0001
0000
0001
0100
0000
,
1000
0000
0010
0100
0000
0100
0010
0000
,
1000
0000
0001
0100
0000
0100
0001
0000
,
2002
0000
0000
0000
0000
0000
0000
3003
,
0110
0000
0001
0000
0100
0001
0100
0000
,
1000
0000
0010
0000
0010
0100
0010
0000
,
1000
0000
0010
0000
0001
0010
0001
0000
,
0020
0000
0100
0000
1030
0100
1000
0000
,
0010
0000
0100
0000
0100
0010
0100
0000
,
1000
0000
0010
0000
1000
0100
1000
0000
,
0022
0000
0000
0033
0202
0000
0000
0303
,
2020
0000
0000
3030
2002
0000
0000
3003
,
0110
0000
0100
0000
0010
0100
0010
0000
,
0001
0000
0010
0000
0001
0010
0001
0000
,
1000
0000
0010
0000
1000
0010
1000
0000
,
0020
0000
0001
0000
0130
0001
0100
0000
,
0010
0000
0100
0000
0010
0100
0010
0000
,
1000
0000
0010
0000
0001
0010
0001
0000
,
2002
0000
0000
3003
0220
0000
0000
0330
,
2002
0000
3003
0000
0220
0000
0000
0330
,
0002
1000
0023
1000
,
0230
1000
0320
1000
,
0230
0000
0000
0310
,
0020
0000
0000
0000
,
0230
0000
2300
0000
,
3020
0000
0000
0230
0000
0000
0320
0000
,
2030
0000
0000
3100
,
0200
0000
0000
0000
,
1300
0100
1000
0100
1000
0100
1000
0000
,
0010
0001
0010
0001
0010
0001
0010
0000
,
0200
0000
0000
2300
0000
0000
3200
0000
,
0320
0000
0000
0130
,
0001
0000
0010
0001
0000
0001
0010
0000
,
0100
0000
1000
0010
0000
0010
1000
0000
,
0100
0000
0001
0010
0000
0010
0001
0000
,
0100
0000
1000
0010
0000
0010
1000
0000
,
0200
0000
1300
0100
1000
0100
1000
0000
,
0002
0000
0013
0100
0010
0100
0010
0000
,
0002
0000
0103
0001
0100
0001
0100
0000
,
0110
0000
0000
1001
0000
0000
0110
0000
,
0020
0000
0130
0010
0100
0010
0100
0000
,
0002
0000
1003
0010
1000
0010
1000
0000
,
0200
0000
0310
1000
0010
1000
0010
0000
,
0101
0000
0000
1100
0000
0000
0101
0000
,
0020
0000
0130
0010
0100
0010
0100
0000
,
0002
0000
1003
0010
1000
0010
1000
0000
,
2000
0000
3010
0001
0010
0001
0010
0000
,
1010
0000
0000
1001
0000
0000
0110
0000
,
0200
0000
0310
1000
0010
1000
0010
0000
,
0002
0000
0103
1000
0100
1000
0100
0000
,
0020
0000
1030
0100
1000
0100
1000
0000
,
0010
0000
0001
0100
0001
0100
0001
0000
,
1000
0100
0001
0100
,
1000
0100
0001
0100
,
1001
0000
0001
1000
0000
1000
0001
0000
,
0001
0000
1000
0000
0001
1000
0001
1000
,
0010
0000
0001
0000
0100
0001
0100
0000
,
1000
0000
0010
0000
0010
0100
0010
0000
,
0001
0000
0010
0000
0001
0010
0001
0000
,
0020
0000
0100
0000
1030
0100
1000
0000
,
0010
0000
0100
0000
0100
0010
0100
0000
,
1000
0000
0010
0000
1000
0010
1000
0000
,
0022
0000
0000
0033
0202
0000
0000
0303
,
2020
0000
0000
3030
0202
0000
0000
0303
,
1010
0000
0100
0000
0010
0100
0010
0000
,
0001
0000
0010
0000
0001
0010
0001
0000
,
1000
0000
0010
0000
1000
0010
1000
0000
,
0020
0000
0001
0000
0130
0001
0100
0000
,
0110
0000
1000
0010
0000
1000
0010
0000
,
0100
0000
0001
0100
0000
0001
0100
0000
,
2002
0000
0000
3003
0022
0000
0000
0033
,
2002
0000
0000
3003
0220
0000
0000
0330
,
0002
0100
1000
0100
,
0013
0001
1000
0001
,
0020
0000
0000
0031
,
0002
0000
0000
0000
,
0023
0000
0230
0000
,
2300
0000
0000
3020
0000
0000
2030
0000
,
3200
0000
0000
0301
,
0002
0000
0000
0000
,
0103
0010
0100
0010
0100
0010
0100
0000
,
1000
0001
1000
0001
1000
0001
1000
0000
,
0010
0000
0000
1000
0000
0000
0010
0000
,
2000
0000
0000
3001
,
0002
0000
0013
0100
0000
0100
0010
0000
,
2000
0000
3100
1000
0000
1000
0100
0000
,
0002
0000
1003
0100
0000
0100
1000
0000
,
2000
0000
3100
0010
0100
0010
0100
0010
,
2000
0000
3010
1000
0100
1000
0010
0000
,
0002
0000
0103
0010
0100
0001
0010
0000
,
0002
0000
1003
0010
0100
1000
0001
0000
,
0200
0000
0310
1000
0000
1000
0010
0000
,
2000
0000
3100
0001
0100
1000
0001
0000
,
0020
0000
0130
1000
0001
0100
0010
0000
,
0200
0000
1300
0010
1000
0010
0100
0000
,
0002
0000
0103
0010
0000
0010
1000
0000
,
0200
0000
0310
0001
0010
1000
0001
0000
,
2000
0000
3001
0100
0010
0100
0001
0000
,
0020
0000
0031
0010
0001
0010
1000
0000
,
0020
0000
1030
0100
0000
0100
0010
0000
,
0200
0000
1300
0100
0001
0100
0001
0000
,
0002
0000
1003
0010
0100
0001
0010
0000
,
0200
0000
0301
0010
1000
0010
0001
0000
,
2000
0000
3100
0010
0100
1000
0100
0000
,
1000
0100
0101
0001
,
1000
1001
0000
0000
,
0110
0000
0000
0000
;
