#TITLE:2nd Stage;
#SUBTITLE:Hungry Heart Wild Striker Opening1;
#ARTIST:KIDS ALIVE;
#TITLETRANSLIT:;
#SUBTITLETRANSLIT:;
#ARTISTTRANSLIT:;
#CREDIT:genrojo;
#BANNER:Hungry Heart Wild Striker [pening 1] HQ-bn.jpg;
#BACKGROUND:Hungry Heart Wild Striker [pening 1] HQ-bg1.jpg;
#LYRICSPATH:;
#CDTITLE:genrojo-cdtitle.png;
#MUSIC:Hungry Heart Wild Striker [pening 1] HQ.mp3;
#OFFSET:0.160;
#SAMPLESTART:38.331;
#SAMPLELENGTH:12.000;
#SELECTABLE:YES;
#BPMS:0.000=236.160,48.500=118.080,104.000=236.160,222.000=118.080;
#STOPS:164.000=0.300
,164.500=0.240
;
#BGCHANGES:0.000=Hungry Heart Wild Striker [pening 1] HQ-bg1.jpg=1.000=0=0=1,
0.625=Hungry Heart Wild Striker [pening 1] HQ.avi=1.000=0=0=1,
230.000=Hungry Heart Wild Striker [pening 1] HQ-bg2.jpg=1.000=0=0=1,
99999=-nosongbg-=1.000=0=0=0 // don't automatically add -songbackground-
;
// cache tags:
#FIRSTBEAT:4.000;
#LASTBEAT:227.000;
#SONGFILENAME:Songs/toune 1 (2010)/2nd Stage [Hungry Heart Wild Striker Opening 1]/Hungry Heart Wild Striker [pening 1] HQ.sm;
#HASMUSIC:1;
#HASBANNER:1;
#MUSICLENGTH:76.400;
// end cache tags

//---------------dance-single - ----------------
#NOTES:
     dance-single:
     :
     Easy:
     3:
     0.187,0.334,0.000,0.026,0.000,98.000,0.000,2.000,0.000,0.000:
0000
0000
0000
0000
,
0000
0000
0000
0000
,
0000
0000
0000
0000
,
0000
0000
0000
0000
,
0000
0000
0000
0000
,
0000
0000
0000
0000
,
0000
0000
0000
0000
,
0000
0000
0000
0000
,
0000
0000
0000
0000
,
0000
0000
0000
0000
,
0000
0000
0000
0000
,
0000
0000
0000
0000
,
0000
0100
0000
1000
,
0000
0100
0000
0010
,
0000
1000
0000
0001
,
0000
0100
0000
0010
,
0000
1000
0000
0001
,
0000
0100
0000
0010
,
0100
1000
0000
0001
,
0000
0100
1000
0010
,
0000
1000
0000
0001
,
0000
0100
0000
0010
,
0100
1000
0010
0001
,
0100
0010
0001
0100
,
0010
1000
0100
0010
,
1000
0001
0100
0010
,
0100
0000
0010
0000
,
1000
0000
0001
0000
,
0100
0000
0001
0000
,
0010
0000
0100
0000
,
0001
0000
0010
0000
,
0100
0000
0001
0000
,
1000
0000
0100
0000
,
0010
0000
1000
0000
,
0001
0000
0100
0000
,
0010
0000
1000
0000
,
0010
0000
0100
0000
,
0001
0000
0010
0000
,
1000
0000
0010
0000
,
0100
0000
0001
0000
,
0010
0000
0001
0000
,
0020
0030
1000
0000
,
0100
0000
0001
0000
,
0010
0000
0100
0000
,
0001
0000
1000
0000
,
0100
0000
0010
0000
,
0100
0000
0001
0000
,
1000
0000
0010
0000
,
0100
0000
0001
0000
,
1000
0000
0100
0000
,
0010
0000
1000
0000
,
0010
0000
0100
0000
,
0001
0000
0010
0000
,
0001
0000
1000
0000
,
0100
0000
0010
0000
,
1000
0000
0002
0000
,
0000
0000
0000
0003
;

//---------------dance-single - Copied from----------------
#NOTES:
     dance-single:
     Copied from:
     Medium:
     6:
     0.411,0.631,0.000,0.380,0.000,191.000,0.000,29.000,0.000,0.000:
0000
0000
0000
0000
,
0000
0000
0000
0000
0000
0000
0000
0020
,
0000
0000
0000
2030
0000
0000
0000
3200
,
0000
0000
0000
0300
0000
0002
0000
0000
,
0000
0000
0000
0000
0000
0000
0000
0023
,
0000
0000
0000
0000
0000
0000
0000
0230
,
0000
0000
0000
0302
0000
0000
0000
0023
,
0000
0000
0000
0000
0000
0000
0000
0230
,
0000
0000
0000
0000
,
0000
0000
0000
0000
0000
0000
0000
0302
,
0000
0000
0000
0000
,
0000
0000
0000
0000
,
0003
1000
0010
0100
1000
0100
0010
0001
,
0020
0000
0030
0100
1000
0100
0000
0001
,
0020
0000
0030
0100
0010
1000
0100
0010
,
0200
0000
0000
0300
0000
0100
0001
0010
,
0200
0000
0300
0010
0001
0010
0100
0010
,
2000
0000
3000
0010
0002
0000
0003
0010
,
1000
0100
0010
0100
0001
0010
0100
0010
,
1000
0100
0010
0002
0000
0003
0000
0100
,
0010
0100
1000
0010
0001
0000
0200
0000
,
0310
0001
0100
1000
0020
0000
0030
0100
,
0010
0001
0100
1000
0100
0010
0001
0010
,
0100
1000
0100
0010
0001
0010
1000
0100
,
0002
0000
0000
0000
0000
0000
0000
0203
,
0000
0000
0000
0000
0000
0000
0300
0001
,
0010
0100
1000
0100
,
0010
0001
0100
0010
,
1000
0100
0010
0100
,
0002
0000
0003
0010
,
0100
0010
1000
0100
,
0010
0001
0100
0010
,
0001
0100
0010
1000
,
0200
0000
0300
0010
,
1000
0100
0001
0010
,
0001
0100
0010
0100
,
1000
0010
0001
0100
,
0020
0000
0030
1000
,
0100
0001
0100
0010
,
1000
0010
0100
0001
,
2000
0000
0000
0000
,
3100
0010
0001
0000
0100
0000
0010
0000
,
0001
0010
0100
0010
,
1000
0100
0001
0010
,
0100
0010
0002
0000
,
0003
0100
0001
0010
,
1000
0100
0010
0100
,
0001
0100
1000
0100
,
0010
0001
0200
0000
,
0300
0010
0001
0100
,
0001
0010
0100
0001
,
1000
0100
0010
0001
,
0100
0010
2000
0000
,
0000
3010
0001
0100
,
0010
0001
0100
0010
,
0100
0010
0200
0000
,
0000
0000
0000
0300
;

//---------------dance-single - Copied from Copied f----------------
#NOTES:
     dance-single:
     Copied from Copied f:
     Hard:
     8:
     0.658,1.000,0.589,0.746,0.111,250.000,45.000,57.000,0.000,2.000:
0000
0000
0000
0000
,
2200
0000
0000
0000
0000
0000
3300
0022
,
0000
0000
0033
0220
0000
0000
0330
2020
,
0000
0000
0000
0000
3030
0100
0010
0001
,
0000
0200
0300
0020
0030
0200
0300
0022
,
0000
0000
0000
0000
0033
0100
1000
0200
,
0000
0000
0300
0002
0000
0000
0000
0203
,
0300
0020
0030
0002
0003
2000
3000
0022
,
0000
0000
0000
0000
,
0000
0000
0000
0000
0000
0000
0033
0100
,
0010
0001
0010
0100
1000
0100
0010
0001
,
0010
0100
1000
0100
0010
0001
0010
0100
,
0000
0000
0011
0000
0100
0000
1000
0100
0010
0000
0001
0000
1100
0000
0010
0000
,
0022
0000
0000
0000
0033
0000
1000
0100
0020
0000
0000
0000
0030
0000
0100
0010
,
0002
0000
0000
0000
0003
0000
0011
0000
0100
0000
0001
0000
0010
0000
1000
0022
,
0000
0000
0000
0000
0000
0000
0000
0000
0033
0000
1100
0000
0010
0000
1000
0022
,
0000
0000
0000
0000
0033
0000
1000
0010
0100
0000
0001
0000
1000
0000
0100
0000
,
2002
0000
0000
0000
3003
0000
0100
2020
0000
0000
0000
0000
3030
0000
0101
0000
,
0110
1001
1100
0101
1010
0110
0011
1010
,
0101
0110
1100
0202
0000
0303
0000
0011
,
0100
0000
1000
0100
0010
0000
0001
0000
1010
0000
0000
0000
0022
0000
0000
0000
,
0133
0000
0010
0000
1000
0100
0001
0000
2200
0000
0000
0000
3300
0000
0001
0010
,
0100
0000
0010
0001
0000
0000
0100
0010
1000
0000
0001
0010
0000
0000
1000
0100
,
0010
0000
0100
1000
0000
0000
0001
0010
0100
0000
1000
0000
0100
0000
0010
0002
,
0000
0000
0000
0000
0000
0000
0000
2003
,
0100
0010
0001
0010
0100
0010
3100
0011
,
1010
0000
0001
0010
0100
0000
0001
0010
,
0100
0010
1000
0001
,
0100
0000
0001
0000
1000
0000
0010
0202
,
0000
0000
0303
1000
,
0001
0000
0100
0010
0000
0000
0001
0000
,
1000
0100
0001
0100
,
0010
0000
1000
0000
0100
0000
0001
0220
,
0000
0000
0330
0001
,
0100
0000
0010
0001
0100
0000
0001
0010
,
0100
1000
0100
0010
,
0001
0000
0100
0010
1000
0000
0010
2200
,
0000
0000
0000
0000
3300
0000
0001
0010
,
1000
0000
0100
0010
0000
0000
0100
0000
,
0010
0000
0001
0000
0010
0000
0100
2002
,
0000
0000
0000
0000
,
3113
1100
0011
0000
1000
0000
0001
0010
,
1000
0000
0100
0010
0001
0000
0100
0000
,
0010
0001
0100
1000
,
0010
0000
0001
0220
0000
0000
0000
0000
,
0330
0000
1000
0000
0010
0000
0100
0010
,
0001
1000
0001
0010
,
0100
0000
0010
0000
0001
1000
0010
0000
,
0100
0000
0010
0001
0220
0000
0000
0000
,
0330
0000
0001
0010
0100
0000
0010
0100
,
1000
0000
0100
0010
0001
0000
1000
0000
,
0010
0000
0001
0010
0100
0000
1000
0000
,
0010
0000
0001
0220
0000
0000
0000
0000
,
0330
0000
0001
0010
0100
0000
0100
0010
,
0000
1000
0010
0001
,
0010
0000
1000
0220
0000
0000
0000
0000
,
0000
0000
0000
0330
;

//---------------dance-single - Copied from Copied f----------------
#NOTES:
     dance-single:
     Copied from Copied f:
     Challenge:
     12:
     1.000,1.000,1.000,0.052,0.314,460.000,110.000,4.000,0.000,5.000:
0000
0000
0000
0000
,
0011
0100
0010
0001
0010
0100
1000
0001
,
0010
1100
0001
0010
0001
1100
0010
0100
,
0010
0101
0010
1000
0100
0011
1100
0011
,
1000
0011
0100
1010
0001
0110
1000
0110
,
0001
0010
0100
1000
0100
0010
1000
0011
,
0100
0010
1000
0110
0001
0010
1000
0011
,
0100
1010
0001
0110
1000
0110
0001
1100
,
0010
0001
0100
0010
0100
1000
0100
0010
,
0001
0000
0000
0010
0000
0000
0100
0000
0000
0010
0000
0000
0100
0000
0000
1000
0000
0000
0100
0000
0000
0000
0010
0000
,
0001
0010
0100
1000
0100
0010
0001
0010
0100
1000
0100
0010
,
0001
0010
0100
1000
0100
0010
0001
0010
0100
1000
0100
0010
,
0000
0000
1100
0000
0010
0000
0001
0010
1000
0000
0010
0000
0101
0000
1000
0000
,
0010
0000
0100
0000
0001
0000
0011
0100
1000
0000
0010
0000
0100
0000
1000
0010
,
0101
0000
0010
0000
1000
0000
0110
0000
0001
0000
0100
0000
0011
0000
0100
0010
,
1000
0000
0100
0000
0010
0000
0100
0000
0001
0000
0110
0000
1000
0000
0100
0010
,
1000
0000
0100
0000
0001
0000
0110
0001
1000
0000
0100
0000
0010
0000
1000
0000
,
0110
0000
0001
0000
0100
0000
0001
1100
0010
0000
0100
0000
0001
0000
0110
0000
,
1100
0011
0110
1010
0101
1010
0101
0110
,
1001
0000
1100
0000
0011
0000
1010
0000
0001
0000
1001
0000
1001
0110
1001
0000
,
0011
0000
0100
1000
0001
0000
0110
0000
0101
0000
1000
0000
0110
0000
0001
0000
,
1000
0000
0101
0000
0010
1000
0100
0000
0011
0000
0100
0000
1000
0000
0100
0001
,
1010
0000
0100
0010
1000
0000
0011
0100
0010
0000
1000
0100
0001
0000
0010
1000
,
0011
0000
1000
0100
0010
0000
0100
1000
0001
0000
0010
0000
1100
0000
0010
0200
,
1000
0010
0001
0010
1000
0001
0310
1002
,
0100
0000
1010
0000
0100
0000
1100
0000
0110
0000
1100
0000
1103
0011
1100
0000
,
1001
0100
0010
1000
0011
0100
0010
0001
,
1000
0100
0011
0100
0010
1000
0100
0011
,
1000
0100
0010
0100
0011
0100
1000
0110
,
0001
0000
1000
0000
0000
0000
0100
0000
0010
0000
0000
0000
0100
0000
1000
0000
0000
0000
0101
0000
0000
0010
0000
0000
,
1000
0100
0010
1000
0110
0001
0100
0010
,
1001
0100
0010
1000
0100
0011
1000
0100
,
1000
0100
0011
0100
0010
0100
1000
0011
,
0100
0010
0001
0100
1010
0100
0010
0001
,
0010
0100
1001
0010
1000
0100
0010
1100
,
0001
0010
0100
0001
0010
0100
1010
0001
,
0100
0010
0001
0100
0011
0100
1000
0110
,
0001
0000
0010
0000
0000
0000
1000
0000
0100
0000
0000
0000
0010
0000
0001
0000
0000
0000
0110
0000
0000
1000
0000
0000
,
0100
0001
1010
0100
0001
0010
1000
0100
,
0011
0100
0010
1000
0100
0010
1000
0101
,
0010
1000
0100
0010
0100
0001
0010
1000
,
0011
0110
1010
0000
0011
0000
1100
0010
,
0001
1100
0010
0001
0100
0010
1000
0100
,
0011
0100
0010
1000
0001
0100
1001
0100
,
0001
0000
0000
0010
0000
0000
0100
0000
0000
0011
0000
0000
0100
0000
0010
0000
0000
0000
1000
0000
0100
0000
0000
0000
,
0001
0000
1000
0000
0000
0000
0011
0000
0000
0100
0000
0000
1000
0000
0000
0010
0000
0000
0001
0000
0000
1000
0000
0000
,
0110
0001
0100
0010
0100
0010
1001
0100
,
0010
1000
0100
0001
0010
0100
1001
0010
,
1000
0100
0001
0010
1100
0010
0001
0100
,
0010
0100
1010
0001
0010
0100
0011
1000
,
0010
0100
0011
1000
0100
0001
0010
0100
,
1001
0010
1100
0001
0010
0100
0001
0100
,
1010
0000
0000
0100
0000
0000
1000
0000
0000
0011
0000
0000
0100
0000
1000
0000
0000
0000
0100
0000
0010
0000
0000
0000
,
0001
0000
0100
0000
0000
0000
1100
0000
0000
0001
0000
0000
0010
0000
0000
0100
0000
0000
1000
0000
0000
0001
0000
0000
,
0100
0010
0101
0010
0100
0010
1000
0100
,
1001
0100
1000
0022
0000
0000
0000
0000
,
0000
0000
0000
0033
;
