#TITLE:I Wanna Be A Fuckin' Gansta;
#SUBTITLE:;
#ARTIST:Drunk Optimus;
#TITLETRANSLIT:;
#SUBTITLETRANSLIT:;
#ARTISTTRANSLIT:;
#CREDIT:;
#BANNER:i wanna be a bn.png;
#BACKGROUND:i wanna be a bg.png;
#LYRICSPATH:;
#CDTITLE:;
#MUSIC:I Wanna Be A Fuckin' Gansta.ogg;
#OFFSET:0.011;
#SAMPLESTART:23.007;
#SAMPLELENGTH:15.373;
#SELECTABLE:YES;
#DISPLAYBPM:250.000;
#BPMS:0.000=250.000;
#STOPS:;
#BGCHANGES:;
// cache tags:
#FIRSTBEAT:32.000;
#LASTBEAT:560.000;
#SONGFILENAME:Songs/Speedcore Rejects/I Wanna Be A Fuckin' Gansta - [Tyler]/I Wanna Be A Fuckin' Gansta.sm;
#HASMUSIC:1;
#HASBANNER:1;
#MUSICLENGTH:134.661;
// end cache tags

//---------------dance-single - T. Moore----------------
#NOTES:
     dance-single:
     T. Moore:
     Challenge:
     17:
     1.000,1.000,0.446,1.000,0.809,1063.000,60.000,188.000,48.000,16.000:
0000
0000
0000
0000
,
0000
0000
0000
0000
,
0000
0000
0000
0000
,
0000
0000
0000
0000
,
0000
0000
0000
0000
,
0000
0000
0000
0000
,
0000
0000
0000
0000
,
0000
0000
0000
0000
,
1000
0001
1000
0001
,
0100
0000
0000
0000
0010
0000
0000
0000
1000
0000
0001
0010
0100
0000
1000
0001
,
0100
0010
1000
0001
,
0010
0000
0000
0000
0100
0000
0000
0000
1000
0000
0000
0000
0001
0000
1000
0010
,
0100
0001
1000
0100
,
0010
0001
1000
0010
,
0100
0001
0100
0010
,
1000
0000
0100
0000
0010
0000
0100
1000
,
0001
0100
0001
0100
0001
0100
0001
0100
,
0010
1000
0010
1000
0010
1000
0010
1000
,
0001
0010
0001
0010
0001
0010
0001
0010
,
0100
1000
0100
1000
0100
1000
0100
1000
,
0001
0010
0100
1000
0001
1000
0010
0100
,
0001
1000
0001
0100
0010
1000
0100
0010
,
0004
0000
0000
0000
,
0000
0000
0000
0000
,
1003
0000
0010
0000
0100
0000
0100
0000
0001
0100
0001
0000
1000
0000
0100
0000
,
0010
0000
0001
0000
0010
0000
0001
0000
1000
0000
0001
1000
0001
0100
0010
0000
,
1000
0001
0010
0100
0010
0100
0010
0100
,
1000
0001
1000
0001
0100
0000
0010
0000
1000
0000
0001
0000
0010
0000
0010
0000
,
0100
1000
0100
1000
0001
0000
0001
0000
1000
0010
0100
0001
1000
0000
0000
0000
,
0001
0100
0010
0100
0001
1000
0100
0100
,
0010
0001
0100
0010
0100
0010
0100
0001
,
1000
0001
1000
0000
0100
0000
0010
0000
0001
0000
1000
0001
1000
0001
1000
0001
,
1000
0000
0010
0000
0100
0000
0100
0000
0010
1000
0010
0000
0100
0000
0001
0000
,
1000
0000
0100
0000
1000
0000
0100
0000
0010
0000
0001
1000
0001
1000
0010
0000
,
0100
0001
1000
0001
1000
0001
1000
0001
,
1000
0100
1000
0100
0040
0000
0034
0000
,
1003
0000
0010
0000
0100
0000
0100
0000
0001
1000
0001
0000
0010
0000
0100
0000
,
1000
0001
1000
0001
1000
0001
0100
0100
,
0010
0010
1000
1000
0001
0001
1000
1000
,
0200
0000
0000
0000
0310
0001
0010
0100
1000
0001
1000
0001
0010
0001
1000
0010
,
0100
0000
0001
0000
1000
0000
1000
0000
0100
0010
0001
0000
1000
0000
0001
0000
,
0010
0000
0010
0000
0010
0000
0100
0000
1000
0000
0001
1000
0001
1000
0010
0000
,
0100
0100
0001
0100
0010
1000
0001
1000
,
0100
1000
0100
1000
0001
0100
0010
1000
0001
0010
0100
0000
1000
0000
0001
0000
,
1000
0000
0010
0000
0100
0000
0100
0000
0001
0100
0010
0000
1000
0000
0001
0000
,
1000
1000
1000
0100
0010
0100
1000
1000
,
0001
0001
1000
0001
0100
0010
1000
0001
,
1000
0001
1000
0000
0100
0000
0010
0000
0010
0000
0001
1000
0001
1000
0001
1000
,
0001
0000
0100
0000
0010
0000
0010
0000
1000
0001
1000
0000
0010
0000
0100
0000
,
0001
0000
0001
0000
0001
0000
1000
0000
0100
0000
0010
0100
1000
0001
0010
0000
,
0100
0100
0010
0001
0100
0001
1000
0001
,
0010
0001
0010
0100
1000
0001
1000
0100
0010
0001
1000
0000
0001
0000
1000
0000
,
1000
0000
0010
0000
0100
0000
0100
0000
0010
1000
0010
0000
0100
0000
0001
0000
,
1000
1000
1000
0100
1000
0001
0100
0100
,
0010
0010
1000
0010
0100
0001
1000
0001
,
1000
0100
1000
0000
0001
0000
0010
0000
0001
0000
0100
0000
0010
0000
1000
0000
,
0MM1
0000
0010
0001
0010
0001
1000
0000
,
0010
1000
0010
1000
0010
0200
0000
0300
,
M000
0000
000M
00M0
000M
00M0
M000
0000
,
0001
0100
0001
0100
0001
0020
0000
0030
,
0100
1000
0001
0000
0000
0000
1000
0000
0100
0000
0000
0000
0010
0000
0000
0000
,
0001
0010
0100
0000
0000
0000
1000
0000
0001
0000
1000
0000
0010
0000
0000
0000
,
0022
0033
0000
0000
0022
0033
2200
3300
0022
0033
2200
3300
0022
0033
0000
0000
,
0022
0033
2200
3300
0022
0033
2200
3300
0022
0033
0000
0000
2200
3300
0000
0000
,
0010
0000
1000
0000
0001
0000
0001
0000
0010
0100
1000
0000
0001
0000
0010
0000
,
0001
0001
0001
1000
0001
0100
0010
0010
,
2200
3300
0000
0000
2200
3300
0022
0033
2200
3300
0022
0033
2200
3300
0000
0000
,
2200
3300
0022
0033
2200
3300
0022
0033
2200
3300
0000
0000
0022
0033
0000
0000
,
1000
0000
0001
0000
0010
0000
0010
0000
0100
1000
0100
0000
0010
0000
0001
0000
,
1000
1000
1000
0100
1000
0001
0100
0100
,
0022
0033
1000
0000
0100
0000
0010
0000
0202
0303
0010
0000
0100
0000
1000
0000
,
0022
0033
0100
0000
0022
0033
1000
0000
0022
0033
2200
3300
0022
0033
2200
3300
,
0001
0000
1000
0100
0010
0000
0001
0000
1000
0010
0100
0000
0001
0100
0010
1000
,
0100
0000
0010
0001
1000
0000
0001
0000
0010
0100
1000
0000
0001
0100
0010
1000
,
0100
0000
0010
0001
1000
0000
0001
0000
0010
0100
1000
0000
0001
1000
0010
0100
,
0001
0000
0100
0010
1000
0000
0001
0000
1000
0100
0010
0001
1000
0100
0010
0001
,
0100
0000
0001
1000
0001
0000
0100
0000
0010
1000
0001
0000
1000
0010
0100
0001
,
1000
0000
0100
0010
0001
0000
1000
0000
0001
0010
0100
0000
1000
0100
0010
0001
,
0100
0000
0001
1000
0010
0000
0100
0000
0010
1000
0001
0000
1000
0100
0010
0001
,
1000
0000
0001
0010
0100
0000
1000
0000
0001
0100
0010
1000
0001
0100
0010
1000
,
0100
0000
0010
0001
1000
0000
1000
0000
0001
0010
0100
0000
1000
0100
0010
0000
,
0001
1000
0010
0100
0001
0000
1000
0000
0001
1000
0100
0000
0010
0001
1000
0001
,
0100
0000
0001
0100
0010
0000
1000
0000
0010
1000
0001
0000
1000
0010
0100
0000
,
0001
0010
0100
1000
0001
0010
0100
1000
0001
0000
1000
0010
0100
0000
0100
0000
,
0001
0000
0100
0001
1000
0000
1000
0000
0001
1000
0100
0000
0010
0001
1000
0000
,
0001
0010
0100
1000
0001
1000
0001
1000
0001
0100
0010
0000
1000
0000
1000
0000
,
0001
1000
0010
0100
0001
1000
0001
1000
0100
0010
0001
0000
1000
0000
0001
0000
,
1000
0100
0010
0001
1000
0001
0010
0100
1000
0000
0001
0000
0100
0000
0100
0000
,
M0M2
0003
0000
0000
1000
0000
0100
0000
1000
0000
0100
0000
0010
0000
0000
0000
,
0100
1000
0100
1000
0001
0200
0000
0300
,
2222
3333
0000
0000
2222
3333
0000
0000
2222
3333
0000
0000
2222
3333
0000
0000
,
2222
3333
0000
0000
2222
3333
0000
0000
2222
3333
0000
0000
2222
3333
0000
0000
,
2002
3003
0000
0000
1000
0000
0100
0000
1000
0000
0100
0000
0010
0000
0000
0000
,
0100
1000
0100
1000
0001
0100
0100
0100
,
0022
0033
1000
0000
0022
0033
0100
0000
0022
0033
1000
0000
0022
0033
0100
0000
,
0022
0033
1000
0000
0022
0033
0100
0000
0022
0033
1000
0000
0022
0033
0100
0000
,
0002
0003
0000
0000
1000
0000
0100
0000
1000
0000
0100
0000
0010
0000
0000
0000
,
0100
1000
0100
1000
0001
0200
0000
0300
,
2222
3333
0000
0000
2222
3333
0000
0000
2222
3333
0000
0000
2222
3333
0000
0000
,
2222
3333
0000
0000
2222
3333
0000
0000
2222
3333
0000
0000
2222
3333
0000
0000
,
2002
3003
0000
0000
1000
0000
0100
0000
1000
0000
0100
0000
0010
0000
0000
0000
,
0100
1000
0100
1000
0001
0100
0010
0100
,
0040
4000
0000
0000
0000
0000
0000
0000
,
0000
0000
0000
0000
0000
0000
0030
3000
,
0001
0100
0010
1000
0100
1000
0010
0100
,
0001
0010
0100
0010
0001
0100
0010
1000
,
0001
0010
0001
1000
0001
0010
0100
1000
,
0001
0000
0100
0000
0001
0000
1000
0000
0010
0000
0100
0000
0001
0000
1000
0001
,
0010
0100
1000
0001
0100
0001
1000
0010
,
0100
0001
0010
0001
0100
0010
1000
0100
,
0010
0001
0010
0001
1000
0001
1000
0001
,
0010
0000
0100
0000
1000
0000
0100
0000
0010
0000
0001
0000
0100
0001
0100
0001
,
1000
0010
0100
0001
1000
0001
0100
0010
1000
0001
1000
0010
0100
0001
1000
0001
,
0100
0010
1000
0010
0100
0001
1000
0001
0100
0010
0100
0001
1000
0010
0100
0001
,
1000
0100
0010
0001
1000
0001
0010
0100
1000
0001
1000
0100
0010
0100
1000
0001
,
0010
0001
1000
0100
0010
0001
1000
0001
0010
0100
1000
0001
0010
0001
1000
0001
,
0100
0010
0100
0001
1000
0001
0100
0010
1000
0001
1000
0100
0010
0100
1000
0001
,
0100
0010
0100
0001
1000
0001
0100
0010
1000
0001
0100
0001
1000
0100
0010
0100
,
1000
0001
0100
0010
1000
0001
1000
0100
0010
0001
1000
0001
0010
0100
1000
0001
,
0100
0001
1000
0100
0010
0100
1000
0001
0100
0010
0100
0001
1000
0100
0010
0001
,
1000
0000
0000
0000
0000
0000
0000
0000
0020
0000
0000
0000
0000
0000
0000
0030
0020
0000
0000
0000
0000
0000
0000
0000
0230
0000
0000
0000
0000
0000
0000
0300
,
0200
0000
0000
0000
0301
0000
0000
0000
0001
0000
1000
0001
0100
0000
0010
1000
,
0001
0000
0000
0000
0000
0000
0000
0000
0200
0000
0000
0000
0000
0000
0000
0300
0200
0000
0000
0000
0000
0000
0000
0000
0302
0000
0000
0000
0000
0000
0000
0003
,
0002
0000
0000
0000
1003
0001
1000
0001
1000
0001
1000
0001
1000
0001
1000
0001
,
1000
0000
0000
0000
0000
0000
0000
0000
0200
0000
0000
0000
0000
0000
0000
0300
0200
0000
0000
0000
0000
0000
0000
0000
0320
0000
0000
0000
0000
0000
0000
0030
,
0020
0000
0031
0000
0001
0000
1000
0010
,
0100
0000
0000
0000
0000
0000
0000
0000
0002
0000
0000
0000
0000
0000
0000
0003
0002
0000
0000
0000
0000
0000
0000
0000
2003
0000
0000
0000
0000
0000
0000
3000
,
2000
0000
0000
0000
3100
0000
1000
0000
0100
0000
1000
0000
0001
1000
0010
0000
,
0100
0000
0000
0000
0000
0000
0000
0000
0002
0000
0000
0000
0000
0000
0000
0003
0002
0000
0000
0000
0000
0000
0000
0000
0203
0000
0000
0000
0000
0000
0000
0300
,
0200
0000
0000
0000
0310
0000
0000
0000
0010
0000
0100
0001
1000
0000
0001
0010
,
0100
0000
0000
0000
0000
0000
0000
0000
2000
0000
0000
0000
0000
0000
0000
3000
2000
0000
0000
0000
0000
0000
0000
0000
3002
0000
0000
0000
0000
0000
0000
0003
,
0002
0000
0000
0000
1003
0100
1000
0001
0010
0001
1000
0001
1000
0010
0100
0001
,
1000
0000
0000
0000
0000
0000
0000
0000
0002
0000
0000
0000
0000
0000
0000
0003
0002
0000
0000
0000
0000
0000
0000
0000
0203
0000
0000
0000
0000
0000
0000
0300
,
0200
0000
0310
0000
0010
0000
1000
0100
,
0010
0000
0000
0000
0000
0000
0000
0000
0002
0000
0000
0000
0000
0000
0000
0003
0002
0000
0000
0000
0000
0000
0000
0000
2003
0000
0000
0000
0000
0000
0000
3000
,
2000
0000
0000
0000
3100
0000
1000
0000
0100
0000
1000
0000
0010
0100
0001
0000
,
20M0
00M0
0M00
0M00
000M
000M
00M0
00M0
,
0M00
0000
0M00
000M
0M00
0000
0M00
00M0
0000
0M00
0000
000M
00M0
0M00
0000
0M00
,
000M
00M0
000M
0M00
00M0
000M
0M00
0000
0000
00M0
0000
0000
000M
0000
0M00
0000
,
00M0
0000
000M
0M00
0000
00M0
0000
0000
0M00
0000
000M
0000
00M0
0000
0000
0M00
,
300M
0000
0000
0000
;

//---------------dance-single - T. Moore----------------
#NOTES:
     dance-single:
     T. Moore:
     Hard:
     15:
     1.000,1.000,0.446,1.000,0.765,1003.000,60.000,188.000,47.000,16.000:
0000
0000
0000
0000
,
0000
0000
0000
0000
,
0000
0000
0000
0000
,
0000
0000
0000
0000
,
0000
0000
0000
0000
,
0000
0000
0000
0000
,
0000
0000
0000
0000
,
0000
0000
0000
0000
,
0001
1000
0001
1000
,
0010
0000
0000
0000
0100
0000
0000
0000
0001
0000
1000
0100
0010
0000
0001
1000
,
0010
0100
0001
1000
,
0100
0000
0000
0000
0010
0000
0000
0000
0001
0000
0000
0000
1000
0000
0001
0100
,
0010
1000
0001
0010
,
0100
1000
0001
0100
,
0010
1000
0010
0100
,
0001
0000
0010
0000
0100
0000
0010
0001
,
1000
0010
1000
0010
1000
0010
1000
0010
,
0100
0001
0100
0001
0100
0001
0100
0001
,
1000
0100
1000
0100
1000
0100
1000
0100
,
0010
0001
0010
0001
0010
0001
0010
0001
,
1000
0100
0010
0001
1000
0001
0100
0010
,
1000
0001
1000
0010
0100
0001
0010
0100
,
4000
0000
0000
0000
,
0000
0000
0000
0000
,
3001
0000
0100
0000
0010
0000
0010
0000
1000
0010
1000
0000
0001
0000
0010
0000
,
0100
0000
1000
0000
0100
0000
1000
0000
0001
0000
1000
0001
1000
0010
0100
0000
,
0001
1000
0100
0010
0100
0010
0100
0010
,
0001
1000
0001
1000
0010
0000
0100
0000
0001
0000
1000
0000
0100
0000
0100
0000
,
0010
0001
0010
0001
1000
0000
1000
0000
0001
0100
0010
1000
0001
0000
0000
0000
,
1000
0010
0100
0010
1000
0001
0010
0010
,
0100
1000
0010
0100
0010
0100
0010
1000
,
0001
1000
0001
0000
0010
0000
0100
0000
1000
0000
0001
1000
0001
1000
0001
1000
,
0001
0000
0100
0000
0010
0000
0010
0000
0100
0001
0100
0000
0010
0000
1000
0000
,
0001
0000
0010
0000
0001
0000
0010
0000
0100
0000
1000
0001
1000
0001
0100
0000
,
0010
1000
0001
1000
0001
1000
0001
1000
,
0001
0001
0001
0010
0400
0000
4300
0000
,
3001
0000
0100
0000
0010
0000
0010
0000
1000
0001
1000
0000
0100
0000
0010
0000
,
0001
1000
0001
1000
0001
1000
0010
0010
,
0100
0100
0001
0001
1000
1000
0001
0001
,
0020
0000
0000
0000
0130
1000
0100
0010
0001
1000
0001
1000
0100
1000
0001
0100
,
0010
0000
1000
0000
0001
0000
0001
0000
0010
0100
1000
0000
0001
0000
1000
0000
,
0100
0000
0100
0000
0100
0000
0010
0000
0001
0000
1000
0001
1000
0001
0100
0000
,
0010
0010
1000
0010
0100
0001
1000
0001
,
0010
0001
0010
0001
1000
0010
0100
0001
1000
0100
0010
0000
0001
0000
1000
0000
,
0001
0000
0100
0000
0010
0000
0010
0000
1000
0010
0100
0000
0001
0000
1000
0000
,
0001
0001
0001
0010
0100
0010
0001
0001
,
1000
1000
0001
1000
0010
0100
0001
1000
,
0001
1000
0001
0000
0010
0000
0100
0000
0100
0000
1000
0001
1000
0001
1000
0001
,
1000
0000
0010
0000
0100
0000
0100
0000
0001
1000
0001
0000
0100
0000
0010
0000
,
1000
0000
1000
0000
1000
0000
0001
0000
0010
0000
0100
0010
0001
1000
0100
0000
,
0010
0010
0100
1000
0010
1000
0001
1000
,
0100
1000
0100
0010
0001
1000
0001
0010
0100
1000
0001
0000
1000
0000
0001
0000
,
0001
0000
0100
0000
0010
0000
0010
0000
0100
0001
0100
0000
0010
0000
1000
0000
,
0001
0001
0001
0010
0001
1000
0010
0010
,
0100
0100
0001
0100
0010
1000
0001
1000
,
0001
0010
0001
0000
1000
0000
0100
0000
1000
0000
0010
0000
0100
0000
0001
0000
,
1MM0
0000
0100
1000
0100
1000
0001
0000
,
0100
0001
0100
0001
0100
0020
0000
0030
,
000M
0000
M000
0M00
M000
0M00
000M
0000
,
1000
0010
1000
0010
1000
0200
0000
0300
,
0010
0001
1000
0000
0000
0000
0001
0000
0010
0000
0000
0000
0100
0000
0000
0000
,
1000
0100
0010
0000
0000
0000
0001
0000
1000
0000
0001
0000
0100
0000
0000
0000
,
2200
3300
0000
0000
2200
3300
0022
0033
2200
3300
0022
0033
2200
3300
0000
0000
,
2200
3300
0022
0033
2200
3300
0022
0033
2200
3300
0000
0000
0022
0033
0000
0000
,
0100
0000
0001
0000
1000
0000
1000
0000
0100
0010
0001
0000
1000
0000
0100
0000
,
1000
1000
1000
0001
1000
0010
0100
0100
,
0022
0033
0000
0000
0022
0033
2200
3300
0022
0033
2200
3300
0022
0033
0000
0000
,
0022
0033
2200
3300
0022
0033
2200
3300
0022
0033
0000
0000
2200
3300
0000
0000
,
0001
0000
1000
0000
0100
0000
0100
0000
0010
0001
0010
0000
0100
0000
1000
0000
,
0001
0001
0001
0010
0001
1000
0010
0010
,
2200
3300
0001
0000
0010
0000
0100
0000
2020
3030
0100
0000
0010
0000
0001
0000
,
2200
3300
0010
0000
2200
3300
0001
0000
2200
3300
0022
0033
2200
3300
0022
0033
,
1000
0000
0001
0010
0100
0000
1000
0000
0001
0100
0010
0000
1000
0010
0100
0001
,
0010
0000
0100
1000
0001
0000
1000
0000
0100
0010
0001
0000
1000
0010
0100
0001
,
0010
0000
0100
1000
0001
0000
1000
0000
0100
0010
0001
0000
1000
0001
0100
0010
,
1000
0000
0010
0100
0001
0000
1000
0000
0001
0010
0100
1000
0001
0010
0100
1000
,
0010
0000
1000
0001
1000
0000
0010
0000
0100
0001
1000
0000
0001
0100
0010
1000
,
0001
0000
0010
0100
1000
0000
0001
0000
1000
0100
0010
0000
0001
0010
0100
1000
,
0010
0000
1000
0001
0100
0000
0010
0000
0100
0001
1000
0000
0001
0010
0100
1000
,
0001
0000
1000
0100
0010
0000
0001
0000
1000
0010
0100
0001
1000
0010
0100
0001
,
0010
0000
0100
1000
0001
0000
0001
0000
1000
0100
0010
0000
0001
0010
0100
0000
,
1000
0001
0100
0010
1000
0000
0001
0000
1000
0001
0010
0000
0100
1000
0001
1000
,
0010
0000
1000
0010
0100
0000
0001
0000
0100
0001
1000
0000
0001
0100
0010
0000
,
1000
0100
0010
0001
1000
0100
0010
0001
1000
0000
0001
0100
0010
0000
0010
0000
,
1000
0000
0010
1000
0001
0000
0001
0000
1000
0001
0010
0000
0100
1000
0001
0000
,
1000
0100
0010
0001
1000
0001
1000
0001
1000
0010
0100
0000
0001
0000
0001
0000
,
1000
0001
0100
0010
1000
0001
1000
0001
0010
0100
1000
0000
0001
0000
1000
0000
,
0001
0010
0100
1000
0001
1000
0100
0010
0001
0000
1000
0000
0010
0000
0010
0000
,
2M0M
3000
0000
0000
0001
0000
0010
0000
0001
0000
0010
0000
0100
0000
0000
0000
,
0010
0001
0010
0001
1000
0020
0000
0030
,
2222
3333
0000
0000
2222
3333
0000
0000
2222
3333
0000
0000
2222
3333
0000
0000
,
2222
3333
0000
0000
2222
3333
0000
0000
2222
3333
0000
0000
2222
3333
0000
0000
,
2002
3003
0000
0000
0001
0000
0010
0000
0001
0000
0010
0000
0100
0000
0000
0000
,
0010
0001
0010
0001
1000
0010
0010
0010
,
2200
3300
0001
0000
2200
3300
0010
0000
2200
3300
0001
0000
2200
3300
0010
0000
,
2200
3300
0001
0000
2200
3300
0010
0000
2200
3300
0001
0000
2200
3300
0010
0000
,
2000
3000
0000
0000
0001
0000
0010
0000
0001
0000
0010
0000
0100
0000
0000
0000
,
0010
0001
0010
0001
1000
0020
0000
0030
,
2222
3333
0000
0000
2222
3333
0000
0000
2222
3333
0000
0000
2222
3333
0000
0000
,
2222
3333
0000
0000
2222
3333
0000
0000
2222
3333
0000
0000
2222
3333
0000
0000
,
2002
3003
0000
0000
0001
0000
0010
0000
0001
0000
0010
0000
0100
0000
0000
0000
,
0010
0001
0010
0001
1000
0010
0010
0010
,
0400
0004
0000
0000
0000
0000
0000
0000
,
0000
0000
0000
0000
0000
0000
0300
0003
,
1000
0010
0100
0001
0010
0001
0100
0010
,
1000
0100
0010
0100
1000
0010
0100
0001
,
1000
0100
1000
0001
1000
0100
0010
0001
,
1000
0000
0010
0000
1000
0000
0001
0000
0100
0000
0010
0000
1000
0000
0001
1000
,
0100
0010
0001
1000
0010
1000
0001
0100
,
0010
1000
0100
1000
0010
0100
0001
0010
,
0100
1000
0100
1000
0001
1000
0001
1000
,
0100
0010
0001
0010
0100
1000
0010
0010
,
1000
0100
0010
0001
1000
0001
0010
0100
1000
0010
0100
0001
,
1000
0010
1000
0001
0010
0100
1000
0100
0010
0001
1000
0001
,
1000
0010
0100
0001
0010
0001
0100
0010
1000
0100
0010
0100
,
1000
0010
0100
0001
0010
0100
1000
0010
0100
0010
1000
0100
,
0010
0001
0100
0010
1000
0100
0010
0100
1000
0010
0100
0001
,
0010
0100
1000
0100
0010
0001
0100
0010
1000
0100
0010
0001
,
0100
0001
0010
0100
1000
0001
0100
0001
0010
0100
1000
0010
,
0100
0010
1000
0100
0010
0001
0100
0010
1000
0001
0010
0100
,
1000
0000
0000
0000
0000
0000
0000
0000
0002
0000
0000
0000
0000
0000
0000
0003
0002
0000
0000
0000
0000
0000
0000
0000
0023
0000
0000
0000
0000
0000
0000
0030
,
0020
0000
0000
0000
0130
0000
0000
0000
0100
0000
1000
0001
1000
0000
0001
0100
,
0010
0000
0000
0000
0000
0000
0000
0000
2000
0000
0000
0000
0000
0000
0000
3000
2000
0000
0000
0000
0000
0000
0000
0000
3002
0000
0000
0000
0000
0000
0000
0003
,
0002
0000
0000
0000
4003
0400
0000
0000
0000
0000
0000
0000
0000
0000
0000
3000
,
0300
0000
0000
0000
0000
0000
0000
0000
0020
0000
0000
0000
0000
0000
0000
0030
0020
0000
0000
0000
0000
0000
0000
0000
0032
0000
0000
0000
0000
0000
0000
0003
,
0002
0000
1003
0000
1000
0000
0001
0100
,
0010
0000
0000
0000
0000
0000
0000
0000
2000
0000
0000
0000
0000
0000
0000
3000
2000
0000
0000
0000
0000
0000
0000
0000
3002
0000
0000
0000
0000
0000
0000
0003
,
0002
0000
0000
0000
0013
0000
0001
0000
0010
0000
0001
0000
1000
0001
0100
0000
,
0010
0000
0000
0000
0000
0000
0000
0000
2000
0000
0000
0000
0000
0000
0000
3000
2000
0000
0000
0000
0000
0000
0000
0000
3020
0000
0000
0000
0000
0000
0000
0030
,
0020
0000
0000
0000
0130
0000
0000
0000
0100
0000
0010
1000
0001
0000
1000
0001
,
0010
0000
0000
0000
0000
0000
0000
0000
0200
0000
0000
0000
0000
0000
0000
0300
0200
0000
0000
0000
0000
0000
0000
0000
2300
0000
0000
0000
0000
0000
0000
3000
,
2000
0000
0000
0000
3004
0400
0000
0000
0000
0000
0000
0000
0000
0000
0000
0003
,
0300
0000
0000
0000
0000
0000
0000
0000
0020
0000
0000
0000
0000
0000
0000
0030
0020
0000
0000
0000
0000
0000
0000
0000
0230
0000
0000
0000
0000
0000
0000
0300
,
0200
0000
0301
0000
0001
0000
1000
0100
,
0010
0000
0000
0000
0000
0000
0000
0000
0002
0000
0000
0000
0000
0000
0000
0003
0002
0000
0000
0000
0000
0000
0000
0000
2003
0000
0000
0000
0000
0000
0000
3000
,
2000
0000
0000
0000
3010
0000
0100
0000
0010
0000
0100
0000
0001
1000
0100
0000
,
M020
M000
0M00
0M00
000M
000M
M000
M000
,
0M00
0000
0M00
000M
0M00
0000
0M00
M000
0000
0M00
0000
000M
M000
0M00
0000
0M00
,
000M
M000
000M
0M00
M000
000M
0M00
0000
0000
M000
0000
0000
000M
0000
0M00
0000
,
M000
0000
000M
0M00
0000
M000
0000
0000
0M00
0000
000M
0000
M000
0000
0000
0M00
,
0030
0000
0000
0000
;
