#TITLE:HELL SCAPER;
#SUBTITLE:-TOKKANKOUJI mix-;
#ARTIST:L.E.D.LIGHT-G remix by paraoka;
#TITLETRANSLIT:;
#SUBTITLETRANSLIT:;
#ARTISTTRANSLIT:;
#CREDIT:;
#BANNER:hellScaperParaokaMix.png;
#BACKGROUND:hellScaperParaokaMix-bg.png;
#LYRICSPATH:;
#CDTITLE:!aptitle.png;
#MUSIC:hellScaperParaokaMix.mp3;
#OFFSET:-0.062;
#SAMPLESTART:46.920;
#SAMPLELENGTH:15.500;
#SELECTABLE:YES;
#BPMS:0.000=210.080,227.750=211.500,259.750=213.700,276.000=217.080,307.750=214.600,323.500=216.940,327.500=219.600;
#STOPS:;
#BGCHANGES:;
// cache tags:
#FIRSTBEAT:20.000;
#LASTBEAT:374.000;
#SONGFILENAME:Songs/Keyboard Collaboration II/Aperson - HELL SCAPER -TOKKANKOUJI mix-/hellScaperParaokaMix.sm;
#HASMUSIC:1;
#HASBANNER:1;
#MUSICLENGTH:106.318;
// end cache tags

//---------------dance-single - ----------------
#NOTES:
     dance-single:
     :
     Hard:
     13:
     1.000,1.000,1.000,0.113,1.000,888.000,185.000,12.000,0.000,1.000:  // measure 1
0000
0000
0000
0000
,  // measure 2
0000
0000
0000
0000
,  // measure 3
0000
0000
0000
0000
,  // measure 4
0000
0000
0000
0000
,  // measure 5
0000
0000
0000
0000
,  // measure 6
1001
0100
1000
0100
1000
0000
0100
0000
0010
0000
0100
0000
1000
0000
0010
0000
,  // measure 7
0101
0010
0001
0010
0001
0000
0100
0000
0010
0000
1000
0000
0100
0000
0010
0000
,  // measure 8
0110
1000
0100
1000
0100
0000
0010
0000
0001
0000
1000
0000
0010
0000
0100
0000
,  // measure 9
0001
0100
0001
0100
0001
0010
0100
1000
0001
1000
0100
0010
0001
1000
0001
0010
,  // measure 10
0101
0010
0001
0010
0001
0000
1000
0000
0100
0000
0010
0000
0001
0000
1000
0000
,  // measure 11
0110
0001
0100
0001
0100
0000
0010
0000
1000
0000
0001
0000
0100
0000
0010
0000
,  // measure 12
1001
0100
0001
0100
0001
0000
0010
0000
0100
0000
1000
0000
0010
0000
0100
0000
,  // measure 13
0001
0010
0100
0010
0001
0010
0100
0010
2001
0000
3100
0000
0000
0000
0000
0000
,  // measure 14
1000
0010
1000
0010
0100
0000
0001
0010
0001
0000
1000
0100
1000
0000
0010
0000
,  // measure 15
0100
0001
0100
0001
0010
0000
0100
1000
0100
0000
0010
0001
0010
0100
1000
0000
,  // measure 16
0100
0010
0100
0010
0100
0000
1000
0001
1000
0000
0100
0010
0100
0000
1000
0000
,  // measure 17
0001
0010
0001
0010
0001
0010
0001
0010
0100
1000
0100
0010
1001
0000
0000
0000
,  // measure 18
2002
0000
3003
0000
,  // measure 19
0000
0000
1000
0100
1000
0100
0010
0001
,  // measure 20
0200
0000
0000
0000
0000
0000
0000
0002
0300
0000
0000
0000
0000
0000
2003
0000
,  // measure 21
0000
3020
0000
0030
1001
0101
0000
0000
,  // measure 22
1010
0100
0001
0100
0001
0100
1010
0100
,  // measure 23
0011
1000
0001
1000
0001
1000
0011
1000
,  // measure 24
0101
0010
0001
0010
0001
0010
0101
0010
,  // measure 25
1100
0001
1000
0001
1000
0001
1100
0000
,  // measure 26
0101
0000
0010
0000
1000
0000
0010
0000
1000
0000
0010
0000
0101
1000
0010
0001
,  // measure 27
1100
0000
0001
0000
1000
0000
0001
0000
1000
0000
0001
0000
1100
0001
0010
0100
,  // measure 28
1010
0000
0100
0000
1000
0000
0100
0000
1000
0000
0100
0000
1010
0001
0100
1000
,  // measure 29
0011
1000
0001
1000
0001
1000
0011
0100
,  // measure 30
1010
0000
0100
0000
0001
0010
0100
0000
0001
0010
0100
0000
1010
0001
0100
1000
,  // measure 31
0011
0000
1000
0000
0001
0010
1000
0000
0001
0010
1000
0000
0011
1000
0100
0010
,  // measure 32
0101
0000
0010
0000
0001
0100
0010
0000
0001
0100
0010
0000
0101
1000
0010
0001
,  // measure 33
1100
0000
0001
0100
1000
0000
0001
0100
1001
0000
0011
0100
0010
0100
0011
0000
,  // measure 34
1000
0100
0010
0001
0000
0000
0010
1000
,  // measure 35
0001
0000
0000
1001
0000
0001
0100
0010
,  // measure 36
0001
0010
0100
1000
0001
0010
0100
1000
,  // measure 37
0001
0010
0100
1000
0001
0010
0100
1000
,  // measure 38
0001
1000
0100
0010
0000
0000
0010
1000
,  // measure 39
0001
0000
0000
1001
0000
0100
0001
0010
,  // measure 40
1000
0100
0010
0001
1000
0100
0010
0001
,  // measure 41
0010
0000
0010
0000
0100
0010
0100
0000
2002
0000
0000
0000
0000
0000
3003
0000
,  // measure 42
1010
0000
1100
0000
0110
0000
0011
0000
0101
0010
0001
0010
1100
0000
0101
0000
,  // measure 43
0101
0000
0011
0000
0110
0000
1100
0000
1010
0100
1000
0100
0011
0000
1010
0000
,  // measure 44
0011
0000
1010
0000
1001
0000
0101
0000
1100
0001
0100
0001
1010
0000
1100
0000
,  // measure 45
1100
0000
0101
0000
1001
0000
1010
0000
0011
0000
1000
0001
1000
0001
1000
0000
,  // measure 46
0101
0010
0001
0010
0001
0010
0001
0010
1100
0000
0110
0000
0101
0010
1000
0010
,  // measure 47
1100
0001
0100
0001
0100
0001
0100
0001
1010
0000
1001
0000
1100
0001
1000
0001
,  // measure 48
1010
0100
1000
0100
1000
0100
1000
0100
0011
0000
0110
0000
1010
0100
0010
0100
,  // measure 49
1010
0001
0100
0001
0100
0001
0100
0001
1010
0000
0100
0001
0100
0001
0100
0000
,  // measure 50
1010
0000
1100
0010
0100
0010
1100
0000
1100
0000
0011
0000
0011
0100
0010
0100
,  // measure 51
0011
0000
1010
0001
1000
0001
1010
0000
1010
0000
0101
0000
0101
1000
0001
1000
,  // measure 52
0101
0000
0011
0100
0010
0100
0011
0000
0011
0000
1100
0000
1100
0010
0100
0010
,  // measure 53
1100
0000
0101
1000
0001
1000
0101
0000
0101
0000
1000
0010
1000
0010
1000
0000
,  // measure 54
0101
0010
0001
0010
0001
1000
0100
0001
0100
1000
0001
1000
0100
0010
0001
0010
,  // measure 55
1001
0100
0001
0100
0001
1000
0010
0100
0001
0100
0010
1000
0100
0010
0001
0010
,  // measure 56
1100
0001
0100
0001
0100
0010
1000
0010
0100
0001
0100
0010
1000
0001
0100
1000
,  // measure 57
0011
0000
1010
0000
1100
0000
0110
0000
0101
0010
0001
0010
0001
0010
0001
0010
,  // measure 58
1001
0100
0001
0100
1000
0100
0001
0100
,  // measure 59
1000
0100
0001
0010
1000
0010
0001
0010
,  // measure 60
1000
0100
0010
0100
0001
0010
0100
1000
,  // measure 61
0001
1000
0100
0010
0100
0010
1000
0010
,  // measure 62
1001
0010
1000
0010
0001
0010
1000
0010
,  // measure 63
0001
0010
1000
0100
0001
0100
1000
0100
,  // measure 64
0001
0010
0100
0010
1000
0100
0010
0001
,  // measure 65
1000
0000
0001
0000
0010
0000
0100
0000
1010
0000
0110
0000
0001
0010
0001
0010
,  // measure 66
1000
0010
0100
0000
0001
0000
0010
0000
0100
0000
0010
0000
0100
0000
1000
0000
,  // measure 67
0001
0100
0010
0000
1000
0000
0010
0000
0100
0000
0001
0000
0010
0000
0100
0000
,  // measure 68
1010
1100
0000
0000
0101
0011
0000
0000
,  // measure 69
0000
1100
0000
0011
0000
1010
0000
0101
,  // measure 70
1001
0010
1000
0001
0000
0000
0100
0001
,  // measure 71
0010
0000
0000
1001
0000
1000
0100
0010
,  // measure 72
0001
0100
0010
1000
0010
0100
0001
0100
,  // measure 73
0010
0001
0010
1000
0010
0001
0010
0100
,  // measure 74
0010
1000
0010
0100
0000
0000
1000
0100
,  // measure 75
0010
0000
0000
1001
0000
0001
1000
0001
,  // measure 76
0010
0100
0010
1000
0001
0100
0010
0001
,  // measure 77
1000
0000
0001
0000
0010
0100
0010
0000
2002
0000
0000
0000
3003
0000
0000
0000
,  // measure 78
1001
0000
1010
0000
0110
0000
0011
0000
1010
0100
0001
0100
0011
0000
0110
0000
,  // measure 79
1010
0000
0101
0000
0011
0000
0110
0000
1100
0001
0100
0001
1010
0000
0110
0000
,  // measure 80
0101
0000
0011
0000
0101
0000
1010
0000
1100
0010
0100
0010
1001
0000
0011
0000
,  // measure 81
0110
0000
1010
0000
1100
0000
0110
0000
0100
0001
0100
0001
0100
0001
0100
0001
,  // measure 82
1010
0100
0001
0010
0001
0100
0001
1000
0011
0000
1100
0000
1010
0001
0100
0001
,  // measure 83
1100
0001
0010
0001
1000
0001
0100
0001
1010
0000
0101
0000
1100
0010
1000
0010
,  // measure 84
0101
0010
1000
0010
0100
0010
0001
0010
1100
0000
0011
0000
0101
1000
0100
1000
,  // measure 85
0011
1000
0100
1000
0001
1000
0010
1000
0101
0000
1010
0000
0011
1000
0001
1000
,  // measure 86
0101
0010
1000
0010
0100
0010
0001
1000
0100
0010
0100
1000
0001
0010
0100
0010
,  // measure 87
0101
1000
0010
0100
0010
1000
0001
0010
0100
0010
0001
1000
0010
0100
0001
0100
,  // measure 88
0010
1000
0100
0010
0001
1000
0001
0010
0100
0010
0001
1000
0100
1000
0001
0010
,  // measure 89
0100
1000
0100
0010
0100
1000
0100
0010
0001
0100
0010
1000
0001
1000
0010
0100
,  // measure 90
1000
0100
0010
0000
0001
0010
0100
0000
1000
0100
0010
0000
1001
0000
0000
0000
0110
0000
0000
0000
1100
0000
0000
0000
0110
0000
0000
0000
1010
0000
0000
0000
,  // measure 91
0001
0010
0100
0000
1000
0100
0010
0000
0001
0010
0100
0000
1001
0000
0000
0000
0110
0000
0000
0000
0011
0000
0000
0000
0101
0000
0000
0000
0011
0000
0000
0000
,  // measure 92
1000
0100
0010
0000
0001
0010
0100
0000
1000
0100
0010
0000
1001
0000
0000
0000
0011
0000
0000
0000
0101
0000
0000
0000
0110
0000
0000
0000
1010
0000
0000
0000
,  // measure 93
0100
0010
0100
0010
0100
0010
0100
0010
0100
0010
0100
0010
0100
0010
0200
0000
,  // measure 94
0000
0311
0000
0010
0001
0000
0000
0000
;
