#TITLE:Breed;
#SUBTITLE:;
#ARTIST:The Melodyst;
#TITLETRANSLIT:;
#SUBTITLETRANSLIT:;
#ARTISTTRANSLIT:;
#CREDIT:Aoreo;
#BANNER:../speedcore rejects ban.png;
#BACKGROUND:../speedcore rejects bg.png;
#LYRICSPATH:;
#CDTITLE:;
#MUSIC:Breed.ogg;
#OFFSET:0.009;
#SAMPLESTART:99.783;
#SAMPLELENGTH:12.000;
#SELECTABLE:YES;
#BPMS:0.000=180.000;
#STOPS:;
#BGCHANGES:;
// cache tags:
#FIRSTBEAT:16.000;
#LASTBEAT:468.000;
#SONGFILENAME:Songs/Speedcore Rejects/Breed - [Aoreo]/Breed.sm;
#HASMUSIC:1;
#HASBANNER:1;
#MUSICLENGTH:160.223;
// end cache tags

//---------------dance-single - J. Nero----------------
#NOTES:
     dance-single:
     J. Nero:
     Challenge:
     11:
     0.795,0.913,0.593,0.381,0.384,714.000,95.000,61.000,2.000,0.000:
0000
0000
0000
0000
,
0000
0000
0000
0000
,
0000
0000
0000
0000
,
0000
0000
0000
0000
,
0101
1001
1010
0110
,
0101
1001
1100
0110
,
0011
1001
1010
0101
,
0001
0000
0010
0000
0001
1000
0000
0000
0010
0000
1000
0000
0001
0000
0010
0000
,
0100
1000
0010
1000
0001
0010
0100
1000
,
0010
0100
0010
1000
0001
0010
0100
1000
,
00M2
0000
0000
0000
,
1003
0100
1000
0001
00M0
0000
2000
3000
,
1001
0001
0010
0100
1000
0001
0100
0001
,
1000
0000
0100
0000
0010
0000
0001
0000
1000
0010
1000
0000
0001
0000
0010
0000
,
0110
0000
0000
0000
0000
0000
0000
0000
1100
0000
0000
0000
0000
0000
0000
0000
1001
0000
0000
0000
0000
0000
0000
0000
0001
0000
0000
0000
0400
0300
0000
0000
,
0010
0000
0000
0000
0400
0300
0000
0000
0001
0000
0000
0000
0040
0030
0000
0000
0100
0000
1000
0000
0000
0000
0001
0000
1000
0000
0000
0000
1000
0000
0000
0000
,
0010
0100
0001
0010
0100
1000
0001
1000
,
0010
0000
0100
0000
0001
0000
0100
0000
0010
1000
0001
0000
1000
0000
0100
0000
,
1100
1000
0001
0010
0100
1000
0001
0100
,
0020
0000
0130
0001
2000
0000
3001
0100
,
0110
0010
1000
0001
0010
0100
1000
0001
,
0100
0000
0010
0000
0100
0000
0001
0000
1000
0100
0010
0000
0001
0000
0001
0000
,
0100
0000
0101
0000
1001
1001
0000
1000
,
1010
0000
0000
0110
0000
0000
0000
0000
0101
0000
0000
1001
0000
0000
1000
0000
,
1100
0000
0000
0110
0000
0000
0011
0000
0000
1001
0000
0000
1010
0000
0000
0000
,
0110
0000
0000
0000
0101
0000
0000
0000
0001
0010
0001
0000
0010
0000
0100
0000
,
1000
1010
0010
1001
,
2000
0000
0001
0000
0001
0000
0001
3000
,
1000
0100
0010
0100
1000
0000
0000
0000
,
0001
0100
0010
0100
0001
0000
0000
0000
,
1000
0100
0010
0001
1000
0000
0000
0000
,
0001
1000
0010
1000
0001
0000
0000
0000
,
1000
0010
0100
0010
1000
0000
0000
0000
,
0001
0010
0100
0010
0001
0000
0000
0000
,
1000
0100
0010
0001
1000
0000
0000
0000
,
0001
0100
0010
0100
0001
0000
1000
0001
,
1001
0000
0000
0000
0001
0000
0010
0000
0000
0010
0000
0000
0100
0000
1000
0000
,
1001
0000
0002
0000
0043
0030
0400
0000
,
0000
0000
0000
0000
1300
0000
0010
0010
,
0200
0300
0000
0000
0002
0003
0000
0000
0020
0030
0000
0000
0200
0300
0000
0000
,
2200
3300
0000
0000
1000
0000
0001
0000
0000
0001
0000
0000
0010
0100
1000
0000
,
1001
0000
0002
0003
0400
0300
0040
0000
,
0000
0000
0000
0000
0130
0000
0001
0001
,
4000
3000
0000
0000
0400
0300
0000
0000
0040
0030
0000
0000
0400
0300
0000
0000
4000
3000
0000
0000
0004
0003
0000
0000
0400
0300
0000
0000
0040
0030
0000
0000
,
1001
0000
0000
0000
1000
0000
0100
0000
0000
0100
0000
0000
1000
0000
0010
0000
,
0110
0100
0100
0004
,
0000
0000
0000
0000
0000
0000
0013
0010
,
0200
0300
2000
3000
0020
0030
0200
0300
,
0101
0000
0000
0000
0001
0000
0010
0000
0000
0010
0000
0000
0100
0000
1000
0000
,
1001
0000
0000
0000
0001
0000
0000
0000
0001
0100
0001
0000
0400
0000
0000
0000
,
0000
0000
0000
0000
0000
0000
0310
0010
,
1000
0001
0010
0100
1000
0000
0000
0000
,
1001
0000
0001
0000
0100
0000
0001
0000
1000
0100
0000
0100
0000
1000
0001
0000
,
0010
0000
0100
0000
2000
0000
3000
0000
0001
0100
0000
0004
0003
1000
0000
0000
,
0001
0000
0010
0000
0200
0000
0300
0000
1000
0010
0000
0010
0000
0100
0001
0000
,
1000
0000
0100
0000
0020
0000
0030
0000
0001
0100
0040
0030
1000
0000
0001
0000
,
0010
0000
0100
0000
2000
0000
3000
0000
0001
0100
0000
0100
0000
0010
1000
0000
,
0001
0000
0010
0000
0200
0000
0300
0000
1000
0001
0000
0400
0300
0001
0000
0000
,
0010
0000
0100
0000
2000
0000
3000
0000
0010
0100
0000
0100
0001
1000
0100
0000
,
0020
0000
0000
0000
0000
0000
0000
0000
0000
0000
0000
0000
0000
0000
0000
0030
,
0001
0000
1000
0000
0200
0000
1300
0000
0001
0100
0000
0001
1000
0000
0001
0000
,
0010
0000
0100
0000
2000
0000
3010
0000
0100
0010
0000
0100
0001
0000
1000
0000
,
0100
0000
0010
0000
0002
0000
1003
0000
0010
1000
0000
0010
0100
0000
0001
0000
,
1000
0000
0100
0000
0020
0000
0031
0000
0100
0010
0000
0100
0001
0000
1000
0000
,
0001
0000
0010
0000
0200
0000
1300
0000
0010
0100
0000
0001
1000
0000
0001
0000
,
0010
0000
0100
0000
2000
0000
3001
0000
0100
0010
0000
0100
0001
0000
0010
0000
,
0100
0000
1000
0000
0020
0000
0130
0000
0001
0010
0000
0100
1000
0000
0001
0000
,
2000
3000
0000
0000
1000
0000
0000
0000
1000
0000
0000
0000
0001
0000
0000
0000
,
1001
0000
1000
0000
0200
0300
0010
0000
0100
1000
0000
0010
0100
0000
0010
0000
,
1000
0000
0001
0000
0020
0030
0100
0000
1000
0010
1000
0010
0100
0000
0001
0000
,
0011
0000
0010
0000
0200
0300
1000
0000
0001
0100
0000
0010
0100
0000
0001
0000
,
1000
0000
0001
0010
0200
0300
1000
0000
0010
0100
0001
0100
0001
0000
0010
0000
,
0110
0000
0100
0000
2000
3000
0001
0000
0010
0100
0000
1000
0001
0000
0100
0000
,
0010
0000
1000
0000
0200
0300
0010
0000
0001
1000
0001
1000
0010
0000
0100
0000
,
0002
0000
0000
0000
2003
3000
0000
0000
0001
0010
0000
0001
0010
0000
0100
0000
,
1000
0000
0001
0000
0200
0300
0000
0000
0010
0000
0100
0001
0100
0000
0001
0000
,
1001
0000
1000
0000
0020
0030
0100
0000
0001
1000
0000
0100
0010
0000
0001
0000
,
1000
0000
0010
0000
0200
0300
0001
0000
0010
0100
0000
1000
0001
0000
0001
0000
,
0010
0000
0100
0000
2000
3000
0010
0000
0100
0001
0000
0010
0100
0000
1000
0000
,
0001
0000
0100
0000
0020
0030
0000
0000
0100
0001
0000
1000
0000
0000
1000
0000
,
0010
0000
0010
0000
0200
0300
0001
0000
0010
0100
0000
1000
0010
0000
0100
0000
,
0001
0000
1000
0000
0200
0300
0010
0000
0001
1000
0001
0100
0010
0000
0100
0000
,
0001
0000
0010
0000
0200
0300
1000
0000
0010
0100
0000
0001
0010
0000
0100
0000
,
1000
0000
0001
0000
0200
0310
1000
0000
0001
0100
0000
0001
1000
0000
0100
0000
,
1100
0000
1000
0000
0020
0030
0100
0000
0001
0100
0000
0001
0010
0000
0100
0000
,
1000
0000
0010
0000
0200
0300
0001
0000
0010
0100
1000
0001
1000
0000
0010
0000
,
0110
0000
0100
0000
0002
0003
0010
0000
0100
1000
0000
0001
0100
0000
0010
0000
,
1000
0000
0002
0003
0020
0030
0100
0000
1000
0100
0000
1000
0001
0000
0101
0000
,
1001
0000
1000
0000
0020
0030
0100
0000
0001
1000
0000
0100
0010
0000
0100
0000
,
1000
0000
0010
0000
0200
0300
0001
0000
0010
0100
1000
0001
1000
0000
0010
0000
,
0200
0000
0301
0000
1000
0000
0001
0000
0010
0100
0000
1000
0001
0000
0100
0000
,
0101
0000
0000
1001
0000
0000
1100
0000
0000
0000
0100
0000
1000
0000
0001
0000
,
1001
1100
0110
0011
,
1001
0000
0000
0000
1010
0000
0000
0000
0010
0100
0001
0000
0100
0000
0100
0000
,
1001
0011
0110
1100
,
1001
0000
0000
0000
0101
0000
0000
0000
0100
0001
1000
0000
0100
0000
0100
0000
,
1001
0011
0110
1100
,
1001
0000
0000
0000
0101
0000
0000
0000
0100
0010
0000
0000
1010
0000
0000
0000
,
1000
0100
1000
0001
0010
0100
1000
0010
,
0400
0300
0004
0003
0040
0030
0400
0300
4000
3000
0004
0003
0000
0000
0000
0000
,
1001
1010
0110
0101
,
1001
0000
0000
0000
1100
0000
0000
0000
0100
0010
0001
0000
0010
0000
0010
0000
,
1100
0000
1001
0000
0101
0101
0000
0001
,
1001
0000
0000
1100
0000
0000
0000
0000
1001
0000
0000
0101
0000
0000
0100
0000
,
0110
0000
0000
0101
0000
0000
1001
0000
0000
1100
0000
0000
0100
0000
0000
0000
,
0020
0030
0000
0000
0000
0000
0000
0000
0002
0003
0000
0000
0000
0000
0000
0000
1000
0000
0010
0000
0100
0000
0000
0000
0001
0000
0000
0000
1000
0000
0000
0000
,
0100
1000
0010
0100
0001
0010
0100
1000
,
0002
1000
1000
1000
,
1003
0100
0010
0100
1000
0000
0000
0000
,
0001
0100
0010
0100
0001
0000
0000
0000
,
1000
0100
0010
0001
1000
0000
0000
0000
,
0001
1000
0010
1000
0001
0000
0000
0000
,
1000
0010
0100
0010
1000
0000
0000
0000
,
0001
0010
0100
0010
0001
0000
0000
0000
,
1000
0100
0010
0001
1000
0000
0000
0000
,
0001
0100
0010
0100
0001
0000
0010
0100
,
2000
0000
0000
0000
,
3000
0000
0000
0000
;
