#TITLE:Apex;
#SUBTITLE:;
#ARTIST:Ephexis;
#TITLETRANSLIT:;
#SUBTITLETRANSLIT:;
#ARTISTTRANSLIT:;
#CREDIT:;
#BANNER:;
#BACKGROUND:;
#LYRICSPATH:;
#CDTITLE:;
#MUSIC:Ephexis-Apex (Original) [Resist Music](1).mp3;
#OFFSET:-0.420;
#SAMPLESTART:100.000;
#SAMPLELENGTH:12.000;
#SELECTABLE:YES;
#BPMS:0.000=169.980,440.000=84.980,444.000=169.980,634.000=85.000,635.000=170.000,698.000=339.959,699.000=169.980,947.000=84.980,951.000=169.980;
#STOPS:698.000=0.180
;
#BGCHANGES:;
// cache tags:
#FIRSTBEAT:0.000;
#LASTBEAT:1217.000;
#SONGFILENAME:Songs/toune 5/Ephexis-Apex (Original) [Resist Music]/Ephexis-Apex (Original) [Resist Music].sm;
#HASMUSIC:1;
#HASBANNER:0;
#MUSICLENGTH:444.995;
// end cache tags

//---------------dance-single - ----------------
#NOTES:
     dance-single:
     :
     Hard:
     13:
     1.000,1.000,0.870,0.202,0.720,2703.000,387.000,90.000,0.000,3.000:
1000
1000
1000
1000
,
0001
0001
0001
0001
,
2000
0010
3100
0002
,
0010
0100
1000
0013
,
0100
1000
0001
0200
,
0001
1000
0001
0310
,
0002
1000
0010
0100
,
0023
0000
0100
0000
0001
0000
0130
0010
,
1001
0000
0000
0100
0000
0000
1000
0000
0000
0100
0000
0000
0010
0000
0000
0100
,
0000
0000
1000
0000
0000
0100
0000
0000
0110
0000
0000
1001
0000
0000
0001
1000
,
0100
0000
0000
0010
0000
0000
0010
0000
0000
0100
0000
0000
1000
0000
0000
0001
,
0000
0000
1000
0000
0000
0100
0000
0000
0110
0000
0000
1001
0000
0000
0001
1000
,
0100
0000
0000
0010
0000
0000
0001
0000
0000
0100
0000
0000
0001
0000
0000
1000
,
0000
0000
0010
0000
0000
1000
0000
0000
0010
0000
0000
0100
0000
0000
0001
1000
,
0010
0000
0000
0100
0000
0000
0010
0000
0000
1000
0000
0000
0100
0000
0000
0010
,
0000
0000
0001
0000
0000
0100
0000
0000
0010
0000
1000
0001
1000
0000
0000
0000
,
1001
0000
0000
0101
0000
0000
0011
0000
0000
1100
0000
0000
0110
0000
0000
1001
,
0000
0000
1100
0000
0000
0011
0000
0000
0110
0000
0000
0110
0000
0000
1000
0001
,
1001
0000
0000
0101
0000
0000
1010
0000
0000
0110
0000
0000
0101
0000
0000
1100
,
0000
0000
0011
0000
0000
0110
0000
0000
1001
0000
0000
1001
0000
0000
0001
0100
,
0101
0000
0000
1010
0000
0000
1001
0000
0000
0101
0000
0000
0011
0000
0000
1100
,
0000
0000
1001
0000
0000
0110
0000
0000
1100
0000
0000
1100
0000
0000
0001
1000
,
0110
0000
0000
1100
0000
0000
0011
0000
0000
0110
0000
0000
1001
0000
0000
0101
,
0000
0000
0011
0000
0000
1010
0000
0000
1001
0000
0101
0000
0000
1100
0000
0000
,
1001
0000
0000
0110
0000
0000
0011
0000
0000
1100
0000
0000
1010
0000
0000
0101
,
0000
0000
1001
0000
0000
0110
0000
0000
1100
0000
0000
0011
0000
0000
0010
0100
,
1001
0000
0000
1100
0000
0000
0011
0000
0000
0110
0000
0000
0101
0000
0000
0011
,
0000
0000
1100
0000
0000
1010
0000
0000
1001
0000
0000
0101
0000
0000
1000
0000
,
1010
1000
0010
0100
0001
0010
0100
1000
,
0100
0000
0001
0000
0100
0000
1000
0000
0001
0000
0100
0000
0001
1000
0001
1000
,
0001
0000
0000
1001
0000
0000
1001
0000
0000
1001
0000
0000
1001
0000
0000
1000
,
1200
0000
0300
0012
0000
0003
2001
0000
3000
0120
0000
0030
0000
0000
0000
0000
,
1000
0000
0100
1000
0000
1000
0100
0000
1000
0100
0000
0100
1000
0000
0001
0100
,
0000
0100
0001
0000
0100
0001
0000
0001
0100
0000
0100
0010
0000
0010
1000
0001
,
1000
0000
0001
0100
0000
0100
0001
0000
0100
0001
0000
0001
0100
0000
0010
1000
,
0000
1000
0010
0000
1000
0010
0000
0010
1000
0000
1000
0100
0000
0100
0010
0001
,
1000
0000
0010
0100
0000
0100
0010
0000
0100
0010
0000
0010
0100
0000
0001
0010
,
0000
0010
0001
0000
0001
0010
0000
0010
0001
0000
0001
0100
0000
0100
0010
0100
,
0001
0000
1000
0001
0000
0001
1000
0000
0001
1000
0000
1000
0001
0000
1000
0100
,
0000
0100
1000
0000
0100
1000
0000
1000
0100
0000
0100
0010
0000
0010
0001
1000
,
0100
0000
0010
0001
0000
0001
0010
0000
0001
0010
0000
0010
0001
0000
1000
0010
,
0000
0010
1000
0000
0010
1000
0000
1000
0010
0000
0010
0100
0000
0100
0001
1000
,
0001
0000
1000
0010
0000
0010
1000
0000
0010
1000
0000
1000
0010
0000
0100
0001
,
0000
0001
0100
0000
0001
0100
0000
0100
0001
0000
0001
0010
0000
0010
0100
1000
,
0001
0000
0100
0010
0000
0010
0100
0000
0010
0100
0000
0100
0010
0000
1000
0100
,
0000
0100
1000
0000
1000
0100
0000
0100
1000
0000
1000
0010
0000
0010
0100
0010
,
1000
0001
0100
0010
1000
0100
1000
0010
0100
0001
0010
0100
1000
0100
0010
0100
,
0000
0000
1000
0100
1000
0001
0010
0001
1000
0010
1000
0001
0100
0001
1000
0100
,
1000
1000
1100
0100
0010
0001
0011
0010
,
0100
0000
1000
0001
1000
0000
0010
0000
1000
0000
0001
0100
0001
0000
0001
0010
,
0001
1000
1001
0001
0100
0001
0101
0001
,
0100
0000
0001
0010
0001
0000
0010
0000
0100
0000
0010
0001
0010
0000
0010
0100
,
0010
0100
1100
1000
0010
0100
0101
0100
,
0010
0000
1000
0010
1000
0000
0010
0000
1000
0000
0001
1000
0001
0000
0001
0010
,
0001
1000
1100
0100
0010
0001
1001
0001
,
0100
0000
0010
0100
0010
0000
1000
0000
0001
0000
1000
0100
1000
0000
1000
0001
,
0010
0001
0101
0100
0010
1000
1010
0010
,
0100
0000
0001
1000
0001
0000
0010
0000
0001
0000
1000
0100
1000
0000
1000
0010
,
1000
0001
1001
1000
0100
1000
1100
1000
,
0100
0000
1000
0010
1000
0000
0010
0000
0100
0000
0010
1000
0010
0000
0010
0100
,
0010
0100
0101
0001
0010
0100
1100
0100
,
0010
0000
0001
0010
0001
0000
0010
0000
0001
0000
1000
0001
1000
0100
1000
0010
,
2000
3100
0000
1100
0000
0101
0000
0110
,
0010
0000
0110
0000
0000
0000
0100
0001
0010
0000
0100
1000
0010
0000
0100
0001
,
0020
0000
0100
0000
0000
0000
0100
0000
0000
0000
0100
0000
0030
0000
0001
1000
,
0200
0000
0010
0000
0000
0000
0010
0000
0000
0000
0010
0000
0300
0000
1000
0001
,
2000
0001
0000
0001
0000
0001
0000
0001
,
0000
0000
0001
0000
3000
0000
1000
0001
0100
0000
0001
0100
0010
0000
1000
0000
,
2100
0000
0001
0000
0000
0000
0001
0000
0000
0000
3001
0000
0000
0000
0001
1000
,
0002
0000
1000
0000
0000
0000
1000
0000
0000
0000
1003
0000
0000
0000
1000
0001
,
0200
0000
0010
0000
0000
0000
0010
0000
0320
0000
0100
0030
0010
0000
1000
0000
,
1100
0000
0101
0000
0110
0000
1001
1001
,
1001
0000
1000
0000
1100
0000
0100
0000
0010
0000
0001
0000
0011
0000
0010
0100
,
0010
0000
0100
0000
1100
0000
1000
0000
0010
0000
0100
0000
0101
0000
0001
1000
,
0001
0100
1010
0010
0100
0001
0101
0100
,
0010
0000
1000
0000
1010
0000
0010
1000
0001
0000
0001
1000
0100
0000
0100
1000
,
0010
1000
0010
1000
0001
0100
0001
0100
,
0001
0000
1000
0001
1000
0000
0001
0100
0001
0000
1000
0100
1000
0000
0010
0000
,
0100
0000
0001
0010
0100
1000
0100
2000
0010
3010
0100
0001
0010
0100
1000
0010
,
0100
0001
0100
0010
1000
0001
0010
0100
2000
0000
3001
0000
2000
0000
3010
0000
,
1001
0000
1000
0000
1100
0000
0100
0000
0010
0000
0001
0000
0011
0000
0010
0100
,
0010
0000
0100
0000
1100
0000
1000
0000
0010
0000
0100
0000
0110
0000
0010
1000
,
0010
1000
1001
0001
0010
0100
1001
0100
,
0010
0000
0100
0000
1001
0000
0100
0001
1000
0000
1000
0001
0010
0000
0010
0100
,
1000
0000
0001
0000
0101
0000
0100
0000
0010
0000
1000
0000
1010
0000
0100
0001
,
0100
0000
0010
0000
1001
0000
0100
0000
0001
0000
0010
0000
0011
0000
0001
1000
,
0001
0100
0101
0001
1000
0100
1100
1000
,
0100
0000
0010
0000
0011
0000
0001
0010
0001
0000
1000
0000
0101
0000
1001
0000
,
1100
0000
0100
0000
1100
0000
1000
0000
0010
0000
0100
0000
0101
0000
0001
1000
,
0001
0000
0010
0000
0110
0000
0100
0000
1000
0000
0001
0000
0101
0000
0100
0010
,
0100
0001
1001
0100
0010
0100
1001
0001
,
1000
0000
0100
0000
1100
0000
1000
0001
0100
0000
0100
0001
0010
0000
0010
0001
,
1000
0000
0100
0000
1001
0000
0010
0000
1000
0000
0001
0000
0101
0000
0100
0001
,
0100
0000
0010
0000
1010
0000
1000
0000
0100
0000
0010
0000
0011
0000
0001
1000
,
0001
0100
0110
0010
1000
0001
0101
0100
,
0010
0000
1000
0000
1010
0000
0010
0100
0010
0000
0100
0000
1010
0000
1001
0000
,
1001
0100
1001
0010
0100
0001
0101
0101
,
0010
1000
1001
0001
0100
0010
1010
1000
,
0001
0000
1000
0100
1000
0001
1000
0000
0110
0000
0001
0000
1000
0000
0100
0000
,
1001
0100
0001
1000
0110
0100
0101
1001
,
2010
0000
0100
3000
1000
0000
0001
0000
0101
0000
0001
0100
0010
0000
1010
0000
,
1100
0000
1001
0000
0011
0000
0010
0000
0100
0000
0010
0000
0011
0000
0001
1000
,
0001
0000
0100
0000
1010
0000
0010
0000
0100
0000
0001
0000
1001
0000
0010
0100
,
0010
0000
1000
0000
0001
0000
0100
0010
0000
0100
0010
1000
0001
0000
1000
0000
,
0011
0000
0110
0000
1000
0000
0001
0100
0010
0000
1000
0001
0000
0100
0000
0010
,
1000
1001
1100
1000
0100
0010
0011
0010
,
0100
0000
0010
0001
0010
0001
1000
0000
1100
0000
0010
0000
1000
0000
0001
0000
,
1001
1000
0001
0100
0110
0010
0110
0100
,
0110
0000
0010
1000
0000
0001
0000
0100
0001
0000
0010
0100
0000
1001
0000
1000
,
0100
0010
0001
1000
0010
0100
0001
0110
,
2002
0000
0000
0000
0000
0000
0000
0000
0000
0000
3003
0000
0000
0000
0001
0000
1000
0100
0000
0010
0000
0001
1000
0000
0010
0000
0010
0000
1000
0000
0100
0000
,
1001
0000
1000
0000
1100
0000
0100
0000
0010
0000
0001
0000
0011
0000
0010
0100
,
0010
0000
0100
0000
1100
0000
1000
0000
0010
0000
0100
0000
0110
0000
0010
1000
,
0010
1000
1001
0001
0010
0100
1001
0100
,
0010
0000
0100
0000
1001
0000
0100
0001
1000
0000
1000
0001
0010
0000
0010
0100
,
1000
0000
0001
0000
0101
0000
0100
0000
0010
0000
1000
0000
1010
0000
0100
0001
,
0100
0000
0010
0000
1001
0000
0100
0000
0001
0000
0010
0000
0011
0000
0001
1000
,
0001
0100
0101
0001
1000
0100
1100
1000
,
0100
0000
0010
0000
0011
0000
0001
0010
0001
0000
1000
0000
0101
0000
1001
0000
,
1100
0000
0100
0000
1100
0000
1000
0000
0010
0000
0100
0000
0101
0000
0001
1000
,
0001
0000
0010
0000
0110
0000
0100
0000
1000
0000
0001
0000
0101
0000
0100
0010
,
0100
0001
1001
0100
0010
0100
1001
0001
,
1000
0000
0100
0000
1100
0000
1000
0001
0100
0000
0100
0001
0010
0000
0010
0001
,
1000
0000
0100
0000
1001
0000
0010
0000
1000
0000
0001
0000
0101
0000
0100
0001
,
0100
0000
0010
0000
1010
0000
1000
0001
0000
0100
0010
1000
0001
0000
1001
0000
,
0001
0100
0110
0010
1000
0001
0101
0100
,
0010
0100
0001
1000
0001
0100
0010
0100
0001
1000
0001
0100
0010
1000
0001
1000
,
0100
0010
0001
0000
0101
0000
0100
0000
0010
0000
1000
0000
1010
0000
0010
0100
,
0010
0000
0100
0000
0101
0000
0001
0000
0010
0000
0100
0000
0110
0000
0010
0001
,
0010
0001
1001
1000
0010
0100
1001
0100
,
0010
0000
0100
0000
1001
0000
0100
1000
0001
0000
0001
1000
0010
0000
0010
0100
,
0001
0000
1000
0000
1100
0000
0100
0000
0010
0000
0001
0000
0011
0000
0100
1000
,
0100
0000
0010
0000
1001
0000
0100
0000
1000
0000
0010
0000
1010
0000
1000
0001
,
1000
0100
1100
1000
0001
0100
0101
0001
,
0100
0000
0010
0000
1010
0000
1000
0010
1000
0000
0001
0000
1100
0000
1001
0000
,
0101
0000
0100
0000
0101
0000
1000
0000
0010
0000
0100
0000
1100
0000
1000
0001
,
1000
0000
0010
0000
0110
0000
0100
0000
0001
0000
1000
0000
1100
0000
0100
0010
,
0100
1000
1001
0100
0010
0100
1001
1000
,
0001
0000
0100
0000
0101
0000
0001
1000
0100
1000
0001
0000
0010
0000
0010
0000
,
0001
0100
1001
0010
1000
0001
0101
0010
,
1001
0000
1010
0000
1000
0000
0001
0000
1001
0000
1000
0001
0100
0000
1001
0000
,
0100
0000
0100
0000
0001
0000
0100
0010
0100
0000
0010
1000
0000
0001
0000
0100
,
0010
0000
1000
0001
0000
0001
0010
0000
0100
0000
1000
0000
0101
0000
1001
0000
,
2002
0000
0000
3000
2000
0000
0000
0000
0000
0000
0000
0003
0002
0000
0000
0000
,
0000
0000
0000
3000
2000
0000
0000
0000
0000
0000
0000
0003
0002
0000
0000
0000
,
0000
0000
0000
3000
2000
0000
0000
0000
0000
0000
0000
0003
0002
0000
0000
0000
,
0000
0000
0000
3000
2000
0000
0000
0000
0000
0000
0000
0003
0002
0000
0000
3000
,
2003
0000
0000
3000
1200
0000
0000
0300
0020
0000
0000
0030
2001
0000
0000
3000
,
0002
0000
0000
0003
0010
0100
0020
0000
0000
0000
0100
0000
2000
0000
0000
0030
,
3002
2003
3200
0000
0011
0000
1300
0200
,
0000
0000
0010
0000
2300
0000
0100
0000
3200
0000
0010
0000
2300
0000
0100
3000
,
0110
0100
1001
0000
0001
0100
0101
0000
,
0010
1000
0010
0110
0000
0100
0100
0100
,
0010
1000
1001
0000
0010
0100
1100
0000
,
0010
0001
0100
0110
1000
0001
0001
0001
,
1000
0100
1001
0000
0001
0100
1001
0000
,
0010
0100
0010
0110
0000
1000
0001
0100
,
0020
1030
0020
0031
0020
0130
0020
0000
,
0000
0000
0000
0000
0000
0000
0000
0000
0200
0000
0000
0330
1001
0000
1000
0000
,
0100
0100
0010
0010
0001
0001
0100
0100
,
0010
1000
0020
0000
0100
0000
0100
0000
0100
0000
0130
0000
0010
0000
0010
0000
,
1000
1000
0001
0001
0100
0100
0010
0010
,
2000
3002
0010
0013
0200
1000
1000
1300
,
0001
0001
0010
0010
0100
0100
1000
1000
,
0001
0010
0002
0000
0010
0000
0010
0000
0010
0000
0013
0000
0100
0000
0100
0000
,
1000
1000
0010
0010
0100
0100
0001
0001
,
0010
0020
0100
0100
0100
0130
1001
0001
,
0100
0100
0010
0010
1000
1000
0001
0001
,
1000
0100
2000
0000
0100
0000
0100
0000
0100
0000
3100
0000
1000
0000
1000
0000
,
0001
0001
0010
0010
0001
0001
0100
0100
,
0010
0020
0100
2030
0100
3100
0010
0010
,
0100
0100
1000
1000
0001
0001
0100
0100
,
0010
1000
0020
0000
0100
0000
0100
0000
0100
0000
0130
0000
1001
0000
0000
0000
,
0011
0000
0000
0001
1100
0000
0000
0000
1001
0000
1000
0100
0010
0001
0010
0001
,
0010
0001
0100
0010
0000
0010
1000
0001
0100
0000
0000
0000
1001
0001
1000
0000
,
0001
0010
0001
0000
0100
0001
0100
0000
0010
1000
0010
0000
0100
0010
0100
0000
,
0010
1000
0010
0100
0000
0100
0001
0000
1000
0100
0010
0000
0011
0000
0010
0000
,
1100
0000
0100
0010
0001
0010
0100
0010
0001
0000
1000
0001
0100
0000
0010
0000
,
1000
0001
1000
0000
0001
0100
0001
0000
0010
0001
0010
0000
1001
0000
0100
0000
,
0010
1000
0000
1000
0010
0000
0100
0000
0001
1000
0001
0000
1000
0100
1000
0000
,
0001
1000
0000
1000
0000
0100
0010
0000
0001
0010
0100
0000
1100
0000
0010
0000
,
1100
0000
0001
1000
0001
0000
0100
0000
0002
0000
0100
0000
0010
0000
0010
0000
,
0010
0003
0020
0000
0001
0000
0100
0000
0002
0030
0013
0000
1001
0100
0010
0000
,
0100
0001
0100
0000
0001
0010
0001
0000
1000
0100
0000
1000
0001
0000
0100
0000
,
0010
1000
0200
0000
1000
0000
1000
0000
1000
0000
1000
0300
0100
0000
0100
0000
,
0020
0000
0001
0000
0031
0000
0100
0000
0020
0000
0100
0000
0130
0001
0100
0000
,
0010
0100
0000
0100
0000
0001
0100
0000
0010
1000
0100
0000
0010
0001
0010
0100
,
1000
0100
1000
0010
1000
0001
0100
0001
1000
0001
1000
0010
0100
0010
1000
0100
,
1000
0001
0010
0001
0100
0001
0100
0010
1000
0010
0100
0010
0200
0000
0000
0000
,
0320
0000
0000
0000
1030
0010
0100
0001
1000
0010
0100
0001
0020
0000
0000
0000
,
0230
0000
0000
0000
0000
0000
0000
0000
0000
0000
0000
0000
0000
0000
0000
0000
2300
0000
0000
0000
0000
0000
0000
0000
0000
0000
0000
0000
0000
0000
0000
0000
3002
0000
0000
0000
0000
0000
0000
0000
0000
0000
0000
0000
0000
0000
0000
0000
2203
3300
0000
0000
0000
0000
0000
0000
0000
0000
0000
0000
0000
0000
0000
0000
,
1001
1000
0010
0010
0100
0100
0001
0001
,
1000
0100
2000
0000
0001
0000
0001
0000
0001
0000
3001
0000
1001
0000
0100
0010
,
0200
0000
0000
0310
1000
0010
0100
0001
2000
0000
0000
0000
3002
0000
1003
0100
,
1000
0000
0001
0000
1000
0100
1000
0000
0001
0100
0001
0000
0010
0000
0010
0000
,
0100
0100
1000
1000
0010
0010
0100
0100
,
0001
0000
0002
0000
1000
0000
0203
0000
0010
0000
0010
0300
1002
0000
0000
0000
,
1000
0003
1100
0000
0100
0000
0100
0000
1001
0000
0100
0000
0101
0000
1000
0000
,
0010
1100
0010
1000
1010
0000
1000
1000
,
0001
0001
0010
0010
0100
0100
0010
0010
,
0001
0010
0002
0000
0010
0000
0010
0000
0010
0000
0010
0003
1001
0000
0000
0000
,
1100
0000
1000
0000
0001
0010
0001
0010
0200
0000
1000
0300
1001
0000
1000
0000
,
0010
0000
0100
0000
0001
0000
1000
0000
0100
0010
0100
0000
0010
0100
0010
0100
,
1000
0100
1000
0001
1000
0010
0100
0010
1000
0001
1000
0001
0100
0001
0010
0100
,
0010
0100
1000
0100
0010
0001
0010
0100
0010
0100
1000
0001
1000
0010
1000
0010
,
0100
0000
0000
0001
0000
0000
0100
0000
0000
0001
0000
0000
1000
0000
0000
0001
0000
0000
1000
0000
0000
0100
0000
0000
1000
0000
0000
0100
0000
0000
0010
0000
0100
0000
0010
0000
0200
0000
0000
0000
0000
0000
0000
0000
0000
0000
0000
0000
,
0000
0000
1301
0000
0100
0100
1001
1000
,
1100
0000
0100
0000
0010
0000
0001
0000
0011
0000
0010
0100
0010
0000
0100
0000
,
1100
0000
1000
0000
0010
0000
0100
0000
0110
0000
0010
1000
0010
0000
1000
0000
,
1001
0001
0010
0100
1001
0100
0010
0100
,
1001
0000
0100
0001
1000
0000
1000
0001
0010
0000
0010
0100
1000
0000
0001
0000
,
0101
0000
0100
0000
0010
0000
1000
0000
1010
0000
0100
0001
0100
0000
0010
0000
,
1001
0000
0100
0000
0001
0000
0010
0000
0011
0000
0001
1000
0001
0000
0100
0000
,
0101
0001
1000
0100
1100
1000
0100
0010
,
0011
0000
0001
0010
0001
0000
1000
0000
0101
0000
1001
0000
1100
0000
0100
0000
,
1100
0000
1000
0000
0010
0000
0100
0000
0101
0000
0001
1000
0001
0000
0010
0000
,
0110
0000
0100
0000
1000
0000
0001
0000
0101
0000
0100
0010
0100
0000
0001
0000
,
1001
0100
0010
0100
1001
0001
1000
0100
,
1100
0000
1000
0001
0100
0000
0100
0001
0010
0000
0010
0001
1000
0000
0100
0000
,
1001
0000
0010
0000
1000
0000
0001
0000
0101
0000
0100
0001
0100
0000
0010
0000
,
1010
0000
1000
0000
0100
0000
0010
0000
0011
0000
0001
1000
0001
0000
0100
0000
,
0110
0010
1000
0001
0101
0100
0010
1000
,
1010
0000
0010
0100
0010
0000
0100
0000
1010
0000
1001
0000
1001
0000
0100
0000
,
1001
0010
0100
0001
0101
0101
0010
1000
,
1001
0000
0001
0000
0100
0000
0010
0000
1010
0000
1000
0000
0001
0000
1000
0100
,
1000
0001
1000
0000
0110
0000
0001
0000
1000
0000
0100
0000
1001
0000
0100
0000
,
0001
0000
1000
0000
0110
0000
0100
0000
0101
0000
1001
0000
2010
0000
0100
3000
,
1000
0000
0001
0000
0101
0000
0001
0100
0010
0000
1010
0000
1100
0000
1001
0000
,
0011
0000
0010
0000
0100
0000
0010
0000
0011
0000
0001
1000
0001
0000
0100
0000
,
1010
0000
0010
0000
0100
0000
0001
0000
1001
0000
0010
0100
0010
0000
1000
0000
,
0001
0000
0100
0010
0000
0100
0010
1000
0001
0000
1000
0000
0011
0000
0110
0000
,
1000
0000
0001
0100
0010
0000
1000
0001
0000
0000
0000
0000
1100
0000
1001
0000
,
0000
0000
1000
0000
0100
0000
0000
0000
0011
0000
0000
0000
0100
0000
0010
0001
,
0010
0001
1000
0000
1100
0000
0000
0000
1000
0000
0001
0000
1001
0000
0000
0000
,
0001
0000
0100
0000
0110
0000
0000
0000
0110
0000
0000
0000
0110
0000
0010
1000
,
0000
0001
0000
0100
0001
0000
0010
0100
0000
1001
0000
0000
0100
0000
0010
0000
,
0001
0000
0000
0000
1000
0000
0000
0000
0010
0000
0000
0000
0100
0000
0000
0000
0001
0000
0000
0000
0001
0000
0000
0000
1000
0001
1000
0000
0001
0100
0001
0100
,
0000
0010
0000
1000
0010
1000
0010
0000
0100
0001
0100
0000
0010
1000
0100
0010
0001
0000
0100
0000
0010
0000
1000
0000
0010
0000
0000
0000
1000
0000
0000
0000
,
0001
0100
0001
0010
0000
0010
0000
0100
1000
0100
1000
0000
0001
0000
1000
0000
,
0001
0010
0100
1000
0000
1000
0000
0010
0100
0010
0100
0000
0010
0000
1000
0000
,
0001
1000
0100
1000
0000
1000
0000
0010
0100
0001
1000
0000
0100
0000
0010
0000
,
0001
1000
0001
0100
0010
0000
1000
0000
1001
0000
0010
0000
1010
0000
1000
0000
,
0001
1000
0010
0100
0000
0100
0000
0001
0010
0100
1000
0000
0001
0000
0100
0000
,
0010
1000
0010
0100
0000
0100
0000
0010
1000
0001
0100
0000
0001
0000
0010
0000
,
0100
1000
0100
0010
0000
0010
0000
0001
0010
0100
1000
0000
0001
0000
0100
0000
,
0010
1000
0001
0010
0100
0000
1000
0000
1001
0000
0001
0000
0101
0000
0100
0000
,
0010
1000
0001
0100
0000
0100
0000
0010
1000
0001
0010
0000
0100
0000
1000
0000
,
0001
0100
0010
0100
0000
0100
0000
0010
0100
0010
1000
0000
0001
0000
0100
0000
,
0010
1000
0001
0100
0000
0100
0000
0001
1000
0001
0100
0000
0010
0000
0010
0000
,
1000
0100
0010
0001
1000
0000
0001
0000
0101
0000
0010
0000
1001
0000
0100
0000
,
0010
0100
1000
0010
0000
0010
0000
0100
0001
1000
0001
0000
0010
0000
0100
0000
,
1000
0001
0100
0010
0000
0010
0000
1000
0010
0100
0001
0000
1000
0000
0001
0000
,
0010
0100
0010
0001
0000
0001
0000
1000
0100
0010
0001
0000
1000
0000
0010
0000
,
0100
0001
1100
1000
1010
1000
1001
0001
,
0010
0100
1000
0001
0000
0001
0000
0100
0010
0100
0001
0000
1000
0000
0001
0000
,
0100
0010
1000
0010
0000
0010
0000
0100
0001
1000
0100
0000
0010
0000
0001
0010
,
0001
0010
0100
0000
1000
0000
0010
0000
0100
0001
1000
0100
0010
0000
0001
0000
,
0100
0010
1001
1000
1010
0100
0011
0001
,
0100
0001
0100
0010
0000
0010
0000
1000
0001
0100
0001
0000
0010
0000
0100
0000
,
1000
0100
0010
0001
0000
0001
0000
1000
0100
0010
0001
0000
0100
0000
0010
0000
,
1000
0001
0100
0010
0000
0010
0000
0100
0001
0010
0100
0010
0100
0000
1000
0000
,
1001
0000
0001
0100
0000
0010
0100
0010
0100
0000
0010
0000
1010
0000
0100
0000
,
0010
0000
1000
0001
0100
0000
0010
1000
0000
1000
0000
0001
0100
0010
1000
0000
,
1000
0000
0010
0000
1000
0010
0100
0001
0000
0001
0000
0010
0100
0000
1001
0000
,
0001
0010
0001
0010
0000
0010
0000
0100
1000
0100
0010
0000
1001
0000
1000
0100
,
1000
0100
0010
0000
0011
0000
0100
0000
1100
0000
0010
0000
0101
0000
1001
0000
,
1010
0000
0101
0000
0110
0000
0011
0000
1001
0000
0101
0000
0010
0100
0001
1000
,
0100
0010
0001
1000
0001
0100
0010
0100
0001
1000
0010
0100
0002
1000
1003
0001
,
1000
0100
1000
0001
0010
0001
1000
0010
1000
0001
0100
0001
0010
0100
0010
0001
,
1000
0001
0100
0010
0100
0001
1000
0001
0100
0010
1000
0001
0010
0000
0001
0000
,
0011
0000
0010
0000
0100
0000
1000
0000
1100
0000
0100
0000
0010
0000
0001
1000
,
0001
0000
0100
0000
0001
0000
1000
0010
1000
0000
1000
0100
1000
0000
0001
0000
,
1001
0000
1000
0000
0010
0000
1000
0000
1010
0000
1000
0000
0010
0000
1000
0100
,
1000
0000
0100
0000
0010
0000
0100
1000
0100
0000
0100
0010
0100
0000
0010
0000
,
0011
0000
0001
0000
0100
0000
0010
0000
1010
0000
0010
0000
0100
0000
0001
0100
,
0001
0000
0100
0000
0001
0000
1000
0001
1000
0000
1000
0100
1000
0000
0001
0000
,
0011
0000
0010
0000
0100
0000
1000
0000
1001
0000
1000
0000
0010
0000
0100
0010
,
0100
0000
0001
0000
1000
0000
0001
0010
0001
0000
0001
1000
0100
0000
1000
0000
,
1010
0000
0010
0000
0100
0000
0001
0000
0101
0000
0100
0000
0010
0000
1000
0001
,
1000
0000
0100
0000
1000
0000
0001
0010
0001
0000
0001
0100
0001
0000
1000
0000
,
1001
0000
0001
0000
0010
0000
0001
0000
0011
0000
0001
0000
0010
0000
0001
0100
,
0001
0000
0100
0000
0010
0000
0100
0001
0100
0000
0100
0010
0100
0000
0010
0000
,
1010
0000
1000
0000
0100
0000
0010
0000
0011
0000
0010
0000
0100
0000
1000
0100
,
1000
0000
0100
0000
1000
0000
0001
1000
0001
0000
0001
0100
0001
0000
1000
0000
,
0010
0100
0001
1000
0001
0010
0100
1000
,
0100
0000
0010
0000
1001
0000
0000
0000
0110
0000
0000
0000
1000
0001
0100
0000
,
0010
0000
1000
0000
0001
0000
0010
0000
0100
1000
0001
0000
0010
0000
0100
0000
,
1000
0000
0001
0000
0010
0000
0100
0000
1000
0000
0100
0000
0010
0001
0100
0000
,
0010
0000
1000
0000
0001
0000
0100
0000
0010
1000
0100
0000
0010
0000
0001
0000
,
1000
0000
0010
1000
0000
0001
0100
0001
1000
0000
0010
0000
0100
0001
1000
0000
,
0010
0000
0100
0000
0001
0000
0010
0000
0100
0010
0001
0000
0010
0000
0100
0000
,
1000
0000
0010
0000
0100
0000
0010
0000
0100
0000
0001
0000
1000
0100
0010
0000
,
0001
0000
0100
0000
0001
0000
0010
0000
0100
1000
0010
0100
0001
0000
1000
0000
,
1000
0000
0001
0010
0000
0100
1000
0100
0010
0000
0011
0000
0001
0010
0100
0000
,
1000
0000
0010
0000
0100
0000
0001
0000
1000
0001
0100
0000
0010
0000
1000
0000
,
0001
0000
0010
0000
0100
0000
1000
0000
0001
0000
0100
0000
0010
0100
0001
0000
,
0010
0000
0100
0000
1000
0000
0001
0000
0100
0010
1000
0000
0001
0000
0010
0000
,
0100
0000
0010
0001
0000
0001
0100
0010
0100
0000
1010
0000
0100
0001
1000
0000
,
0010
0000
1000
0000
0001
0000
0010
0000
0100
1000
0010
0000
0100
0000
0001
0000
,
1000
0000
0010
0000
0100
0000
0001
0000
1000
0000
0010
0000
0100
0001
0010
0001
,
0100
0010
1000
0001
0100
0010
0100
0001
1000
0100
0010
0001
1000
0000
0010
0000
,
0100
0001
1000
0100
0010
0001
2002
0000
,
0000
0000
0000
0000
,
0000
0000
0000
0000
,
0000
3003
0000
0000
;
