#TITLE:Bangin' Burst;
#SUBTITLE:;
#ARTIST:かめりあ;
#TITLETRANSLIT:;
#SUBTITLETRANSLIT:;
#ARTISTTRANSLIT:Camellia;
#CREDIT:;
#BANNER:bangin' bn.png;
#BACKGROUND:bangin' bg.png;
#LYRICSPATH:;
#CDTITLE:;
#MUSIC:Bangin' Burst.ogg;
#OFFSET:0.778;
#SAMPLESTART:49.466;
#SAMPLELENGTH:12.000;
#SELECTABLE:YES;
#BPMS:0.000=234.000;
#STOPS:;
#BGCHANGES:;
// cache tags:
#FIRSTBEAT:3.250;
#LASTBEAT:460.000;
#SONGFILENAME:Songs/SPEEEDCOOOORE 4/Bangin Burst - [Aoreo]/Bangin' Burst.sm;
#HASMUSIC:1;
#HASBANNER:1;
#MUSICLENGTH:119.205;
// end cache tags

//---------------dance-single - TechniJawn----------------
#NOTES:
     dance-single:
     TechniJawn:
     Edit:
     14:
     1.000,1.000,0.428,0.344,0.990,1048.000,51.000,41.000,11.000,0.000:
0000
0000
0000
0000
0000
0000
0000
0000
0000
0000
0000
0000
0000
0002
0000
0003
,
1001
0000
1000
0001
1000
0100
0010
0000
0000
0000
0001
0000
0100
0000
0100
0000
,
0001
1000
1000
0010
0100
0100
0001
1000
,
1010
0110
0101
0001
0000
1000
0100
0000
,
0010
0100
1000
0010
0100
0101
0001
0010
,
0110
0000
0100
1000
0001
0100
0001
0000
0000
0000
1000
0000
0010
0000
0000
0000
,
0101
0000
0000
0000
0001
0000
1000
0000
0000
0000
0001
0010
0100
0000
1000
0000
,
1001
0000
0001
0000
0100
0001
0100
0001
0010
0000
0100
0000
1000
0010
1000
0010
,
0200
0000
0000
0000
0000
0000
0000
0000
0000
0000
0000
0300
0000
0000
0000
0000
,
0001
0000
0100
0000
0001
0000
1000
0000
0100
0000
0010
0000
0001
0000
1000
0010
,
1000
0000
0001
0000
0100
0000
0001
0010
0100
0000
1000
0000
0001
1000
0001
0100
,
0010
0000
1000
0000
0100
0000
0010
0000
0100
0000
1000
0000
0010
0000
0100
0001
,
4000
3000
0001
0010
0100
0000
4000
3000
0010
0100
0001
0000
1000
0000
0100
0000
,
1000
0000
0001
0000
0010
0000
0100
0000
1000
0000
0001
0000
0100
0000
0001
1000
,
0001
0000
0010
0000
0100
0000
1000
0001
0100
0000
0001
0000
0010
0100
1000
0001
,
0200
0000
0000
0000
0301
0000
1000
0000
0100
0000
0100
0000
0010
0001
1000
0001
,
0100
0000
0000
0000
0000
0000
0000
0000
0000
0000
0000
0000
0000
0000
0000
0000
0000
0000
0000
0000
0000
0000
0000
0000
0000
0200
0000
0000
0000
0000
0000
0000
0000
0000
0000
0000
0000
0000
0000
0000
0000
0000
0000
0000
0000
0000
0000
0000
0301
0000
0000
0000
0000
0000
0000
0000
0000
0000
0000
0000
1000
0000
0000
0000
0000
0000
0000
0000
0000
0000
0000
0000
0001
0000
0000
0000
0000
0000
0000
0000
0000
0000
0000
0000
0010
0000
0000
0000
0000
0000
0000
0000
0000
0000
0000
0000
0100
0000
0000
0000
0000
0000
0000
0000
0000
0000
0000
0000
0000
1000
0000
0000
0000
0000
0000
0000
0000
0000
0000
0000
0000
0100
0000
0000
0000
0000
0000
0000
0000
0000
0000
0000
0000
0010
0000
0000
0000
0000
0000
0000
0000
0000
0000
0000
0000
0001
0000
0000
0000
0000
0000
0000
0000
0000
0000
0000
0000
0000
0000
0000
0000
0000
0000
0000
0000
0000
0000
0000
0000
1000
0000
0000
0000
0000
0000
0000
0000
0000
0000
0000
0000
0000
0000
0000
0000
0000
0000
0000
0000
0000
0000
0000
,
2002
0000
0003
3000
0001
0000
0100
0000
0001
0000
0010
0000
0100
0000
1000
0010
,
0100
0000
0001
0000
1000
0000
0001
0100
0010
0000
1000
0000
0100
0010
0001
1000
,
0001
0000
0101
0000
0110
0000
1010
0000
1100
0000
0110
0000
,
MM22
0033
0000
0000
0000
0000
2MM2
3003
0000
0000
0000
0000
2M2M
3030
0000
0000
0000
0000
M22M
0330
0000
0000
0000
0000
0100
0000
0000
0000
0100
0000
0000
0000
,
0001
0000
0100
0000
0001
1000
0000
0001
0100
0000
0010
0000
1000
0000
0100
0010
,
0001
0000
1000
0000
0001
0000
1000
0010
0100
0000
0001
0000
0010
0100
1000
0001
,
2000
0000
3000
0000
0000
0000
2002
0000
3003
0000
0000
0000
0001
0000
0000
0001
0000
0000
0010
0000
0000
0010
0000
0000
,
0100
0000
0000
0000
0000
0000
0000
0000
0000
0000
0000
0000
1000
0000
0000
0000
0000
0000
0000
0000
0000
0000
0000
0000
0001
0000
0000
0000
0000
0000
0000
0000
0000
0000
0000
0000
0100
0000
0000
0000
0000
0000
0000
0000
0000
0000
0000
0000
0001
0000
0000
0000
0000
0000
0000
0000
0000
0000
0000
0000
0000
0000
0000
0000
0000
0000
0000
0000
0000
0000
0000
0000
0100
0000
0000
0000
0000
0000
0000
0000
0000
0000
0000
0000
0000
0000
0000
0000
0000
0000
0000
0000
0000
0000
0000
0000
0000
0010
0000
0000
0000
0000
0000
0000
0000
0000
0000
0000
0000
0000
0000
0000
0000
0000
0000
0000
0000
0000
0000
0000
0000
1000
0000
0000
0000
0000
0000
0000
0000
0000
0000
0000
0000
0000
0000
0000
0000
0000
0000
0000
0000
0000
0000
0000
0000
0001
0000
0000
0000
0000
0000
0000
0000
0000
0000
0000
0000
0100
0000
0000
0000
0000
0000
0000
0000
0000
0000
0000
0000
0001
0000
0000
0000
0000
0000
0000
0000
0000
0000
0000
0000
0100
0000
0000
0000
0000
0000
0000
0000
0000
0000
0000
,
0010
0000
1000
0000
0001
0000
0100
0001
0100
0000
0001
0000
0010
0000
0100
1000
,
0010
0000
0100
0001
0010
0000
0100
0000
1000
0000
0000
0000
1000
0000
0000
0000
,
0101
0000
0001
0000
0010
0000
0100
1000
0001
0000
0100
0000
0010
0000
1000
0010
,
1000
0000
0000
0000
0000
0000
0001
0000
0000
0100
0000
0000
0001
0000
0000
0000
0010
0000
0000
0000
0100
0000
0000
0000
1000
0000
0000
0000
0000
0000
0000
0000
0000
0000
0000
0000
1000
0000
0000
0000
0000
0000
0000
0000
0000
0000
0000
0000
,
0101
0000
0000
0001
0000
0000
0010
0000
0000
0100
0000
0000
1000
0000
0010
0000
0100
0000
0001
0000
0010
0000
0100
0000
,
1000
0000
1010
0000
0110
0000
0101
0000
0000
0001
0000
0000
,
1000
0100
1000
0001
0010
0000
0100
0000
1000
0000
0001
0100
0001
0000
0010
0000
,
0200
0000
0000
0000
0000
0000
0000
0000
0300
0000
0000
0000
1000
0001
1000
0100
,
0010
0001
0001
0100
0010
0010
1000
0100
,
0010
0000
0001
0000
0001
0000
1000
0010
0100
0000
0010
0000
0100
0000
0001
0000
,
0010
0100
0100
1000
0010
0010
1000
0100
,
0010
0000
0000
0000
0001
0000
0000
0000
0001
0000
0010
0000
0100
0000
1000
0000
002M
0030
0000
0000
1000
0000
0000
0000
020M
0300
0000
0000
1000
0000
0000
0000
,
002M
0030
0000
0000
0100
0000
0000
0000
0100
0000
0000
0000
0001
0000
0000
0000
0010
0000
0000
0000
0010
0000
0000
0000
0100
0000
0000
0000
1000
0000
0000
0000
,
0001
0000
0100
0000
0100
0000
0001
1000
0001
0000
0010
0000
0100
0000
1000
0000
,
2200
3300
0000
0000
0000
0000
2002
3003
0000
0000
0000
0000
0202
0303
0000
0000
,
0000
0000
0220
0330
0000
0000
0000
0000
2020
0000
0000
0000
0000
0000
0000
3030
,
1000
0001
0010
0100
1100
1000
0010
0100
,
0101
0000
0000
0000
1001
0000
1000
0010
0100
0000
0001
0000
0010
0000
0100
0000
,
1100
1000
0001
0100
0110
0010
1000
1001
,
0001
0000
1010
0000
1000
0000
0001
0010
0100
0000
1000
0000
0001
0000
1000
0000
,
1010
0010
0100
0001
1001
1000
0100
0010
,
0011
0000
0000
0000
1001
0000
1000
0001
0100
0000
0010
0000
1000
0000
0100
0000
,
1000
0001
1000
0100
0010
0001
1000
0001
0100
0010
0100
0001
1000
0100
0010
0001
,
2000
0000
0000
0000
0000
0000
0000
3000
,
0001
0000
0001
0010
0100
0000
1000
0000
1000
0100
0010
0000
0001
0000
0100
0000
,
0001
0010
0100
1000
0010
0100
0001
1000
,
0010
0000
0010
0100
0001
0000
1000
0000
1000
0100
0010
0000
0001
0000
1000
0000
,
1000
0010
0100
0000
0010
0000
0001
0000
0010
0000
1000
0000
0100
0000
0010
0000
,
0001
0000
0001
1000
0010
0000
1000
0000
1000
0010
0100
0000
0001
0000
0010
0000
,
0100
1000
0010
0100
0001
1000
0010
0100
,
0001
0000
0001
0010
0100
0000
1000
0000
1000
0010
0100
0000
0001
0000
1000
0000
,
1000
0010
0100
0001
1000
0100
0010
0001
1000
0000
0010
0000
0100
0000
0010
0000
,
1000
0000
1000
0001
0100
0000
0001
0000
0001
0010
0100
0000
1000
0000
0010
0000
,
0100
0000
0001
0000
0010
0000
0100
0000
1000
0000
2000
3000
0001
0000
0002
0003
,
0100
0000
0100
0001
0010
0000
0100
0000
0100
1000
0010
0000
0100
0000
0001
0000
,
0001
1000
0010
0000
0100
0000
1000
0000
0100
0000
0100
0000
0010
0000
1000
0000
,
0001
0000
0001
1000
0010
0000
1000
0000
1000
0100
0010
0000
0001
0000
0100
0000
,
0010
0000
0100
0000
0001
0000
1000
0000
0001
0000
0001
0010
0100
0000
1000
0000
,
0010
0000
0100
0000
0010
0000
1000
0000
0001
0100
0001
0000
0010
0000
0100
0000
,
1000
0001
1000
0100
0010
0000
0001
0000
1000
0001
1000
0000
0002
0000
0003
0000
,
0100
0000
0100
1000
0001
0000
0010
0000
0010
1000
0001
0000
0100
0000
0010
0000
,
0100
0001
0010
0100
1000
0001
1000
0010
,
0100
0000
0100
1000
0001
0000
0010
0000
0010
1000
0001
0000
0100
0000
0010
0000
,
0100
0001
0010
0100
0010
0001
0100
0010
,
0100
0000
0100
1000
0001
0000
0010
0000
0010
1000
0001
0000
1000
0000
0100
0000
,
0010
0100
1000
0010
0100
0010
1000
0100
,
0010
0000
0010
1000
0001
0000
0100
0000
0100
1000
0001
0000
1000
0000
0001
0010
,
0100
0000
0000
1100
0000
0000
1001
0000
0000
0000
0001
0000
0001
0000
0100
0010
,
1000
0000
1000
0100
0010
0000
0001
0000
0001
0100
0010
0000
1000
0000
0100
0000
,
0010
0001
0100
0010
0100
0001
0010
0100
,
1000
0000
1000
0010
0100
0000
0001
0000
0001
0010
0100
0000
1000
0000
0010
0000
,
0100
0001
0010
0001
0100
0001
0010
0100
,
1000
0000
1000
0010
0100
0000
0001
0000
0001
0100
0010
0000
1000
0000
0001
0000
,
1000
0100
0010
0001
1000
0010
0100
0001
,
1000
0001
1000
0010
0100
0010
1000
0001
1000
0100
0010
0001
1000
0001
0100
0010
,
1000
0001
0100
0001
1000
0100
0010
0001
1000
0001
0010
0100
0010
0001
1000
0001
,
0100
0000
0100
0001
1000
0000
0001
0000
0001
0100
0010
0000
1000
0000
0001
0000
,
0010
0000
0100
0000
0010
0000
0100
0000
1000
0000
0001
0000
1000
0000
0010
1000
,
0100
0000
0100
0010
0001
0000
1000
0000
1000
0010
0100
0000
0001
1000
0001
0010
,
0100
0000
1000
0000
0001
0000
0100
0001
0100
0000
0001
0000
0010
0100
1000
0001
,
0100
0000
0100
0001
1000
0000
0001
0000
0010
0000
0100
0000
0010
0000
0100
0000
,
1000
0000
1000
0010
0100
0000
0001
0000
4000
3000
0001
0100
0001
0000
0040
0030
,
0100
0000
0100
1000
0001
0000
0001
0000
1000
0000
1000
0000
0001
0100
0001
1000
,
0010
0000
0100
0000
0010
0000
0100
0000
0001
1000
0001
0000
0010
0000
0100
0000
,
1000
0000
1000
0010
0100
0000
0001
0000
0001
0100
0010
0000
1000
0000
0100
0010
,
0001
0000
1000
0000
0010
0000
0100
0001
1000
0000
0001
0000
1000
0010
1000
0001
,
0010
0000
0010
0100
1000
0000
0001
0000
0001
0100
0010
0000
1000
0000
1000
0100
,
0010
0001
1000
0000
0002
0000
1003
0010
1000
0000
0100
0000
0010
0000
0100
0000
,
0010
0000
0010
0001
1000
0000
0001
0000
0001
1000
0010
0000
1000
0000
1000
0001
,
0100
0000
0001
0000
0010
0000
0100
1000
0001
0000
1000
0000
0001
0100
0001
1000
,
0100
0000
0100
0010
0001
0000
1000
0000
1000
0010
0100
0000
0001
0000
0001
0010
,
0100
0000
0000
1000
0000
0000
0001
0000
0000
0000
0000
0000
1000
0000
0000
0000
0000
0000
0001
0000
0000
0100
0000
0000
0002
0000
0000
0000
0000
0000
0000
0000
0000
0000
0000
0000
0000
0000
0000
0000
0000
0000
0000
0000
0000
0000
0000
0003
,
1000
0000
1000
0010
0100
0000
0001
0000
0001
0010
0100
0000
1000
0000
0001
0100
,
0010
0000
0000
0000
0000
0000
1000
0000
0000
0000
0000
0000
0100
0000
0000
0000
0000
0000
0010
0000
0000
0000
0000
0000
0002
0000
0000
0000
0000
0000
0000
0000
0000
0000
0000
0000
0000
0000
0000
0000
0000
0000
0000
0000
0000
0000
0000
0003
,
1000
0000
1000
0001
0100
0000
0001
0000
0001
1000
0010
0000
1000
0000
0001
1000
,
0001
0010
0100
1000
0010
0000
1000
0100
0010
0000
0001
0100
0010
0000
1000
0100
,
0010
0000
0010
0001
1000
0000
0001
0000
0001
1000
0010
0000
1000
0000
0001
1000
,
0001
0000
0000
0100
0000
0000
0010
0000
0000
0100
0000
0000
0001
0000
0000
1000
0000
0000
0100
0000
0000
0010
0000
0000
0002
0000
0000
0000
0000
0000
0000
0000
0000
0000
0000
0000
0000
0000
0000
0000
0000
0000
0000
0000
0000
0000
0000
0003
,
1000
0000
1000
0010
0100
0000
0001
0000
0001
0010
0100
0000
1000
0000
1000
0000
,
0001
0100
0010
0000
1000
0001
1000
0100
0010
0001
1000
0001
0200
0000
0000
0300
,
0101
0000
0001
1000
0010
0000
1000
0000
0100
0000
0010
0000
0001
0000
1000
0000
,
0001
0100
0100
0010
1000
1000
0001
0100
,
0101
1001
1100
0100
0010
0100
1000
0010
,
0100
0001
0100
0001
0010
0110
0100
1000
,
1001
0000
0001
0100
0010
0000
1000
0000
0100
0000
0010
0000
0001
0000
1000
0000
,
1001
0000
0000
0000
0101
0000
0100
0000
0001
0000
1000
0001
0100
0000
0001
0000
,
0010
0000
0100
0000
1000
0000
0001
0000
0101
0000
0100
0000
0001
1000
0001
1000
,
0100
0010
0001
1000
0010
0000
1000
0001
1000
0010
0100
0000
0001
0000
0010
0000
,
0100
1000
0001
1000
0010
0100
0010
1000
0001
1000
0100
0010
0001
1000
0001
0100
,
0010
0100
0001
1000
0001
0010
0100
1000
0002
0000
0000
0000
0000
0000
0000
0000
,
0003
0000
0000
0000
;

//---------------dance-single - J. Nero----------------
#NOTES:
     dance-single:
     J. Nero:
     Challenge:
     14:
     1.000,1.000,0.411,0.403,0.948,1045.000,49.000,48.000,11.000,0.000:
0000
0000
0000
0000
,
1000
0000
0001
1000
0001
0010
0100
0000
1000
0000
0001
0000
0100
0000
0100
0000
,
0001
1000
1000
0010
0100
0100
0001
1000
,
1010
0110
0101
0001
0000
1000
0100
0000
,
0010
0100
1000
0010
0100
0101
0001
0010
,
0110
0000
0100
1000
0001
0100
0001
0000
0000
0000
1000
0000
0010
0000
0000
0000
,
0101
0000
0000
0000
0001
0000
1000
0000
0000
0000
0001
0010
0100
0000
1000
0000
,
1001
0000
0001
0000
0100
0001
0100
0001
0010
0000
0100
0000
1000
0010
1000
0010
,
0200
0000
0000
0000
0000
0000
0000
0000
0000
0000
0000
0300
0000
0000
0000
0000
,
0001
0000
0100
0000
0001
0000
1000
0000
0100
0000
0010
0000
0001
0000
1000
0010
,
1000
0000
0001
0000
0100
0000
0001
0010
0100
0000
1000
0000
0001
1000
0001
0100
,
0010
0000
1000
0000
0100
0000
0010
0000
0100
0000
1000
0000
0010
0000
0100
0001
,
4000
3000
0001
0010
0100
0000
4000
3000
0010
0100
0001
0000
1000
0000
0100
0000
,
1000
0000
0001
0000
0010
0000
0100
0000
1000
0000
0001
0000
0100
0000
0001
1000
,
0001
0000
0010
0000
0100
0000
1000
0001
0100
0000
0001
0000
0010
0100
1000
0001
,
0200
0000
0000
0000
0301
0000
1000
0000
0100
0000
0100
0000
0010
0001
1000
0001
,
0100
0000
0000
0000
0400
0000
0000
0300
0001
0000
1000
0000
0001
0000
0010
0000
0100
0000
1000
0000
0100
0000
0010
0000
0001
0000
0000
0000
1000
0000
0000
0000
,
2002
0000
0003
3000
0001
0000
0100
0000
0001
0000
0010
0000
0100
0000
1000
0010
,
0100
0000
0001
0000
1000
0000
0001
0100
0010
0000
1000
0000
0100
0010
0001
1000
,
0001
0000
0101
0000
0110
0000
1010
0000
1100
0000
0110
0000
,
MM22
0033
0000
0000
0000
0000
2MM2
3003
0000
0000
0000
0000
2M2M
3030
0000
0000
0000
0000
M22M
0330
0000
0000
0000
0000
0100
0000
0000
0000
0100
0000
0000
0000
,
0001
0000
0100
0000
0001
1000
0000
0001
0100
0000
0010
0000
1000
0000
0100
0010
,
0001
0000
1000
0000
0001
0000
1000
0010
0100
0000
0001
0000
0010
0100
1000
0001
,
2000
0000
3000
0000
0000
0000
2002
0000
3003
0000
0000
0000
0001
0000
0000
0001
0000
0000
0010
0000
0000
0010
0000
0000
,
0100
0000
0000
0000
1000
0000
0000
0000
0001
0000
0000
0000
0100
0000
0000
0000
0001
0000
0000
0000
0000
0000
0000
0000
0100
0000
0000
0000
0000
0000
0000
0000
0020
0030
0000
0000
0000
0000
0000
0000
2000
3000
0000
0000
0000
0000
0000
0000
0002
0003
0000
0000
0200
0300
0000
0000
0002
0003
0000
0000
0200
0300
0000
0000
,
0010
0000
1000
0000
0001
0000
0100
0001
0100
0000
0001
0000
0010
0000
0100
1000
,
0010
0000
0100
0001
0010
0000
0100
0000
1000
0000
0000
0000
1000
0000
0000
0000
,
0101
0000
0001
0000
0010
0000
0100
1000
0001
0000
0100
0000
0010
0000
1000
0010
,
1000
0000
0000
0000
0000
0000
0001
0000
0000
0100
0000
0000
0001
0000
0000
0000
0010
0000
0000
0000
0100
0000
0000
0000
1000
0000
0000
0000
0000
0000
0000
0000
0000
0000
0000
0000
1000
0000
0000
0000
0000
0000
0000
0000
0000
0000
0000
0000
,
0101
0000
0000
0001
0000
0000
0010
0000
0000
0100
0000
0000
1000
0000
0010
0000
0100
0000
0001
0000
0010
0000
0100
0000
,
1000
0000
1010
0000
0110
0000
0101
0000
0000
0001
0000
0000
,
1000
0100
1000
0001
0010
0000
0100
0000
1000
0000
0001
0100
0001
0000
0010
0000
,
0200
0000
0000
0000
0000
0000
0000
0000
0300
0000
0000
0000
1000
0001
1000
0100
,
0010
0001
0001
0100
0010
0010
1000
0100
,
0010
0000
0001
0000
0001
0000
1000
0010
0100
0000
0010
0000
0100
0000
0001
0000
,
0010
0100
0100
1000
0010
0010
1000
0100
,
0010
0000
0000
0000
0001
0000
0000
0000
0001
0000
0010
0000
0100
0000
1000
0000
002M
0030
0000
0000
1000
0000
0000
0000
020M
0300
0000
0000
1000
0000
0000
0000
,
002M
0030
0000
0000
0100
0000
0000
0000
0100
0000
0000
0000
0001
0000
0000
0000
0010
0000
0000
0000
0010
0000
0000
0000
0100
0000
0000
0000
1000
0000
0000
0000
,
0001
0000
0100
0000
0100
0000
0001
1000
0001
0000
0010
0000
0100
0000
1000
0000
,
2200
3300
0000
0000
0000
0000
2002
3003
0000
0000
0000
0000
0202
0303
0000
0000
,
0000
0000
0220
0330
0000
0000
0000
0000
2020
0000
0000
0000
0000
0000
3030
0000
,
1000
0001
0010
0100
1100
1000
0010
0100
,
0101
0000
0000
0000
1001
0000
1000
0010
0100
0000
0001
0000
0010
0000
0100
0000
,
1100
1000
0001
0100
0110
0010
1000
1001
,
0001
0000
1010
0000
1000
0000
0001
0010
0100
0000
1000
0000
0001
0000
1000
0000
,
1010
0010
0100
0001
1001
1000
0100
0010
,
0011
0000
0000
0000
1001
0000
1000
0001
0100
0000
0010
0000
1000
0000
0100
0000
,
1000
0001
1000
0100
0010
0001
1000
0001
0100
0010
0100
0001
1000
0100
0010
0001
,
2000
0000
0000
0000
0000
0000
0000
3000
,
0001
0000
0100
0001
0100
0000
0010
0000
1000
0100
0010
0000
0001
0000
0100
0000
,
0010
1000
0100
1000
0010
0100
0010
1000
,
0100
0000
0010
0001
1000
0000
0010
0000
1000
0100
0010
0000
0001
0000
1000
0000
,
0010
1000
0100
0000
0010
0000
0001
0000
0100
0000
0001
0000
0010
0000
0100
0000
,
1000
0000
0010
0100
0010
0000
1000
0000
0001
1000
0001
0000
1000
0000
0010
0000
,
0100
0010
1000
0100
1000
0010
0100
0010
,
1000
0000
0001
0010
0100
0000
1000
0000
0001
0100
0001
0000
1000
0000
0010
0000
,
1000
0010
0100
0001
1000
0100
0010
0001
1000
0000
0010
0000
0100
0000
0010
0000
,
1000
0000
0001
0100
0001
0000
0010
0000
0100
1000
0001
0000
1000
0000
0010
0000
,
0100
0000
0001
0000
0010
0000
0100
0000
0010
0000
0002
0003
1000
0000
0002
0003
,
0100
0000
0001
1000
0001
0000
0010
0000
0100
1000
0010
0000
0100
0000
0001
0000
,
1000
0100
0010
0000
0100
0000
1000
0000
0001
0000
0001
0000
0100
0000
0001
0000
,
1000
0000
0010
1000
0010
0000
1000
0000
0100
0010
0001
0000
1000
0000
0100
0000
,
1000
0000
0010
0000
0100
0000
0010
0000
1000
0000
0100
0010
0001
0000
1000
0000
,
0001
0000
0100
0000
0010
0000
1000
0000
0001
0100
0001
0000
0010
0000
0100
0000
,
1000
0001
1000
0100
0010
0000
0001
0000
1000
0001
1000
0000
0002
0000
0003
0000
,
1000
0000
0001
0100
0010
0000
1000
0000
0100
0010
0001
0000
0100
0000
0010
0000
,
0100
0001
0010
0100
1000
0001
1000
0010
,
0100
0000
0001
1000
0001
0000
1000
0000
0100
1000
0001
0000
0100
0000
0010
0000
,
0100
0001
0010
0100
0010
0001
0100
0010
,
0100
0000
0001
1000
0001
0000
0010
0000
0100
1000
0001
0000
1000
0000
0100
0000
,
0010
0100
1000
0010
0100
0010
1000
0100
,
0010
0000
0001
1000
0001
0000
0100
0000
0001
0100
0010
0000
1000
0000
0001
0010
,
0100
0000
0000
1100
0000
0000
1001
0000
0000
0000
0001
0000
0001
0000
0100
0010
,
1000
0000
0001
0100
0001
0000
1000
0000
0100
0010
0001
0000
1000
0000
0100
0000
,
1000
0010
0100
0010
1000
0100
0010
0100
,
0010
0000
0001
1000
0001
0000
1000
0000
0010
0100
0010
0000
1000
0000
0010
0000
,
0100
0001
0010
0001
0100
0001
0010
0100
,
1000
0000
0001
0100
0001
0000
1000
0000
0100
0010
0001
0000
0100
0000
0001
0000
,
1000
0100
0010
0001
1000
0010
0100
0001
,
1000
0001
1000
0010
0100
0010
1000
0001
1000
0100
0010
0001
1000
0001
0100
0010
,
1000
0001
0100
0001
1000
0100
0010
0001
1000
0001
0010
0100
0010
0001
1000
0001
,
0100
0000
0001
1000
0001
0000
1000
0000
0010
0100
0010
0000
1000
0000
0001
0000
,
0010
0000
0100
0000
0010
0000
0100
0000
1000
0000
0001
0000
1000
0000
0010
1000
,
0100
0000
0010
0001
1000
0000
0001
0000
1000
0100
1000
0000
0001
1000
0001
0010
,
0100
0000
1000
0000
0001
0000
0100
0001
0100
0000
0001
0000
0010
0100
1000
0001
,
0100
0000
0001
1000
0001
0000
1000
0000
0100
0000
0010
0000
0100
0000
0010
0000
,
0001
0000
1000
0010
0100
0000
0001
0000
4000
3000
0001
0100
0001
0000
0040
0030
,
0100
0000
0000
0000
0000
0000
0000
0000
1000
0000
0000
0000
0001
0000
0000
0000
2000
3000
0000
0000
0000
0000
0000
0000
0200
0300
0000
0000
0000
0000
0000
0000
0020
0030
0000
0000
0000
0000
0000
0000
0002
0003
0000
0000
0000
0000
0000
0000
1000
0000
0000
0000
0001
0000
0000
0000
1000
0000
0000
0000
0100
0000
0000
0000
,
0010
0000
0100
0000
1000
0000
0010
0000
1000
0001
1000
0000
0010
0000
0100
0000
,
0001
0000
1000
0100
1000
0000
0001
0000
0100
0010
0100
0000
0001
0000
0010
0100
,
1000
0000
0001
0000
0100
0000
0010
1000
0010
0000
1000
0000
0100
0010
0001
1000
,
0001
0000
1000
0100
1000
0000
0001
0000
0100
0010
0100
0000
0001
0000
1000
0100
,
0010
0001
1000
0000
0001
0000
1000
0010
1000
0000
0100
0000
0010
0000
0100
0000
,
0010
0000
0001
1000
0001
0000
1000
0000
0010
0100
0001
0000
1000
0000
0001
0100
,
0001
0000
0010
0000
0100
0000
1000
0001
1000
0000
0010
0000
1000
0001
1000
0100
,
0010
0000
0001
1000
0001
0000
0010
0000
0001
1000
0100
0000
1000
0000
0001
0010
,
0100
0000
0000
1000
0000
0000
0001
0000
0000
0000
0000
0000
1000
0000
0000
0000
0000
0000
0001
0000
0000
0100
0000
0000
0002
0000
0000
0000
0000
0000
0000
0000
0000
0000
0000
0000
0000
0000
0000
0000
0000
0000
0000
0000
0000
0000
0000
0003
,
1000
0000
0001
0100
0001
0000
0010
0000
0100
1000
0001
0000
1000
0000
0001
0100
,
0010
0000
0000
0000
0000
0000
1000
0000
0000
0000
0000
0000
0100
0000
0000
0000
0000
0000
0010
0000
0000
0000
0000
0000
0002
0000
0000
0000
0000
0000
0000
0000
0000
0000
0000
0000
0000
0000
0000
0000
0000
0000
0000
0000
0000
0000
0000
0003
,
1000
0000
0001
0100
0010
0000
1000
0000
0100
0010
0001
0000
1000
0000
0001
1000
,
0001
0010
0100
1000
0010
0000
1000
0100
0010
0000
0001
0100
0010
0000
1000
0100
,
0010
0000
0001
1000
0001
0000
1000
0000
0010
0100
0010
0000
1000
0000
0001
1000
,
0001
0000
0000
0100
0000
0000
0010
0000
0000
0100
0000
0000
0001
0000
0000
1000
0000
0000
0100
0000
0000
0010
0000
0000
0002
0000
0000
0000
0000
0000
0000
0000
0000
0000
0000
0000
0000
0000
0000
0000
0000
0000
0000
0000
0000
0000
0000
0003
,
1000
0000
0001
0100
0010
0000
1000
0000
0100
0010
0001
0000
1000
0000
0001
0000
,
1000
0010
0100
0000
0001
1000
0001
0010
0100
1000
0001
1000
0020
0000
0000
0000
,
1030
0000
0001
1000
0010
0000
1000
0000
0100
0000
0010
0000
0001
0000
1000
0000
,
0001
0100
0100
0010
1000
1000
0001
0100
,
0101
1001
1100
0100
0010
0100
1000
0010
,
0100
0001
0100
0001
0010
0110
0100
1000
,
1001
0000
0001
0100
0010
0000
1000
0000
0100
0000
0010
0000
0001
0000
1000
0000
,
1001
0000
0000
0000
0101
0000
0100
0000
0001
0000
1000
0001
0100
0000
0001
0000
,
0010
0100
1000
0001
0101
0100
0001
1000
,
0100
0010
0001
1000
0010
0000
1000
0001
1000
0010
0100
0000
0001
0000
0010
0000
,
0100
1000
0001
1000
0010
0100
0010
1000
0001
1000
0100
0010
0001
1000
0001
0100
,
0010
0100
0001
1000
0001
0010
0100
1000
0002
0000
0000
0000
0000
0000
0000
0000
,
0003
0000
0000
0000
;
