#TITLE:Abyss;
#SUBTITLE:-The Heavens Remix-;
#ARTIST:dj TAKA;
#TITLETRANSLIT:;
#SUBTITLETRANSLIT:;
#ARTISTTRANSLIT:;
#CREDIT:;
#BANNER:abyss.png;
#BACKGROUND:abyss-bg.png;
#LYRICSPATH:;
#CDTITLE:!eggmanTitle.png;
#MUSIC:01 - Abyss -The Heavens Remix-.mp3;
#OFFSET:-1.080;
#SAMPLESTART:35.088;
#SAMPLELENGTH:12.000;
#SELECTABLE:YES;
#BPMS:0.000=171.000;
#STOPS:;
#BGCHANGES:;
// cache tags:
#FIRSTBEAT:0.000;
#LASTBEAT:312.000;
#SONGFILENAME:Songs/Community Keyboard Megapack - Volume 1/(EggmaniMN) Abyss -The Heavens Remix-/Abyss.sm;
#HASMUSIC:1;
#HASBANNER:1;
#MUSICLENGTH:117.446;
// end cache tags

//---------------dance-single - ----------------
#NOTES:
     dance-single:
     :
     Hard:
     10:
     1.000,1.000,1.000,0.000,0.702,735.000,238.000,0.000,0.000,0.000:

1000
0001
0010
0100
1000
0100
0010
0001
,
1001
0000
0100
1000
0001
0000
0110
0000
1001
0010
0100
1000
0001
0000
0110
0000
,
1010
0000
0100
0010
0001
1000
0100
0010
0100
0000
0100
0010
0001
1000
0100
0010
,
0100
0000
0100
0010
0001
0100
0010
1000
0001
0000
1000
0001
0100
0010
1000
0001
,
0100
0000
0100
0010
1000
0100
1000
0100
0010
0000
0001
1000
0100
0010
0100
0010
,
0100
0000
0100
0010
0001
0010
0100
0010
0001
0000
1000
0100
0010
0100
1000
0100
,
1000
0000
0001
0010
0100
1000
0001
0010
0100
0000
1000
0100
0010
0001
1000
0100
,
0010
0000
0100
0010
0100
0010
0001
1000
0001
0000
1000
0001
1000
0001
0010
0100
,
0010
0000
0100
1000
0001
0010
0100
1000
0100
0000
0010
0001
0100
0010
1000
0001
,
0100
0000
1000
0100
0010
0001
1000
0100
0010
0001
1000
0100
0010
0001
1000
0100
,
1001
0001
1010
0100
1100
0100
1001
0010
,
1010
0100
1010
0001
0110
0100
1001
0001
,
0011
1000
0110
1000
0011
0100
0110
1000
,
1001
0001
0110
1000
0110
0001
0110
1000
,
1100
0001
1010
0100
1100
1000
1001
0010
,
0110
1000
0011
0010
0110
1000
1100
0001
,
1001
0100
1100
0010
1001
0100
1010
0100
,
1100
0100
0011
0100
0010
1000
1001
1000
,
0100
0000
1001
0000
0110
0000
1100
0000
0010
0000
1000
0001
0010
0000
1001
0000
,
0100
0000
1001
0000
0110
0000
1001
0000
0010
0000
1000
0001
0100
0000
1000
0100
,
0010
0000
0011
0000
0110
0000
1100
0000
0010
0000
0001
1000
0100
0000
1001
0000
,
0100
0000
1001
0000
0110
0000
1001
0000
0001
0100
0010
1000
0100
0000
1001
0000
,
1001
0000
0110
0000
1100
0000
1001
0000
0010
0000
0100
0010
0100
0000
1001
0000
,
0100
0000
1100
0000
0110
0000
0011
0000
0001
0000
1000
0001
1000
0000
0110
0100
,
0100
0000
1000
0001
0100
0000
1001
0000
0001
0000
0010
0100
0010
0000
0110
0000
,
0001
0110
1001
0110
0001
0110
1001
0110
,
1100
0100
0011
0100
0010
1000
1001
1000
,
0010
0100
0011
0100
1000
0001
0100
1000
,
1100
0110
1100
0110
1000
0110
1100
0110
,
1000
1001
1010
1001
1000
1001
1010
1001
,
1100
0000
0010
0000
1000
0100
0000
0010
0000
0000
0001
0000
0010
0000
0100
0000
,
1000
0000
0000
0100
0000
0000
0010
0000
0000
0001
0000
0000
0010
0000
0100
0000
,
1100
0000
0010
0000
0100
0010
0000
1000
0000
0000
0001
0000
1000
0000
0001
0000
,
1001
0000
0000
0100
0000
0000
1000
0000
0000
0010
0000
0000
0001
0000
1000
0000
,
1100
0000
0100
0000
0001
1000
0000
0100
0000
0000
0010
0000
0100
0000
0010
0000
,
0001
0000
0000
0010
0000
0000
0100
0000
0000
1000
0000
0000
0100
0000
0010
0000
,
0011
0000
0100
0000
1000
0010
0000
0100
0000
0000
0001
0000
0100
0000
0010
0000
,
1010
0000
0000
0001
0000
0000
0010
0000
1100
0010
0000
0000
0100
0000
1000
0000
,
1001
0000
1000
0100
0010
0001
0100
0010
1000
0100
0010
0001
0010
0000
0110
0000
,
1001
0000
1000
0001
0000
1000
0001
0000
1000
0001
0000
1000
0001
0000
0110
0000
,
1001
0000
1000
0001
0010
0100
0010
0001
1000
0100
0010
0100
1000
0000
0110
0000
,
1001
0000
0100
0010
0000
0100
0010
0000
0100
0010
1000
0001
0100
0000
1001
0000
,
1001
0000
0100
0010
0100
0010
0100
0010
0100
0001
1000
0001
1000
0000
0110
0000
,
1001
0000
0001
1000
0000
0001
1000
0000
0001
1000
0000
0001
1000
0000
0110
0000
,
1001
0000
0010
0100
1000
0001
0010
0100
1000
0100
0010
0001
0010
0000
0011
0000
,
1100
0000
0000
1001
0000
0000
1010
0000
0000
1100
0000
0000
1000
0100
1000
0100
,
1100
0000
0001
0000
1100
0010
0000
0001
1000
0000
0010
0000
1010
0000
0100
0000
,
1001
0000
0000
0001
1100
0000
0100
0000
1000
0001
0000
0000
1001
0000
0100
0000
,
1100
0000
0010
0000
1010
0100
0000
0001
1000
0000
0010
0000
1100
0000
0001
0000
,
0110
0000
0000
0010
1100
0000
0010
0000
1000
0001
0000
0000
0011
0000
0001
0000
,
1100
0000
0001
0000
1100
0010
0000
0001
1000
0000
0100
0000
1001
0000
0100
0000
,
1001
0000
0000
1000
1001
0000
0010
0000
0100
0010
0000
0000
1001
0000
0100
0000
,
1100
0000
0010
0000
1100
0010
0000
0001
1000
0000
0010
0000
1010
0000
0001
0000
,
1001
0000
0000
1000
0011
0000
0100
0000
1000
0001
1000
0000
1001
0000
0100
0000
,
1010
0000
1100
0000
1001
0010
1100
0001
,
1000
0000
0010
0000
1100
0000
0100
0000
1000
0000
0001
0000
0110
0000
0010
0100
,
1100
0000
1001
0000
1000
0010
1100
0100
,
1001
1010
1100
1001
,
1010
0000
1010
0000
1100
0010
1001
0010
,
1100
0000
0010
0000
1100
0000
0001
0000
1100
0000
0100
0000
1100
0000
0001
0010
,
1100
0000
1001
0100
1100
0100
1001
0010
,
1001
1000
1001
0000
0010
1100
1001
1000
,
1001
0000
1000
0100
0010
0001
0010
0000
0100
1000
0100
0010
0001
0000
1001
0000
,
1100
0000
0001
1000
0010
0100
0001
0000
1000
0100
0010
0100
0010
0000
1001
0000
,
0110
0000
0001
1000
0001
0100
0010
0000
0010
0001
1000
0100
0010
0000
0011
0000
,
1100
0000
0100
0010
0100
1000
0001
0000
1000
0001
0010
0100
1000
0000
1001
0000
,
1100
0000
0001
0010
0100
1000
0100
0000
0010
0001
0010
0001
0010
0000
0011
0000
,
1100
0000
0100
1000
0100
1000
0100
0000
0010
0100
0010
0100
0010
0000
1001
0000
,
0110
0000
1000
0100
0010
0001
1000
0000
0100
0010
0001
1000
0100
0000
0011
0000
,
1100
0000
0001
0010
0100
1000
0001
0000
0010
0100
1000
0001
0010
0000
1001
0000
,
1100
0001
1010
1100
1001
0100
1010
0100
,
1001
0011
1010
1001
1100
0101
1001
0011
,
1010
0001
1001
1010
1100
0100
1010
0100
,
1001
0101
1010
1001
0110
1100
1001
1010
,
1001
0011
0110
1100
0110
0011
0101
1010
,
0110
1001
0011
1100
0011
0101
1100
0110
,
1100
0011
0110
1100
0110
1001
0011
1010
,
0101
1100
0011
0110
1001
0011
1100
1001
,
1001
0000
0000
0000
,;
