#TITLE:Etude For The Sinners;
#SUBTITLE:;
#ARTIST:Ice;
#TITLETRANSLIT:;
#SUBTITLETRANSLIT:;
#ARTISTTRANSLIT:;
#CREDIT:;
#BANNER:../Jawn - ban.png;
#BACKGROUND:../Jawn - bg.png;
#LYRICSPATH:;
#CDTITLE:;
#MUSIC:Etude For The Sinners.ogg;
#OFFSET:0.009;
#SAMPLESTART:12.020;
#SAMPLELENGTH:12.000;
#SELECTABLE:YES;
#BPMS:0.000=200.000;
#STOPS:;
#BGCHANGES:;
// cache tags:
#FIRSTBEAT:0.000;
#LASTBEAT:332.000;
#SONGFILENAME:Songs/Jimmy Jawns/Etude For The Sinners - [Aoreo]/Etude For The Sinners.sm;
#HASMUSIC:1;
#HASBANNER:1;
#MUSICLENGTH:102.200;
// end cache tags

//---------------dance-single - J. Nero (16++)----------------
#NOTES:
     dance-single:
     J. Nero (16++):
     Challenge:
     16:
     1.000,1.000,0.068,0.020,1.000,1234.000,7.000,2.000,0.000,0.000:
0002
0000
0000
0000
,
0000
0000
0000
0003
,
1000
0010
1000
0001
1000
0001
0100
0001
1000
0100
0010
0100
1000
0001
0010
0001
,
1000
0010
1000
0001
1000
0001
0100
0001
1000
0100
0010
0100
1000
0001
0010
0001
,
1000
0010
0100
0010
1000
0001
0010
0100
1000
0001
0010
0100
1000
0001
0100
0001
,
1000
0010
0100
0001
1000
0100
0010
0100
1000
0001
0010
0001
1000
0001
0010
0100
,
1000
0010
1000
0001
1000
0001
0100
0001
1000
0100
0010
0100
1000
0001
0010
0001
,
1000
0010
1000
0001
1000
0001
0100
0001
1000
0100
0010
0100
1000
0001
0010
0001
,
1000
0010
0100
0010
1000
0001
0010
0100
1000
0001
0010
0100
1000
0001
0100
0001
,
1000
0010
0100
0001
1000
0100
0010
0100
1000
0001
0010
0001
1000
0001
0010
0100
,
1000
0010
1000
0001
0100
0001
1000
0100
1000
0001
0010
0100
0010
0001
1000
0100
,
1000
0001
0100
0010
0100
0001
1000
0100
1000
0001
0010
0100
1000
0001
0010
0001
,
1000
0010
0100
0001
1000
0100
0010
0001
0100
0001
1000
0010
0100
0010
1000
0001
,
0100
0001
0010
0100
1000
0001
1000
0010
0100
0010
1000
0001
0010
0100
0010
0001
,
0100
0010
1000
0001
0100
0001
1000
0100
1000
0001
0010
0100
0010
0001
1000
0100
,
1000
0001
0100
0010
0100
0001
1000
0100
1000
0001
0010
0100
1000
0001
0010
0001
,
1000
0010
0100
0001
1000
0100
0010
0001
0100
0001
1000
0010
0100
0010
1000
0001
,
0100
0001
0010
0100
1000
0001
1000
0010
0100
0010
1000
0001
0010
0100
0010
0001
,
0100
0101
1001
1100
0110
0011
1001
1010
,
0010
1000
0001
1000
0100
0010
0100
1000
0001
0100
0001
1000
0001
0100
0001
1000
,
0100
0010
0001
1000
0001
0010
0100
0010
0100
1000
0001
0100
0001
1000
0001
0100
,
0010
1000
0001
1000
0010
0100
0010
1000
0001
0100
0001
1000
0001
0010
0100
1000
,
0001
0100
0001
1000
0100
1000
0001
0100
0001
1000
0010
1000
0001
0010
0001
1000
,
0010
1000
0001
1000
0100
0010
0001
1000
0100
1000
0001
1000
0100
1000
0001
0100
,
0001
1000
0010
1000
0001
0010
0100
0010
0100
1000
0001
1000
0100
1000
0001
0100
,
0010
1000
0001
1000
0010
0100
0001
1000
0100
1000
0001
1000
0100
0010
0001
1000
,
0001
0100
0010
1000
0001
0100
0010
1000
0001
0010
0100
1000
0001
0010
0100
1000
,
0001
0100
0010
1000
0001
0100
0010
1000
0001
0010
0100
1000
0001
0010
0100
1000
,
0001
0100
0010
1000
0001
0010
0100
1000
0001
0100
0010
1000
0001
0010
0100
1000
,
0001
0100
0010
1000
0001
0010
0100
1000
0010
1000
0001
0010
0100
0010
0001
1000
,
0001
0100
0010
1000
0001
0100
0010
1000
0001
0010
0100
1000
0001
0010
0100
1000
,
0001
0100
0010
1000
0001
0100
0010
1000
0001
0010
0100
1000
0001
0010
0100
1000
,
0001
0100
0010
1000
0001
0010
0100
1000
0001
0100
0010
1000
0001
0010
0100
1000
,
0001
0100
0010
1000
0001
0010
0100
1000
0010
1000
0001
0010
0100
0010
0001
0100
,
0001
1000
0100
1000
0001
0010
0001
1000
0100
1000
0001
0100
0001
1000
0100
0010
,
0001
1000
0100
1000
0001
0100
0010
1000
0001
0010
0001
1000
0001
0100
0010
0100
,
0001
1000
0100
0010
0001
1000
0001
0010
0100
0010
0100
1000
0001
0100
0010
0100
,
0010
1000
0001
1000
0010
0100
0010
1000
0001
1000
0100
1000
0001
0010
0100
1000
,
0001
1000
0100
1000
0001
0010
0001
1000
0100
1000
0001
0100
0001
1000
0100
0010
,
0001
1000
0100
1000
0001
0100
0010
1000
0001
0010
0001
1000
0001
0100
0010
0100
,
0001
1000
0100
0010
0001
1000
0001
0010
0100
0010
0100
1000
0001
0100
0010
0100
,
0010
1000
0001
1000
0010
0100
0010
1000
0001
1000
0100
1000
0001
0100
0010
1000
,
0001
0100
0010
1000
0001
0010
0100
1000
0010
1000
0001
0100
0001
1000
0100
0010
,
0001
1000
0010
0100
0001
1000
0010
0100
0001
0010
0100
1000
0001
0010
0001
0100
,
0001
1000
0010
0100
0001
1000
0100
1000
0001
0010
0100
1000
0010
1000
0001
0100
,
0001
0010
0001
1000
0100
0010
0001
1000
0010
1000
0001
0100
0001
0010
0100
1000
,
0001
0100
0001
1000
0100
1000
0001
0100
0001
1000
0100
1000
,
0001
0010
0001
1000
0010
1000
0001
0010
0001
1000
0010
1000
,
0001
0010
0100
1000
0010
0100
0001
0010
0001
1000
0100
0010
,
0001
0100
0001
1000
0100
1000
0010
0100
0010
0100
0010
0100
,
0001
1000
0100
0010
0100
1000
0001
0100
0010
0100
0001
1000
,
0100
0010
0001
1000
0010
0100
0010
1000
0001
0010
0100
1000
,
0001
0100
0001
1000
0100
0010
0001
1000
0010
0100
0010
1000
,
0001
0010
0100
0010
0001
1000
0010
0100
0010
1000
0001
0010
,
0100
1000
0001
0100
0010
0100
0001
1000
0100
0010
0001
1000
,
0010
0100
0010
1000
0001
0010
0100
1000
0010
0100
0001
1000
,
0001
0010
0001
0100
0010
1000
0100
0010
0100
1000
0010
0100
0001
0010
0001
0100
,
0010
1000
0100
0010
0001
0100
0001
1000
0100
1000
0010
0100
0001
0010
0100
1000
,
0001
0100
0001
1000
0001
0100
0010
0100
0001
1000
0100
1000
0010
1000
0100
0010
,
0001
0100
0001
1000
0001
0100
0010
0100
0001
1000
0100
1000
0010
1000
0100
0010
,
0001
0100
0010
1000
0001
0010
0100
1000
0010
1000
0100
0010
0001
1000
0001
0100
,
0010
1000
0100
0010
0100
1000
0010
0100
0001
0100
0001
1000
0100
0010
0001
0100
,
0010
1000
0001
1000
0001
0100
0010
0100
0001
1000
0100
1000
0010
1000
0100
0010
,
0001
0100
0001
1000
0001
0100
0010
0100
0001
1000
0100
1000
0010
1000
0100
0010
,
0001
0100
0010
1000
0001
0010
0100
1000
0010
1000
0100
0010
0001
1000
0001
0100
,
0010
1000
0100
0010
0100
1000
0010
0100
0001
0100
0001
1000
0100
0010
0001
0100
,
0010
0100
0001
1000
0001
0100
0010
0100
0001
1000
0100
1000
0010
1000
0100
0010
,
0001
0100
0001
1000
0001
0100
0010
0100
0001
1000
0100
1000
0010
1000
0100
0010
,
0001
0100
0010
1000
0001
0010
0100
1000
0010
1000
0100
0010
0001
1000
0001
0100
,
0010
1000
0100
0010
0100
1000
0010
0100
0001
0100
0001
1000
0100
0010
0100
1000
,
0010
0100
0010
1000
0100
0010
0001
1000
0010
0100
0010
1000
0100
0010
0001
1000
,
0010
0100
0010
1000
0100
0010
0001
1000
0010
0100
0010
1000
0100
0010
0001
1000
,
0001
0010
0100
1000
0001
0100
0010
1000
0001
0010
0100
1000
0001
0100
0010
1000
,
0001
0100
0001
0010
0100
0010
0001
0100
0010
1000
0100
0010
0100
1000
0010
0100
,
0001
1000
0001
0100
0010
0100
0001
1000
0001
0100
0001
1000
0010
0100
0001
1000
,
0100
1000
0001
0010
0001
1000
0001
0010
0100
1000
0001
0010
0001
1000
0100
1000
,
0001
0100
0010
0100
0001
1000
0010
1000
0010
0100
0001
0100
0001
1000
0010
1000
,
0001
0010
0100
0010
0001
1000
0100
1000
0100
0010
0001
1000
0100
1000
0001
0100
,
0001
1000
0010
0100
0010
1000
0001
0100
0001
1000
0010
0100
0010
1000
0001
0100
,
0001
1000
0100
0010
0001
1000
0010
0100
0001
1000
0100
0010
0001
1000
0010
0100
,
0001
0010
0100
1000
0001
1000
0100
0010
0001
1000
0010
0100
0001
1000
0100
0010
,
0001
1000
0010
0100
0001
1000
0100
0010
0001
1000
0010
0100
0001
1000
0100
0010
,
0002
0000
0000
0000
,
0003
0000
0000
0000
;

//---------------dance-single - J. Nero----------------
#NOTES:
     dance-single:
     J. Nero:
     Hard:
     15:
     1.000,1.000,0.137,0.020,1.000,1090.000,14.000,2.000,0.000,0.000:
0002
0000
0000
0000
,
0000
0000
0000
0003
,
1000
0010
1000
0001
1000
0001
0100
0001
1000
0100
0010
0100
1000
0001
0010
0001
,
1000
0010
1000
0001
1000
0001
0100
0001
1000
0100
0010
0100
1000
0001
0010
0001
,
1000
0010
0100
0010
1000
0001
0010
0100
1000
0001
0010
0100
1000
0001
0100
0001
,
1000
0010
0100
0001
1000
0100
0010
0100
1000
0001
0010
0001
1000
0001
0010
0100
,
1000
0010
1000
0001
1000
0001
0100
0001
1000
0100
0010
0100
1000
0001
0010
0001
,
1000
0010
1000
0001
1000
0001
0100
0001
1000
0100
0010
0100
1000
0001
0010
0001
,
1000
0010
0100
0010
1000
0001
0010
0100
1000
0001
0010
0100
1000
0001
0100
0001
,
1000
0010
0100
0001
1000
0100
0010
0100
1000
0001
0010
0001
1000
0001
0010
0100
,
1000
0010
1000
0001
0100
0001
1000
0100
1000
0001
0010
0100
0010
0001
1000
0100
,
1000
0001
0100
0010
0100
0001
1000
0100
1000
0001
0010
0100
1000
0001
0010
0001
,
1000
0010
0100
0001
1000
0100
0010
0001
0100
0001
1000
0010
0100
0010
1000
0001
,
0100
0001
0010
0100
1000
0001
1000
0010
0100
0010
1000
0001
0010
0100
0010
0001
,
0100
0010
1000
0001
0100
0001
1000
0100
1000
0001
0010
0100
0010
0001
1000
0100
,
1000
0001
0100
0010
0100
0001
1000
0100
1000
0001
0010
0100
1000
0001
0010
0001
,
1000
0010
0100
0001
1000
0100
0010
0001
0100
0001
1000
0010
0100
0010
1000
0001
,
0100
0001
0010
0100
1000
0001
1000
0010
0100
0010
1000
0001
0010
0100
0010
0001
,
0100
0101
1001
1100
0110
0011
1001
1010
,
0010
0100
0001
0010
0100
0010
0001
1000
,
0010
0100
0010
1000
1000
0001
0100
0100
,
0001
0010
0001
1000
0100
0010
0001
1000
,
0010
0100
0010
1000
0001
0100
0001
1000
,
0100
0010
0100
1000
0001
0100
0010
0100
,
0001
1000
0100
0010
0010
0001
1000
1000
,
0001
0100
0001
1000
0100
0010
0100
1000
0001
0100
0001
1000
0100
0010
0001
1000
,
0001
0100
0010
1000
0001
0100
0010
1000
0001
0010
0100
1000
0001
0010
0100
1000
,
0001
0100
0010
1000
0001
0100
0010
1000
0001
0010
0100
1000
0001
0010
0100
1000
,
0001
0100
0010
1000
0001
0010
0100
1000
0001
0100
0010
1000
0001
0010
0100
1000
,
0001
0100
0010
1000
0001
0010
0100
1000
0010
1000
0001
0010
0100
0010
0001
1000
,
0001
0100
0010
1000
0001
0100
0010
1000
0001
0010
0100
1000
0001
0010
0100
1000
,
0001
0100
0010
1000
0001
0100
0010
1000
0001
0010
0100
1000
0001
0010
0100
1000
,
0001
0100
0010
1000
0001
0010
0100
1000
0001
0100
0010
1000
0001
0010
0100
1000
,
0001
0100
0010
1000
0001
0010
0100
1000
0010
1000
0001
0010
0100
0010
0001
0100
,
0001
1001
1001
1100
0110
0011
1001
1100
,
0100
1000
0001
0100
0010
0100
0001
0010
,
0100
1000
0001
0100
0100
0001
0010
0010
,
0100
1000
0001
0100
0010
0100
0001
1000
,
0100
0010
0100
1000
0010
0100
0010
1000
,
0100
0010
0001
1000
0001
0100
0010
0100
,
0001
0010
0100
1000
1000
0010
0100
0100
,
0001
1000
0001
1000
0010
0100
0010
1000
0001
1000
0100
1000
0001
0100
0010
1000
,
0001
0100
0010
1000
0001
0010
0100
1000
0010
1000
0001
0100
0001
1000
0100
0010
,
0001
1000
0010
0100
0001
1000
0010
0100
0001
0010
0100
1000
0001
0010
0001
0100
,
0001
1000
0010
0100
0001
1000
0100
1000
0001
0010
0100
1000
0010
1000
0001
0100
,
0001
0010
0001
1000
0100
0010
0001
1000
0010
1000
0001
0100
0001
0010
0100
1000
,
0001
0100
0001
1000
0100
1000
0001
0100
0001
1000
0100
1000
,
0001
0010
0001
1000
0010
1000
0001
0010
0001
1000
0010
1000
,
0001
0010
0100
1000
0010
0100
0001
0010
0001
1000
0100
0010
,
0001
0100
0001
1000
0100
1000
0010
0100
0010
0100
0010
0100
,
0001
1000
0100
0010
0100
1000
0001
0100
0010
0100
0001
1000
,
0100
0010
0001
1000
0010
0100
0010
1000
0001
0010
0100
1000
,
0001
0100
0001
1000
0100
0010
0001
1000
0010
0100
0010
1000
,
0001
0010
0100
0010
0001
1000
0010
0100
0010
1000
0001
0010
,
0100
1000
0001
0100
0010
0100
0001
1000
0100
0010
0001
1000
,
0010
0100
0010
1000
0001
0010
0100
1000
0010
0100
0001
1000
,
0001
0010
0001
0100
0010
1000
0100
0010
0100
1000
0010
0100
0001
0010
0001
0100
,
0010
1000
0100
0010
0001
0100
0001
1000
0100
1000
0010
0100
0001
0010
0100
1000
,
0001
0100
0001
1000
0001
0100
0010
0100
0001
1000
0100
1000
0010
1000
0100
0010
,
0001
0100
0001
1000
0001
0100
0010
0100
0001
1000
0100
1000
0010
1000
0100
0010
,
0001
0100
0010
1000
0001
0010
0100
1000
0010
1000
0100
0010
0001
1000
0001
0100
,
0010
1000
0100
0010
0100
1000
0010
0100
0001
0100
0001
1000
0100
0010
0001
0100
,
0010
1000
0001
1000
0001
0100
0010
0100
0001
1000
0100
1000
0010
1000
0100
0010
,
0001
0100
0001
1000
0001
0100
0010
0100
0001
1000
0100
1000
0010
1000
0100
0010
,
0001
0100
0010
1000
0001
0010
0100
1000
0010
1000
0100
0010
0001
1000
0001
0100
,
0010
1000
0100
0010
0100
1000
0010
0100
0001
0100
0001
1000
0100
0010
0001
0100
,
0010
0100
0001
1000
0001
0100
0010
0100
0001
1000
0100
1000
0010
1000
0100
0010
,
0001
0100
0001
1000
0001
0100
0010
0100
0001
1000
0100
1000
0010
1000
0100
0010
,
0001
0100
0010
1000
0001
0010
0100
1000
0010
1000
0100
0010
0001
1000
0001
0100
,
0010
1000
0100
0010
0100
1000
0010
0100
0001
0100
0001
1000
0100
0010
0100
1000
,
0010
0100
0010
1000
0100
0010
0001
1000
0010
0100
0010
1000
0100
0010
0001
1000
,
0010
0100
0010
1000
0100
0010
0001
1000
0010
0100
0010
1000
0100
0010
0001
1000
,
0001
0010
0100
1000
0001
0100
0010
1000
0001
0010
0100
1000
0001
0100
0010
1000
,
0001
0100
0001
0010
0100
0010
0001
0100
0010
1000
0100
0010
0100
1000
0010
0100
,
0001
0100
0001
0010
0100
0010
0001
1000
,
0010
0100
0010
1000
0001
0010
0100
0010
,
0001
0100
0001
1000
0010
0100
0010
1000
,
0001
0100
0001
1000
0010
0100
0010
1000
,
0100
0010
0001
0100
0001
1000
0010
0100
,
0001
1000
0100
0010
0001
1000
0010
0100
0001
1000
0100
0010
0001
1000
0010
0100
,
0001
0010
0100
1000
0001
1000
0010
0100
0001
1000
0100
0010
0001
1000
0010
0100
,
0001
1000
0100
0010
0001
1000
0010
0100
0001
1000
0100
0010
0001
1000
0010
0100
,
0002
0000
0000
0000
,
0003
0000
0000
0000
;
