#TITLE:Going On Spring Wind;
#SUBTITLE:;
#ARTIST:tomsfir;
#TITLETRANSLIT:;
#SUBTITLETRANSLIT:;
#ARTISTTRANSLIT:;
#CREDIT:;
#BANNER:gosw-bn.png;
#BACKGROUND:gosw-bg.png;
#LYRICSPATH:;
#CDTITLE:cdtitle.png;
#MUSIC:Going on spring wind.mp3;
#OFFSET:-2.800;
#SAMPLESTART:84.200;
#SAMPLELENGTH:11.920;
#SELECTABLE:YES;
#BPMS:0.000=141.000;
#STOPS:;
#BGCHANGES:;
// cache tags:
#FIRSTBEAT:3.000;
#LASTBEAT:326.500;
#SONGFILENAME:Songs/cedric step/Going On Spring Wind/going.sm;
#HASMUSIC:1;
#HASBANNER:1;
#MUSICLENGTH:143.320;
// end cache tags

//---------------dance-single - Copied from Copied f----------------
#NOTES:
     dance-single:
     Copied from Copied f:
     Hard:
     12:
     1.000,1.000,0.091,0.614,1.000,1111.000,13.000,88.000,0.000,5.000:
0000
0000
0000
0000
0000
0000
0000
0000
0000
0000
0000
0000
0000
0000
0000
0000
0000
0000
1000
0100
0010
0000
0000
1000
,
0100
0000
0010
0000
0000
1000
0100
0000
0010
0000
0000
0010
0002
0000
0000
0023
0000
0000
0230
0000
0000
2300
0000
0000
,
0001
0000
0000
0000
0000
0000
3100
0010
0001
0010
0100
0010
0100
0010
0100
0010
0000
0000
0000
0000
0000
0000
0000
0000
,
1000
0000
0010
0100
1000
0010
0100
1000
0010
0100
0000
0001
0001
0000
0001
0100
0000
0100
0001
0000
0010
0001
0000
0001
,
1000
0010
0001
1000
0010
0001
1000
0100
0001
1000
0010
0001
0001
0010
0001
0100
1000
0001
0001
0000
0010
1000
0100
0010
,
0001
0001
0001
0010
0100
1000
0010
0100
1000
0010
0100
1000
0001
0010
0100
1000
0010
0100
1000
0010
0100
0001
0000
0001
,
0000
0001
0000
0001
0000
0001
0000
0001
0000
0001
0000
0001
0000
0001
0000
0001
0000
0000
1000
0000
0100
0010
0000
1000
,
0100
0000
0000
0000
0010
0000
0000
0000
0000
0000
1000
0000
0100
0000
0000
0000
0010
0000
0000
0000
0000
0000
0010
0000
0002
0000
0000
0000
0000
0000
0023
0000
0000
0000
0000
0000
0230
0000
0000
0000
0000
0000
0310
0000
0000
0000
1000
0100
,
0010
0000
0000
0000
0100
0000
0000
0000
0000
0000
0010
0000
0100
0000
0000
0000
0100
0000
1000
0000
0000
0000
0000
0000
0000
0000
0100
0010
0001
0000
0000
0000
0000
0000
0000
0000
1000
0000
0100
0000
0010
0000
0000
0000
0000
0000
1000
0000
,
0100
0000
0010
0000
0000
1000
0100
0000
0010
0000
0000
0010
0002
0000
0000
0023
0000
0000
0230
0000
0000
2300
0000
0000
,
0001
0000
0000
0000
0000
0000
3100
0010
0001
0010
0100
0010
0100
0010
0100
0010
0000
1000
1000
0000
0100
0010
0000
1000
,
0100
0000
0000
0000
0010
0000
0000
0000
0000
0000
1000
0000
0100
0000
0000
0000
0010
0000
0000
0000
0000
0000
0010
0000
0002
0000
0000
0000
0000
0000
0023
0000
0000
0000
0000
0000
0230
0000
0000
0000
0000
0000
0310
0000
0000
0000
1000
0100
,
0010
0000
0000
0000
0100
0000
0000
0000
0000
0000
0010
0000
0100
0000
0000
0000
0100
0000
1000
0000
0000
0000
0000
0000
0000
0000
0100
0010
0001
0000
0000
0000
0000
0000
0000
0000
1000
0000
0100
0000
0010
0000
0000
0000
0000
0000
1000
0000
,
0100
0000
0010
0000
0000
1000
0100
0000
0010
0000
0000
0010
0002
0000
0000
0023
0000
0000
0230
0000
0000
2300
0000
0000
,
0001
0000
0000
0000
0000
0000
3100
0010
0001
0010
0100
0010
0100
0010
0100
0010
0000
0000
0010
0000
0100
2000
0000
0000
,
0001
0000
0000
3000
0000
0000
0001
0000
0000
0100
0000
0000
0001
0000
0000
0010
0000
0100
0000
0000
2000
0000
0000
0000
,
0001
0000
0000
3000
0000
0000
0010
0000
0000
0100
0000
0000
0010
0000
0000
0001
0000
0010
0000
0000
0200
0000
0000
0000
,
0001
0000
0000
0300
0000
0000
0100
0000
0000
1000
0000
0000
0100
0000
0000
0001
0000
0100
0000
0000
0020
0000
0000
0000
,
0001
0000
0000
1030
0000
0010
0000
0000
0200
0000
0000
0000
0001
0000
0000
0300
0000
0000
1000
0100
0010
0001
0000
0000
,
0010
0100
1000
0010
0100
1000
0010
0000
1000
0000
0000
0000
0100
0010
0001
1000
0010
0001
1000
0000
0001
0000
0000
0000
,
0001
0010
1000
0001
0010
1000
0001
0000
1000
0000
0000
0000
0010
0100
1000
0010
0100
1000
0010
0000
1000
0000
0000
0000
,
1000
0010
0001
1000
0010
0001
1000
0000
0001
0000
0000
0000
0010
0100
1000
0001
0010
1000
0001
0000
2000
0000
0000
3010
,
0200
0000
0000
0320
0000
0000
0130
0000
0002
0003
0000
0002
1003
0100
0010
0001
0000
0000
0000
0000
0000
0000
0000
0000
,
0000
0000
0000
0000
,
0000
0000
0000
0000
0000
0000
0000
0000
0000
0000
0000
0000
0000
0000
0000
0000
0000
0000
1000
0100
0010
0000
0000
1000
,
0100
0000
0010
0000
0000
1000
0100
0000
0010
0000
0000
0010
0002
0000
0000
0023
0000
0000
0230
0000
0000
2300
0000
0000
,
0001
0000
0000
0000
0000
0000
3100
0010
0001
0010
0100
0010
0100
0010
0100
0010
0000
1000
1000
0000
0100
0010
0000
1000
,
0100
0000
0000
0000
0010
0000
0000
0000
0000
0000
1000
0000
0100
0000
0000
0000
0010
0000
0000
0000
0000
0000
0010
0000
0002
0000
0000
0000
0000
0000
0023
0000
0000
0000
0000
0000
0230
0000
0000
0000
0000
0000
0310
0000
0000
0000
1000
0100
,
0010
0000
0000
0000
0100
0000
0000
0000
0000
0000
0010
0000
0100
0000
0000
0000
0100
0000
1000
0000
0000
0000
0000
0000
0000
0000
0100
0010
0001
0000
0000
0000
0000
0000
0000
0000
1000
0000
0100
0000
0010
0000
0000
0000
0000
0000
1000
0000
,
0100
0000
0010
0000
0000
1000
0100
0000
0010
0000
0000
0010
0002
0000
0000
0023
0000
0000
0230
0000
0000
2300
0000
0000
,
0001
0000
0000
0000
0000
0000
3100
0010
0001
0010
0100
0010
0100
0010
0100
0001
0010
0100
1000
0001
0010
0100
0000
0000
,
0001
0000
1000
0000
0000
0100
0010
0100
0010
0002
0000
0000
1000
0000
0000
0023
0000
0000
1000
0000
0000
0130
0000
0000
,
0001
0000
1000
0000
0000
0100
0010
0100
0010
0002
0000
0000
1000
0000
0000
0023
0000
0000
1000
0000
0000
0230
0000
0000
,
0301
0000
1000
0000
0000
0001
0100
0001
0100
1000
0000
0000
0100
0000
0010
0000
0000
0001
0100
0001
0100
0010
0000
0000
,
1000
0000
0001
0000
0000
0100
0010
0100
0010
0001
1000
0100
0010
0001
1000
0010
0100
0001
0010
0100
1000
0010
0000
0000
,
0001
0000
1000
0000
0000
0100
0010
0100
0010
0002
0000
0000
1000
0000
0000
0023
0000
0000
1000
0000
0000
0130
0000
0000
,
0001
0000
1000
0000
0000
0100
0010
0100
0010
0002
0000
0000
1000
0000
0000
0023
0000
0000
1000
0000
0000
0230
0000
0000
,
0301
0000
1000
0000
0000
0001
0100
0001
0100
1000
0000
0000
0001
0000
0010
0000
0000
0001
0100
0001
0100
0010
0000
0000
,
0001
0010
0100
0010
0100
0010
0001
0010
0001
0100
1000
0100
1000
0001
0010
0100
1000
0010
0100
0001
0010
0100
1000
0001
,
0100
0010
1000
0001
0100
0010
1000
0100
0010
0001
1000
0100
0010
0001
0010
0100
1000
0010
1000
0100
0010
0001
0000
0010
,
1000
0000
0010
0010
0000
0010
0000
0000
0010
0100
0000
0010
1000
0010
1000
0010
1000
0010
1000
0010
1000
0010
0000
0010
,
0000
0000
0000
0000
0101
0000
0000
0000
0000
0000
0101
0000
0000
0000
0000
0000
1010
0000
0000
0000
0000
0000
1010
0000
0000
0000
0000
0000
1010
0000
0000
0000
0000
0000
1010
0000
0000
0000
0000
0000
1000
0100
0001
0000
0000
0000
0010
0000
,
1000
0000
0010
0010
0000
0010
0000
0000
0010
0100
0000
0010
1000
0010
1000
0010
1000
0010
1000
0010
1000
0010
1000
0010
,
0001
1000
0100
0010
1000
0010
1000
0010
1000
0010
0000
0100
0000
0000
0001
0010
1000
0010
1000
0010
1000
0010
1000
0010
,
0001
0100
1000
0001
0010
0100
0001
0010
1000
0000
0000
1000
0000
0000
1000
0000
0000
2000
0000
0000
3100
0001
0010
1000
,
0010
1000
0010
1000
0001
1000
0010
1000
0010
0001
0100
0001
0100
0001
0100
0001
0100
0010
1000
0010
1000
0010
0000
0010
,
0100
0000
0010
1000
0000
0010
0000
0000
0010
0100
0000
0010
0000
0000
0010
0001
0000
0001
0000
0000
0010
1000
0100
0010
,
0001
1000
0010
0100
0001
0010
0100
1000
0001
0100
0010
1000
0010
0100
0001
1000
0010
0100
0001
1000
0010
1001
0000
1000
,
0100
0000
0100
0010
0000
0010
0001
0000
0100
0001
0000
0010
0000
0000
0100
0000
0000
1000
0100
0010
1000
0010
0000
0100
,
0100
0000
0010
0000
0000
0100
0100
0000
1000
0000
0000
0001
0100
0000
0001
0100
0000
1000
0100
0010
0100
1000
0000
0010
,
0100
0000
0010
0001
0000
0100
0010
0000
0100
0001
0000
0100
1000
0000
0100
0010
0000
0001
1000
0000
0010
0001
0100
0100
,
0001
0100
0100
0001
0100
0100
0001
0100
0100
0010
0000
0010
0000
0000
0010
0000
0010
0100
1000
0001
0010
0100
1000
0100
,
0010
0100
1000
0010
0100
1000
0010
0100
1000
0100
0010
0001
1000
0100
0010
0000
0000
0010
0100
1000
0001
0010
0000
0001
,
0100
0000
0001
1000
0000
0001
0010
0000
0010
1000
0000
0100
0100
0000
0100
0100
0000
0100
0100
0000
0100
0010
0001
1000
,
0010
0000
0010
0001
1000
0100
0001
0000
1000
0100
0000
0100
0010
0000
0010
0001
0000
0001
0010
0100
1000
0010
1000
0100
,
0010
1000
0010
1000
0100
0010
0001
0000
0010
0000
0000
0010
0010
0000
0000
0010
0000
0000
0000
0000
0000
0100
0000
1000
,
0010
0100
1000
0010
0100
1000
0010
0100
1000
0010
0000
0100
0100
0000
0000
0001
0010
0100
1000
0001
0010
0100
0000
0000
,
0001
0000
1000
0000
0000
0100
0010
0100
0010
0002
0000
0000
1000
0000
0000
0023
0000
0000
1000
0000
0000
0130
0000
0000
,
0001
0000
1000
0000
0000
0100
0010
0100
0010
0002
0000
0000
1000
0000
0000
0023
0000
0000
1000
0000
0000
0230
0000
0000
,
0301
0000
1000
0000
0000
0001
0100
0001
0100
1000
0000
0000
0100
0000
0010
0000
0000
0001
0100
0001
0100
0010
0000
0000
,
1000
0000
0001
0000
0000
0100
0010
0100
0010
0001
1000
0100
0010
0001
1000
0010
0100
0001
0010
0100
1000
0010
0000
0000
,
0001
0000
1000
0000
0000
0100
0010
0100
0010
0002
0000
0000
1000
0000
0000
0023
0000
0000
1000
0000
0000
0130
0000
0000
,
0001
0000
1000
0000
0000
0100
0010
0100
0010
0002
0000
0000
1000
0000
0000
0023
0000
0000
1000
0000
0000
0230
0000
0000
,
0301
0000
1000
0000
0000
0001
0100
0001
0100
1000
0000
0000
0001
0000
0010
0000
0000
0001
0100
0001
0100
0010
0000
0000
,
0001
0010
0100
0010
0100
0010
0001
0010
0001
0100
1000
0100
1000
0001
0010
0100
1000
0010
0100
0001
0010
0100
1000
0001
,
0100
0010
1000
0001
0100
0010
1000
0100
0010
0001
1000
0100
0010
0001
0010
0100
1000
0010
1000
0100
0010
0001
0000
0100
,
0010
0000
0000
0000
0001
0000
0000
0000
0000
0000
0100
0000
0010
0000
0000
0000
0001
0000
0000
0000
0000
0000
0010
0000
0002
0000
0000
0000
0000
0000
0023
0000
0000
0000
0000
0000
0230
0000
0000
0000
0000
0000
0310
0000
0000
0000
1000
0100
,
0010
0000
0000
0000
0100
0000
0000
0000
0000
0000
0010
0000
0100
0000
0000
0000
0100
0000
1000
0000
0000
0000
0000
0000
0000
0000
0100
0010
0001
0000
0000
0000
0000
0000
0000
0000
0100
0000
0010
0000
0001
0000
0000
0000
0000
0000
0100
0000
,
0010
0000
0001
0000
0000
0100
0010
0000
0001
0000
0000
0010
0002
0000
0000
0023
0000
0000
0230
0000
0000
2300
0000
0000
,
0001
0000
0000
0000
0000
0000
3100
0010
0001
0010
0100
0010
0100
0010
0100
0010
0000
1000
1000
0000
0100
0010
0000
1000
,
0100
0000
0000
0000
0010
0000
0000
0000
0000
0000
1000
0000
0100
0000
0000
0000
0010
0000
0000
0000
0000
0000
0010
0000
0002
0000
0000
0000
0000
0000
0023
0000
0000
0000
0000
0000
0230
0000
0000
0000
0000
0000
0310
0000
0000
0000
1000
0100
,
0010
0000
0000
0000
0100
0000
0000
0000
0000
0000
0010
0000
0100
0000
0000
0000
0100
0000
1000
0000
0000
0000
0000
0000
0000
0000
0100
0010
0001
0000
0000
0000
0000
0000
0000
0000
1000
0000
0100
0000
0010
0000
0000
0000
0000
0000
1000
0000
,
0100
0000
0010
0000
0000
1000
0100
0000
0010
0000
0000
0010
0002
0000
0000
0023
0000
0000
0230
0000
0000
2300
0000
0000
,
0001
0000
0000
0000
0000
0000
3100
0010
0001
0010
0100
0010
0100
0010
0100
0010
0000
0000
0000
0000
0000
1020
0000
0000
,
0000
0000
0000
0000
0000
2030
0000
3020
,
0000
0000
0000
0000
0000
0032
0000
0023
,
0000
0000
0000
0000
0000
2030
0000
3020
,
0000
0000
0000
0000
0000
0000
0000
0000
0000
0000
0000
0000
0000
0000
0000
0032
0000
0000
0000
0000
0100
1023
0000
0000
,
1000
0000
0000
1000
0000
0000
1000
0000
0100
1000
0000
0100
1000
0000
0100
0032
0000
0100
1000
0000
0100
1023
0000
0000
,
1000
0000
0100
0000
0000
0100
1000
0000
0100
1000
0000
0100
1000
0000
0100
1032
0000
0000
0100
1000
0100
1023
0000
0100
,
1000
0000
0000
1000
0000
0000
1000
0000
0100
1000
0000
0100
1000
0000
0100
0032
0000
0100
1000
0000
0100
1003
0001
1000
,
0001
1000
0001
1000
0001
1000
0001
1000
0001
1000
0001
1000
0001
0000
0000
1111
0000
0000
0000
0000
0000
0000
0000
0000
;
