#TITLE:Hangar 18;
#SUBTITLE:;
#ARTIST:Megadeth;
#TITLETRANSLIT:;
#SUBTITLETRANSLIT:;
#ARTISTTRANSLIT:;
#CREDIT:Wavanova;
#BANNER:Hangar 18 Banner.png;
#BACKGROUND:Megadeth - Hangar 18.png;
#LYRICSPATH:;
#CDTITLE:wavanova06.jpg;
#MUSIC:Megadeth - Hangar 18.mp3;
#OFFSET:0.000;
#SAMPLESTART:163.300;
#SAMPLELENGTH:12.000;
#SELECTABLE:YES;
#BPMS:0.000=120.000,141.250=5.440,141.313=240.000,486.167=240.000,486.167=240.000,1364.000=3.859,1364.125=240.000;
#STOPS:;
#BGCHANGES:0.000=Megadeth - Hangar 18 (Video).mpg=1.000=1=1=0,
99999=-nosongbg-=1.000=0=0=0 // don't automatically add -songbackground-
;
// cache tags:
#FIRSTBEAT:10.500;
#LASTBEAT:1375.333;
#SONGFILENAME:Songs/keyboard/2/Megadeth - Hangar 18.sm;
#HASMUSIC:1;
#HASBANNER:1;
#MUSICLENGTH:385.959;
// end cache tags

//---------------dance-single - ----------------
#NOTES:
     dance-single:
     :
     Hard:
     10:
     0.757,0.980,0.637,0.189,1.000,1725.000,246.000,73.000,0.000,9.000:
0000
0000
0000
0000
,
0000
0000
0000
0000
,
0000
0000
0000
0000
0000
0110
0000
0000
,
0000
1001
0000
0000
0010
0000
0100
1000
0000
0000
0000
0000
0000
1010
0000
0000
,
0000
0010
1000
0100
0000
0000
0010
0000
0000
0000
0110
0000
0000
0000
0000
0000
,
0000
0011
0000
0000
1100
0000
0000
0010
0000
0000
0100
0000
0000
0001
0000
0000
,
0010
0000
0000
0000
0101
0000
0000
0010
0000
1000
0010
0000
0100
0000
0010
0000
,
0000
0110
0000
0000
0010
0000
0100
1000
0100
0000
0010
0000
0000
0101
0000
0000
,
0000
0010
0100
1000
0001
0000
0001
0001
0000
0000
0110
0000
0000
1001
0000
0000
,
0000
0010
0100
0000
1000
0000
0000
0110
0000
0000
0010
0000
0001
0000
0010
0001
,
0000
0010
0000
0000
1001
0000
0000
0010
0010
0000
1000
0001
0000
0100
0000
0000
,
0010
0000
0000
0000
0001
0000
0001
0010
0000
0100
0001
0000
0000
0010
0000
1000
,
0100
0000
0010
0000
0001
0010
0000
0100
1000
0000
0110
0000
0000
0010
0000
0100
,
0001
0000
0010
0000
0100
0000
0000
1010
0000
0000
0010
0000
0100
0001
0000
0010
,
0100
0000
0000
0100
0001
0000
0010
0000
1000
0000
0100
0000
0010
0000
0010
0000
,
0101
0000
0000
0000
,
0000
0000
0000
0000
,
0000
0000
0000
0000
,
0000
0000
0000
0000
0000
2000
0000
0000
,
0000
0000
0000
0000
,
0000
0000
0000
0000
,
0000
0000
0000
0000
0000
0000
0000
0020
0000
0000
0000
0000
0000
0000
0000
0000
,
0000
0000
0000
0000
,
0000
0000
0000
0000
0000
0000
0000
0000
0000
0000
0000
0000
0000
3030
0000
0000
,
0000
0000
0000
0000
,
0000
0000
0000
0000
,
0020
0000
0000
0030
0000
0000
0000
0000
0000
0002
0000
0000
0000
0000
0000
0000
,
0000
0000
0000
0000
0000
0000
0000
0000
0000
0000
0000
0000
0000
0000
0010
0100
,
0000
0000
0000
0003
,
0000
1000
0000
0100
0000
0010
0100
0000
0000
0001
0100
0010
0000
0000
0000
0100
,
0010
0000
0000
0100
0010
0000
0000
0100
0010
0000
0000
0100
0010
0000
0000
0001
,
1000
0000
0000
0001
1000
0000
0000
0001
1000
0000
0000
0010
0100
0000
0000
0001
,
1000
0000
0000
0000
,
2002
0000
0000
0000
0000
0000
0000
0000
0000
0000
0000
3003
0220
0000
0000
0000
,
0000
0000
0330
2002
0000
0000
0000
0000
0000
3003
0220
0000
0000
0000
0000
2332
,
0000
0000
0000
0000
0000
0000
0000
0000
0000
3003
0000
0000
0000
0000
0000
0010
0000
0000
0100
0000
1000
0000
0000
0001
,
0000
0000
0000
0100
0000
0000
0010
0000
0000
0000
1000
0000
0000
0100
0000
0000
0000
0010
0000
0000
0001
0000
0000
0000
,
0100
0000
0000
0000
0010
0000
0000
1000
0000
0000
0001
0000
0000
0000
0100
0000
0000
0000
0010
0000
0000
1000
0000
0000
,
0100
0000
0000
0010
0000
0000
0000
0001
0000
0000
0000
0001
0000
0000
0000
0010
0000
0000
0000
0000
0001
0000
0000
0000
,
0010
0000
0000
0000
0100
0000
1000
0000
0000
0000
0010
0000
0000
0000
0100
0000
0000
0001
0000
0000
0000
0010
0000
0000
,
0000
0000
0100
0000
0000
0001
0000
0000
0000
0000
1000
0000
0000
0100
0000
0000
0010
0000
0000
0000
0001
0000
0000
0000
,
0000
0100
0000
0000
0000
1000
0000
0000
0010
0000
0000
0000
0000
0100
0000
0010
0000
0000
0100
0000
0000
0010
0000
0000
,
1000
0000
0000
0100
0000
0000
0000
1000
0100
0000
0000
0000
0000
0001
0000
0000
0010
0000
0000
0000
0001
0000
0000
0000
,
0010
0000
0000
0000
0100
0000
1000
0000
0000
0010
0000
0000
0100
0000
0000
0000
0001
0000
0000
0010
0000
0000
1000
0000
,
0000
0100
0000
0001
0000
0000
0010
0000
0000
0000
0000
0010
0000
0000
0000
0000
0000
0000
0000
0000
0000
0110
0000
0000
,
0110
0000
0000
0000
0000
0110
0110
0000
,
0000
0110
1001
0000
,
0110
0000
0000
0000
0000
0000
1001
0000
0000
0000
0000
0000
0010
0000
0100
0000
0000
1000
0000
0010
0000
0100
0000
0000
,
0001
0000
0000
0000
0010
0000
0000
0000
1000
0000
0000
0100
0000
0000
0010
0000
0000
0001
0000
0000
0000
0100
0000
0000
,
0000
1000
0000
0010
0000
0000
0100
0000
0000
0001
0000
0000
0000
0010
0000
0000
0000
0000
0001
0000
0010
0000
0000
0000
,
0100
0000
0000
1000
0000
0000
0000
0100
0000
0010
0000
0000
0000
0000
0010
0000
1000
0000
0000
0001
0000
0000
0000
0000
,
1001
0000
0000
0000
0000
0000
0000
0000
0000
0000
0000
0000
0000
0000
0000
0000
0000
0000
0000
1001
0000
0000
0000
0000
,
0000
0000
0000
0010
0000
0000
0000
0010
0000
0000
0000
0000
0110
0000
0000
0000
0000
0000
0000
0000
0000
0010
0000
0000
,
0000
0000
0010
0000
0000
0000
1010
0000
0000
0000
0000
0000
0000
0000
0000
0100
0000
0000
0000
0000
0100
0000
0000
1000
,
0100
0000
0000
0000
0000
0000
0000
0000
0000
0000
0001
0000
0000
0000
0001
0000
0000
0000
0100
0001
0000
0000
0000
0000
,
0000
0000
0000
0000
0001
0000
0000
0000
0001
0000
0000
0000
0010
0100
0000
0000
0000
0000
0000
0000
0000
0010
0000
0000
,
0000
0000
0010
0000
0000
0000
0000
0011
0000
0000
0000
0000
0000
0000
0000
0010
0000
1000
0000
0100
0000
0010
0000
0000
,
0000
0000
0001
0000
0010
0000
0000
0000
0100
0000
1000
0000
0000
0100
0000
0001
0000
0000
0000
0010
0000
0000
0000
0000
,
0001
0000
0000
1000
0000
0000
0001
0000
0000
0000
0000
0000
1000
0000
0000
0000
0000
0001
0000
0000
0000
0000
1000
0000
,
0000
0001
0000
0000
0000
0000
0010
0000
0100
0000
0000
0000
0000
0000
0000
0000
0100
0000
0000
0000
0000
0001
0000
0000
,
2000
0000
0000
0000
0000
0000
0000
0000
0000
0000
0010
0000
0000
0100
0000
0000
0000
0000
0001
0000
0000
0000
0002
0000
,
0000
0000
0000
0000
,
0000
0000
0000
0000
0000
0000
0000
3003
0000
0010
0100
1000
,
0001
0000
0010
0000
0000
0000
0000
0000
0000
0000
0100
0000
0000
1000
0000
0000
0010
0000
0100
0000
0001
0000
0000
0010
,
0000
0000
0000
0010
1000
0000
0100
0001
0000
0000
1000
0010
0000
0000
0100
0000
,
0001
1000
0000
0010
0000
0100
0000
0000
0000
0000
0000
0000
0000
0000
0000
0000
,
0000
0001
0000
0000
0000
0000
0000
0000
0000
1000
0000
0100
0000
0010
0000
0000
0000
0001
0000
0000
1000
0000
0000
0020
,
0000
0000
0000
0000
0000
0000
0000
0000
0030
0000
0000
0000
,
0000
0000
0000
0000
0000
0000
0000
0000
0000
0000
0000
0000
0000
0000
0000
0000
0100
0000
0000
1000
0000
0000
0001
0000
,
0010
0000
0000
0100
0000
0000
0000
0000
0000
0000
0100
0000
0010
0000
0000
0100
0000
0010
0000
0100
0010
0000
0000
0000
,
0000
0001
0000
0000
0000
0000
0000
0000
0000
0000
0000
0000
1000
0000
0000
0000
0000
0100
0000
0000
0000
0010
0000
0000
,
0100
0000
0000
0000
0000
0010
0000
0000
0000
0100
0000
0000
0000
0000
0001
0000
0000
0000
1000
0000
0000
0000
0000
0010
,
0100
0000
0000
0100
0000
0000
0000
0000
0000
0000
0001
0000
0000
0100
0010
0000
0000
0000
0000
0010
0000
0000
0000
1000
,
0000
0000
0100
0000
0000
0000
0000
0000
0000
0000
0000
0010
0000
0000
0000
0001
0000
0000
0000
0000
0001
0000
0000
0000
,
0010
0000
0000
0000
0010
0000
0000
0000
0000
0100
0000
0000
0000
0000
0001
0000
0000
0000
0000
0010
0000
0000
0000
0000
,
0000
0000
0000
1000
0000
0000
0000
0000
0000
0000
0100
0000
0000
0010
0000
1000
0000
0000
0000
0000
0010
0000
0000
0100
,
0000
0000
0000
0000
0000
0001
0000
0001
0000
0001
0000
0010
,
0000
0100
0000
0000
0000
1000
0000
0000
0000
0010
0000
0100
0000
0000
0000
0000
0001
0000
0000
0000
0000
0000
0000
0000
,
0000
0010
0000
0000
0000
0000
0000
1000
0000
0000
0000
0100
0000
0010
0000
0000
0000
0001
0000
0000
0000
0010
0000
0000
,
1000
0000
0000
0000
0000
0000
0000
0000
0000
0000
0100
0000
0000
0000
0000
0100
0000
0000
0100
0000
0000
0000
0000
0010
,
0000
0000
0000
0000
0010
0000
0000
0000
0000
0000
0000
0000
0000
0000
0000
0000
0000
0011
0000
0000
0000
0000
0000
0000
,
0000
0000
0000
1100
0000
0000
0000
0000
0000
0000
0000
0000
0010
0000
0000
0000
0000
0001
0000
0000
0000
0010
0000
0000
,
0000
0000
0000
0000
0000
0000
1001
0000
0000
0000
0000
0010
0000
0000
0000
0010
0000
0000
0000
0010
0000
0000
0000
0100
,
0010
0000
0000
0000
0000
0010
0000
0000
0000
0010
0000
0000
0010
0000
0000
1000
0000
0100
0010
0000
0000
0000
0000
0001
,
0000
0000
0000
0000
0100
0010
0000
0000
0000
0000
0000
0000
0000
0000
0000
0000
0000
0000
0000
0000
0000
0010
0000
0000
,
0000
0010
0000
0000
0000
2000
0000
0000
0000
0000
0000
0000
0000
0000
0000
0000
0000
0000
0001
0000
0010
0100
0000
0000
,
0000
0000
0000
0000
0000
0000
0000
0000
0000
0001
0000
0000
0000
0001
0000
0000
0000
0000
0000
0010
0000
0100
0000
0000
,
0000
0000
0000
0000
0000
0000
0000
0001
0000
0010
0100
0000
0000
0000
0000
0000
0000
0000
0000
0000
0000
0000
0000
0001
,
0000
0000
0000
0001
0000
0000
0000
0010
0000
0000
0100
0000
0000
0000
0000
0000
0000
0000
0000
0010
0000
0000
0001
0000
,
0000
0000
0000
0000
0000
0000
3000
0000
0000
0010
0000
0000
0000
0010
0000
0000
0000
0100
0000
1000
0000
0000
0000
0001
,
0000
0000
0000
0000
0010
0000
0000
0100
0000
0000
1000
0000
0000
0000
0000
0000
0000
0000
0000
0000
0000
0000
0010
0000
,
0000
0000
0000
0010
0000
0000
1000
0000
0100
0000
0010
0000
0000
0000
0000
0000
0010
0000
0000
1000
0000
0100
0000
0010
,
0000
0000
0000
0000
0000
0000
0000
0000
0000
0000
0000
0010
0000
0000
0000
0000
0010
0000
0000
1000
0100
0000
0000
0000
,
0010
0000
0000
0000
0010
0000
0000
0000
0100
0001
0000
0010
0000
0000
0000
0000
0000
0000
0000
0000
0000
0000
0000
0010
,
0000
0000
0000
0010
0000
0000
0100
0000
0001
0000
0010
0000
0000
0000
0000
0010
0000
0000
0000
1000
0000
0100
0000
0000
,
0000
0000
0000
0000
0000
0000
0000
0000
0000
0000
0010
0000
0000
0000
0010
0000
0000
0000
0100
0000
0000
0001
0000
0000
,
0000
1000
0000
0000
0010
0000
0000
0100
0000
0000
0000
0000
0000
0000
0000
0000
0000
0000
0000
0000
0000
0001
0000
0000
,
0000
0000
0010
0000
0000
0000
0000
1000
0000
0000
0100
0000
0000
0000
0001
0000
0000
0010
0000
0000
0100
0000
1000
0000
,
0000
0000
0000
0000
0000
0001
1000
0000
0000
0000
1001
0000
0000
0000
1001
0000
0000
0000
0001
1000
0000
0000
0000
0010
,
0000
0000
0000
0000
0010
0000
0000
0000
0000
1010
0000
0000
0000
0000
0000
0000
0000
0000
0000
0000
0000
0000
0000
0000
,
0000
0000
0000
0000
0000
0000
0000
0000
0101
0000
0000
0000
0010
0000
0000
0000
0010
0000
0000
0000
0000
1010
0000
0000
,
0010
0000
0000
0000
0000
0000
0000
0101
,
0000
0010
0000
0000
0000
0010
0000
0000
0000
0000
1010
0000
0000
0000
0000
0000
0000
0000
1000
0000
0000
0000
0000
0000
,
0000
0000
0000
0000
0000
0000
0000
0000
0000
0000
0001
0000
0000
0001
0000
0000
0001
0000
0000
0000
1000
0000
0000
0000
,
0000
0000
0000
0000
0000
0000
0000
0000
0000
0000
0000
0000
0000
0000
0000
0000
0000
0000
0000
1000
0010
0000
0000
0000
,
0010
0000
0000
0100
0000
0000
0000
0000
,
0000
0000
0000
0000
0000
0000
0000
0000
0011
0000
0000
0000
0000
1001
0000
0000
0000
0000
0011
0000
0000
0101
0000
0000
,
0000
0000
0000
0000
0000
0000
0000
0000
0000
0000
0000
0000
0000
0000
0000
0000
0000
0000
0000
0000
1000
0000
0000
0010
,
0000
0100
0000
0001
0000
1000
0000
0000
0000
0000
0000
0000
,
0000
0000
0000
0000
0000
0000
0000
0000
0000
1010
0000
0000
0000
0010
0000
0000
0000
0010
0000
0000
0000
0000
0101
0000
,
0000
0000
0000
0000
0000
0000
0000
1010
,
0000
0010
0000
0000
0000
0010
0000
0000
0000
0011
0000
0000
0000
0000
0000
0000
0000
0000
0000
0000
0000
0000
0000
0000
,
0000
0000
0000
0000
0000
0000
0000
0000
1001
0000
0000
0000
0000
0010
0000
0000
0000
0000
0100
0000
0000
0000
1000
0000
,
0000
0000
0000
0000
0000
0000
0000
0000
0000
0000
0000
0000
0000
0000
0000
0000
0000
0000
0000
2002
0000
0000
0000
0000
,
0000
0000
0000
0000
0000
0000
0000
0000
0000
0003
3010
0000
0000
0000
0000
0000
0000
0000
0000
0000
0000
0000
0100
0000
,
0000
0000
0000
0000
0000
0000
0002
0000
0000
0000
0000
0000
0000
0000
0000
0000
0000
0000
0000
0000
0000
0010
0000
0100
,
0000
1000
0000
0000
0000
0000
0000
0000
0000
0000
0000
0013
0000
0000
0000
0100
0000
0000
0000
0000
0100
0000
0010
0000
,
0000
0000
0000
0000
0001
0000
0000
0000
0000
0000
0000
1010
,
0000
0000
0000
0000
0000
0000
0000
0101
0000
0000
0000
0101
0000
0000
0000
0000
0000
0000
0000
0000
0000
2020
0000
0000
,
0000
0000
0000
0000
0000
3030
0000
0000
0000
0000
0000
0000
0000
0000
0000
0000
0000
0000
0000
0000
0000
0000
1010
0000
,
0000
0000
0010
0000
0000
0000
0010
0000
0000
0100
0000
0000
0000
0000
0000
0000
0000
0000
0000
0000
1000
0000
0000
0000
,
0001
0000
0000
0000
1000
0000
0000
0000
0010
0000
0000
0000
0000
0010
0000
0000
0000
0100
0000
0000
0000
0001
0000
0000
,
0000
0000
0001
0000
0000
0000
1000
0000
0000
0000
0010
0000
0000
0000
0000
0100
0000
0000
0010
0000
0000
0000
0000
0001
,
0000
0000
0000
0001
0000
0000
0010
0000
0000
0000
1000
0000
0000
0000
0010
0000
0000
0000
0000
0100
0000
0000
0000
0001
,
0000
0000
0000
0010
0000
0000
1000
0000
0000
0000
0000
0001
0000
0000
0001
0000
0000
0000
0000
0100
0000
0000
0010
0000
,
0000
0000
1000
0000
0000
0000
0010
0000
0000
0000
1000
0000
0000
0001
0000
0000
0000
0000
0010
0000
0000
1000
0000
0000
,
0000
0000
0000
0000
0000
0000
0000
1010
0000
0000
0000
0000
0010
0000
0000
0000
0010
0000
0000
0000
1000
0010
0000
0000
,
0000
0000
0010
0000
0000
1000
0010
0000
0000
0000
0010
0000
0000
0000
0010
0000
0000
0000
0000
0100
0001
0000
0000
0000
,
0000
0000
0000
0000
0000
0000
0000
0000
1010
0000
0000
0000
0000
0000
0000
0000
0010
1000
0000
0000
0000
0000
0010
0000
,
0000
0000
0010
0000
0000
0000
0000
0011
0000
0000
0000
0000
0000
0000
0000
0000
0000
0000
0000
0000
1010
0000
0000
0000
,
0000
0000
0000
0000
0000
1010
0000
0000
0000
0000
0010
0000
0000
0000
0010
0000
0000
0000
0000
1001
0000
0000
0000
0000
,
0010
0000
0000
0000
0000
0000
0000
0000
0110
0000
0000
0000
0000
0000
0000
0000
0110
0000
0000
0000
0000
0001
0000
0000
,
0000
1010
0000
0000
0000
0000
0100
0000
0000
0001
0000
0000
0010
1000
0000
0000
0000
0100
0000
0001
0000
0010
0000
0000
,
0000
1001
0000
0000
0000
0010
0000
0000
0000
0010
0000
0000
0000
0000
0001
0000
0000
0000
0000
0010
0000
0000
0000
0010
,
0000
0000
1000
0001
0000
0000
1000
0010
0000
0000
0100
0000
0001
0000
1000
0000
0000
0010
0000
0100
0000
0000
0000
0001
,
0000
0000
0000
0001
0000
0000
1000
0010
0000
0000
0000
0000
1000
0000
0001
0000
0000
0000
1000
0001
0000
0010
0000
0000
,
0000
0000
1000
0000
0001
0000
1010
0000
0000
0000
0001
0000
0000
0000
0001
0000
0000
0000
0100
0000
1000
0000
0000
0010
,
0000
0000
0000
0000
0010
0000
0100
0000
0001
0000
0000
0000
0010
0000
0000
0000
1000
0000
0000
0001
0000
0000
0010
0000
,
0000
0000
0010
0000
0000
0000
0000
1010
0000
0000
0000
0000
0010
0000
0000
0000
0010
0000
0000
0000
0100
0000
0001
0000
,
0000
0000
0010
0000
0000
0000
0010
1000
0000
0000
0000
0010
0000
0000
0000
0010
0000
0000
0000
0101
0000
0000
0000
0000
,
0000
0000
0000
0000
0000
0000
0000
0000
0000
1010
0000
0000
0000
0000
0000
0000
0100
0001
0000
0000
0000
0000
0000
0000
,
1010
0000
0000
0000
1010
0000
0000
0101
0000
0000
0000
0101
0000
0000
0000
0000
1001
0000
0000
0000
1010
0000
0000
0000
,
1010
0000
0000
0000
0101
0000
0000
0000
0101
0000
1000
0010
0000
0000
1000
0010
0000
0000
0000
0100
0001
0000
0000
0101
,
0000
0000
0000
1000
0010
0000
0000
0000
1010
0000
0000
0000
0000
0100
0001
0000
0000
0001
0000
0000
0000
0000
1000
0000
,
0000
0000
0000
0000
0000
0000
0000
0000
0000
0000
0000
0000
0000
0000
0000
0000
0010
0000
0000
0000
0000
0000
0000
0000
0000
0000
0000
0000
0000
0000
0000
0000
0000
0000
0000
0000
0000
0000
0000
0000
0000
0000
0000
0000
0000
0000
0000
0000
0010
0000
0000
0000
0000
0000
0000
0000
0000
0000
0000
0000
0000
0000
0000
0000
0000
0000
0000
0000
0000
0000
0000
0000
0000
0000
0000
0000
0000
0000
0000
0000
0000
0000
0000
0000
0000
0000
0000
0000
0100
0000
0000
0000
0000
0000
0000
0000
0002
0000
0000
0000
0000
0000
0000
0000
0000
0000
0000
0000
0000
0000
0000
0000
0000
0000
0000
0000
0000
0000
0000
0000
0000
0000
0000
0000
0000
0000
0000
0000
0000
0000
0000
0000
0000
0000
0000
0000
0000
0000
0000
0000
0000
0000
0000
0000
0000
0003
0000
0000
0000
0000
0000
0000
0000
0000
0000
0000
0000
0000
0000
0000
0000
0000
0000
0000
0000
0000
0000
0000
0000
0000
0000
0000
0000
0000
0000
0000
0000
0000
0000
0000
0000
0000
0000
0000
0000
0000
0000
0000
0000
0000
0000
0000
,
0000
0000
1000
0000
0000
0000
1000
0000
0000
0000
0100
0000
0000
0000
0010
0000
0000
0000
0000
0010
0000
0000
0000
0001
,
0000
0000
0000
0000
0000
0000
0000
0000
0000
0000
0000
0000
0000
0000
1000
0000
0000
0000
0000
1000
0000
0000
0000
0100
,
0000
0000
0000
0100
0000
0000
0000
0000
0010
0000
0000
0000
0010
0000
0000
0000
0000
0000
0000
0000
0000
0000
0000
0000
,
0000
1000
0000
0000
0000
0000
1000
0000
0000
0000
0010
0000
0000
0000
0010
0000
0000
0010
0000
0000
0100
0000
0000
0000
,
0000
0100
0000
0001
0000
0000
0000
0000
0000
0000
0000
0000
0000
0000
1000
0000
0000
0000
1000
0000
0000
0000
0100
0000
,
0000
0100
0000
0010
0000
0010
0000
0000
0000
0000
0000
0000
,
0000
0001
0000
0001
0000
1000
0000
1000
0000
0100
0000
0100
,
0010
0000
0000
0000
0000
0000
0000
0000
0000
0000
0000
0000
0000
0000
0001
0000
0000
0000
0000
0001
0000
0000
1000
0000
,
0000
0000
1000
0000
0000
0000
0000
0000
0000
0010
0000
0100
0000
0000
0000
0000
0000
0000
0000
0000
0000
0000
0000
0000
,
0000
0000
0001
0000
0000
0000
0001
0000
0000
0000
1000
0000
0000
0000
0000
1000
0000
0010
0000
0000
0000
0010
0000
0100
,
0000
0000
0000
0000
0000
0000
0000
0000
0000
0000
0000
0000
0000
0000
0000
0000
0000
0000
0000
0000
0000
0000
0000
1001
,
0000
0000
0000
0110
0000
0000
0000
2002
0000
0000
0000
0220
0000
0000
0000
0000
0000
3003
0000
0000
0000
0000
0000
0000
,
0000
0000
0001
0330
0000
0000
0001
0000
0000
0000
1000
0000
0000
0000
0000
1000
0000
0000
0000
0010
0000
0000
0000
0100
,
0000
0000
0000
0000
0000
0000
0000
0000
0000
0000
0000
0000
0000
0000
0001
0000
0000
0000
0000
0010
0000
0000
0000
1000
,
0000
0000
0000
0100
0000
0000
0000
0000
0010
0000
0000
0000
0001
0000
0000
0000
0000
0000
0000
0000
0000
0000
0000
0000
,
0000
1000
0000
0100
0000
0010
0000
0000
0000
0001
0000
0010
0000
0100
0000
1000
0000
0100
0000
0010
0000
0000
0000
0001
,
0000
0000
1100
0000
0000
0000
0000
0000
0000
0000
0000
0000
0000
0000
0000
0000
0000
1000
0000
0100
0000
0000
0010
0000
,
0000
0001
0000
0000
0010
0000
0100
0000
1000
0000
0000
0100
0000
0010
0000
0000
0001
0000
0000
0010
0000
0100
0000
0000
,
1000
0100
0010
0001
0010
0100
0000
0000
,
0000
0220
0000
0000
0000
0000
0000
0000
0000
0000
0000
0000
0000
0000
0000
0030
0300
0000
0000
0000
0000
0000
0000
0110
,
0000
0000
1001
0000
0000
0000
0000
0110
0000
0000
2000
0000
0002
0000
0000
0000
0000
0000
0000
0000
0000
0000
0000
0000
,
0000
0000
0000
0000
3000
0003
0000
0000
1000
0000
0100
0010
0000
0000
0001
0000
0000
1000
0000
0100
0000
0010
0000
2002
,
0000
0000
0000
0000
0000
0000
0000
0000
0000
0000
0000
0000
0000
0000
0000
3000
0003
0000
0000
0000
1000
0100
0000
0010
,
0000
0000
0001
0000
0000
1000
0010
0000
0000
0000
0000
2020
0000
0000
0000
0000
0000
0000
0000
0000
0000
0000
0000
0000
,
0000
0000
0000
3030
0000
0000
0000
1000
0000
0000
0000
0100
0000
0000
0000
0000
0000
0010
0000
0000
0000
0000
2000
0020
,
0000
0000
0000
0000
0000
0000
0000
0000
0000
0000
0000
0000
0000
0000
0000
0000
0030
3000
0000
0000
0000
0000
0101
0000
,
0000
0101
2020
0000
,
0000
0000
0000
0000
0000
0030
0000
3000
0000
0000
0001
0000
0010
0100
0000
0000
1000
0000
0000
0010
0000
0000
0000
0010
,
0000
0100
0000
0000
0000
0000
0000
0000
0000
0000
0000
0000
0000
0000
0000
0000
0000
0000
0000
0000
0000
0000
0000
0000
,
2002
0000
0000
0000
0000
0000
0000
0000
0000
0000
0000
0000
0000
0000
3003
0010
0000
0000
0000
0000
0000
0000
0000
0000
,
0000
0000
0100
0000
0000
0000
0000
0000
0000
0000
0000
2000
0020
0000
0000
0000
0000
0000
0000
0000
0000
0000
3030
0000
,
0000
0202
0000
0000
0000
0000
0000
0000
0000
0000
0000
0000
0000
0003
0300
0000
0010
0000
0000
0100
0000
0000
2020
0000
,
0000
0000
0000
3030
0000
0000
0000
0000
0000
0000
0000
0000
0000
0000
0200
0000
0000
0000
0000
0000
0000
0000
0000
0000
,
0000
0000
0300
0001
0000
0000
0000
0000
0000
0000
0010
0000
0200
0000
0000
0000
0000
0000
0000
0000
0000
0000
0000
0002
,
0300
0000
0000
0000
,
0000
0010
0000
0000
0000
0010
0000
0000
0000
0000
0110
0000
0000
0000
0000
0000
0000
0000
0003
0000
0000
0000
1010
0000
,
0000
0000
0000
0000
0000
0000
1000
0010
0000
0000
0000
0000
0001
0000
0000
0000
0001
0000
0000
0000
0000
0000
0101
0000
,
0000
0000
0010
0000
0000
0000
0000
0010
0000
0000
0000
1010
0000
0000
0000
0000
0010
0000
0000
0000
0000
1010
0000
0000
,
0000
0000
0010
0000
0000
0000
0010
0000
0000
0000
0100
0001
0000
0000
0000
0001
0000
0000
0000
0001
0000
0000
0000
0001
,
0100
0000
0000
0000
0001
0000
0000
0000
0101
0000
0000
0000
0000
0010
0000
0000
0000
0010
0000
0000
0000
0000
0110
0000
,
0000
0000
0000
0000
0000
0000
0000
0000
0000
0000
0000
0110
0000
0000
0000
0000
0000
0000
0000
0110
0000
0000
0000
0000
,
0000
0000
0010
0000
0000
0000
0010
0000
0000
0000
0000
0100
0000
0000
0000
0000
0000
0000
0000
0000
0000
0000
0001
0000
,
0000
0000
0000
0000
0000
0000
0100
0000
0000
0000
0000
0000
0000
0010
0000
0000
0000
0010
0000
0000
0000
0000
1010
0000
,
0000
0000
0000
0000
0000
0000
0000
0000
0000
0000
0000
0001
0000
1000
0000
0001
0000
1000
0000
0000
0010
0000
0000
0000
,
0000
0000
0010
0000
0000
0000
0010
0000
0000
0000
0110
0000
0000
0000
0000
0000
0000
0000
0000
0000
0000
0000
0000
0110
,
0000
0000
0000
0000
0000
0000
0000
0001
0000
0010
0000
0100
1000
0000
0000
0000
0000
0000
0000
0000
0000
0000
0101
0000
,
0000
0000
0000
0000
0000
0000
0000
0000
0000
0000
0000
0010
1000
0000
0000
0000
0000
0000
0000
0000
0000
1010
0000
0000
,
0000
0000
0100
0000
0000
0001
0000
0000
0000
0000
0010
0000
0000
0100
0000
0000
0000
0000
0101
0000
0000
0010
0000
0000
,
0000
0100
0000
0000
0000
0000
0000
0000
0001
0000
0000
0000
0010
0000
0000
0100
0000
0000
0000
0000
0000
0000
0001
0000
,
0000
0000
0000
0000
0000
0000
0000
0000
0000
0000
0000
0001
0000
0000
0000
0000
0000
0000
0000
0000
0000
0001
0000
0000
,
0000
0000
0001
0200
0000
0000
0000
0000
0000
0000
0000
0010
0000
0300
0000
0000
0000
0000
0000
0000
0000
0000
0000
0000
,
0000
0100
0000
0000
0000
0000
0000
0000
0000
0001
0000
0000
0000
0010
0000
0000
0000
1000
0000
0000
0000
0000
0000
0000
,
0010
0000
0000
0000
0000
0000
0000
0000
0000
0000
0000
0000
0100
0000
0000
0000
0000
0000
0000
0000
0000
0000
0000
0010
,
0000
0000
0000
0010
0000
0000
0000
0000
0000
0000
0000
0100
0000
0000
0000
0100
0000
0000
0000
0100
0000
0000
0000
0001
,
0000
0000
0000
0001
0000
1000
0000
0000
0000
1000
0000
0000
1000
0000
0000
0010
0000
0000
0000
0010
0000
0000
0100
0000
,
0000
0000
0100
0000
0000
0000
0100
0000
0001
0000
0000
0000
0000
0001
0000
1000
0000
0000
0000
1000
0000
0000
1000
0000
,
0000
0010
0000
0000
0000
0010
0000
0000
0010
0000
0000
0100
0000
0000
0000
0000
0100
0000
0000
0000
0100
0000
0000
0001
,
0000
0000
0000
0001
0000
0000
0000
0010
0000
0000
0000
1000
0010
0000
0000
1000
0000
0000
0000
1000
0000
0000
0000
1000
,
0000
0001
0000
0000
0000
0001
0000
0000
0000
0101
0000
0000
0000
0100
0000
0000
0000
0100
0000
0000
0000
0010
0000
0000
,
0000
0010
0000
0000
0000
0002
0000
0000
0000
0000
0000
0000
0000
0000
0000
0020
0000
0000
0000
0000
0100
0000
0000
1000
,
0030
0000
0000
0000
0000
0000
0000
0000
0000
0000
0000
0003
0000
0000
0000
0000
0220
0000
0000
0000
0000
0000
0000
0000
,
0000
0000
0000
0000
0000
0000
0000
0000
0000
0000
0000
0000
0000
0000
0000
0000
2002
0030
0300
0000
0000
0000
0000
0000
,
0000
0000
0000
0000
0000
0000
0000
0000
0000
0000
0000
0000
0000
0000
0000
0000
0000
0000
3000
0000
0013
0100
0000
0000
,
1000
0000
0000
0010
0000
0100
0000
0000
0001
0000
0000
0010
0000
0000
0000
0100
0000
0000
0001
0000
0000
1000
0010
0000
,
0000
0100
0000
0000
0001
0000
0000
0000
0010
0000
0000
0100
0000
0000
0000
0000
0000
0000
0000
0000
0000
0000
1000
0100
,
0000
0010
0000
0000
0000
0001
0000
0000
0000
0010
0000
0100
0000
1000
0000
0000
0000
0000
0000
0000
0000
0000
0000
1000
,
0000
0100
0010
0000
0000
0000
0001
0000
0010
0100
0000
0000
0000
1000
0000
0100
0000
0010
0000
0000
0000
0001
0000
0000
,
0000
1000
0000
0100
0000
0010
0000
0000
0000
0001
0000
0000
0000
0000
0100
0000
0000
0000
0000
0010
0000
0000
0000
0000
,
0000
0100
0000
0001
0000
0000
0100
0000
0000
0000
0000
0000
0000
0000
0000
1000
0000
0100
0010
0000
0000
0001
0000
0000
,
0100
0000
0000
0000
1000
0000
0100
0010
0000
0000
0001
0000
0000
1000
0000
0100
0000
0000
0000
0010
0000
0000
0001
1000
,
0000
0000
0100
0000
0000
0010
0000
0000
0000
1001
0000
0000
0100
0000
0000
0000
0010
0000
0000
0000
0001
0000
0100
0000
,
1000
0010
0000
0000
0000
0000
0000
0000
0000
0100
0000
0000
0000
0010
0000
0000
1000
0000
0000
0100
0000
0000
0011
0000
,
0000
0000
0010
1000
0000
0000
0100
0000
0000
0000
0001
0000
0000
0000
0000
0110
0000
0000
0000
0000
0000
0000
1001
0000
,
0000
0000
0000
0000
0000
0000
0000
0000
0000
0000
0000
0100
0000
1000
0000
0000
0000
0000
0010
0000
0000
0000
0000
0100
,
0000
0000
0000
0001
0000
0000
0000
0000
0000
0000
0000
0000
0010
0000
0100
0000
0000
0000
0000
0000
0000
0000
0000
0000
,
0101
0000
0101
0001
0000
0000
0000
0000
0010
1000
0000
0100
,
0000
0000
0000
0010
0000
0000
0000
0100
0000
0000
0000
0000
0000
0000
0000
0000
0000
0101
0000
0000
0000
0000
0100
0000
,
0000
0000
0000
0000
0000
1000
0010
0000
0000
0000
0000
0000
0000
0000
0000
0000
0000
0000
0010
0000
0000
0100
0000
0000
,
0000
0001
0000
0000
0010
0000
0000
0000
0100
0000
0000
0000
0001
0000
0000
0000
1000
0000
0010
0000
0000
0000
0000
0000
,
0000
0000
0000
0000
0000
0000
0000
0101
0000
0000
0000
0000
0000
0000
1010
0000
0000
0000
0000
0000
0000
0010
0000
0000
,
0000
1000
0000
0000
0000
0100
0001
0000
0000
0000
0010
0000
0000
0000
0000
0000
1000
0000
0000
0000
0001
0000
0000
0100
,
0000
0000
0000
0000
0000
0000
0000
0000
0000
0000
0110
0000
0000
0110
0000
0000
0000
0110
0000
0000
0110
0000
0000
0000
,
0001
1000
0000
0000
0100
0000
0000
0010
0000
0000
0000
0000
0100
0000
0000
0000
0000
0001
0000
0000
0000
1000
0000
0000
,
0010
0100
0000
0000
0000
0000
0001
0000
0000
0000
0000
0010
0000
0100
0000
0000
1000
0000
0000
0000
0001
1000
0000
0000
,
0000
0000
0000
0010
0000
0100
0000
0000
1000
0000
0000
0001
0000
0000
0100
0000
0000
0000
0010
0000
0000
0000
0000
0000
,
0000
0000
0000
0011
0000
0000
0000
0000
0000
0000
0011
0000
0000
0000
0000
1000
0000
0000
0000
0000
0020
0000
0000
0000
,
0030
0000
0000
0000
0000
0001
0000
0000
0010
0000
0000
0100
0000
1000
0000
0000
0000
0100
0000
0000
0010
0000
0000
0000
,
0001
0000
0000
0000
0100
0000
0000
1000
0000
0000
0000
0010
0000
0000
0000
0000
0000
0000
0000
0100
0010
0000
0000
0000
,
0000
1000
0001
0000
0000
0000
0000
0000
0000
0010
0000
0100
0000
0000
1000
0000
0000
0000
0010
0000
0000
0000
0000
0010
,
0000
0000
0000
0000
0010
0000
0000
0000
0000
0002
0000
0000
0000
0010
0000
0000
0000
0000
0100
0000
0000
1000
0000
0000
,
0000
0010
0003
0000
0100
0000
0000
0000
0000
0000
0000
0000
0000
0010
0000
0000
0100
0000
0000
0001
0000
0000
0010
0000
,
0000
0100
0000
0000
0000
0000
1000
0000
0000
0000
0100
0000
0000
0000
0010
0000
0000
0000
0001
0100
0000
0000
0000
0000
,
0000
0000
0000
0000
0110
0000
0000
0000
0110
0000
0000
0000
0000
0000
0000
0001
0000
0000
1000
0000
0100
0000
0000
0000
,
0010
0000
0000
0000
0001
0000
0000
0100
0000
0000
0000
0000
0000
0000
0000
0000
0000
0000
0101
0000
0000
0000
0000
0000
,
0000
0000
0000
1010
0000
0000
0000
0000
0001
0010
0100
1000
,
0000
0000
0000
0010
0000
0000
0000
0000
0000
0000
0010
0000
0000
0000
0000
0000
1000
0000
0100
0000
0010
0000
0000
0000
,
0001
0000
0000
0000
0000
0000
0000
0000
0110
0000
0000
0000
0000
0000
1001
0000
0000
0000
0000
0000
0010
0000
0000
0100
,
0000
1000
0000
0000
0000
0000
0010
0000
0000
0100
0000
0000
0000
0001
0000
0000
0000
0000
0010
0000
0000
0000
0000
0100
,
0010
0000
0000
0100
0000
0010
0000
0100
0000
0010
0000
0000
0000
0001
0000
0000
1000
0000
0000
0000
0000
0000
0000
0000
,
0000
0010
0000
0000
0100
0000
0000
1000
0000
0000
0001
0000
0000
0000
0010
0000
0000
0000
0000
0100
0000
0000
0000
0000
,
0010
0000
0000
0100
0000
0000
0100
0000
0000
0000
0001
0000
0000
0000
1000
0000
0000
0010
1000
0000
0000
0000
0000
0000
,
0000
0000
0000
0000
0100
0000
0001
0000
0100
0000
0000
0010
0000
0000
0000
1000
0000
0000
0000
0100
0000
0000
0000
1000
,
0000
0000
0000
0010
0000
0000
0001
0000
0000
0000
0010
0000
0100
0000
0000
1000
0000
0000
0100
0000
0010
0000
0000
0000
,
0001
0000
0000
0000
0000
0000
0010
0100
0000
0000
0000
0001
1000
0000
0000
0000
0010
0000
0000
0000
0000
0000
0001
0000
,
0000
0000
0000
1000
0000
0000
0000
0010
0000
1000
0000
0000
0000
0000
0000
0000
0000
0000
0001
0000
0000
0100
0000
0010
,
0000
0000
0100
0000
0001
0000
0000
0000
0000
0000
1000
0000
0000
0010
0100
0000
0000
0010
0000
0000
0000
0001
0000
1000
,
0000
0000
0000
0000
0010
0000
0000
0100
0000
0000
0000
0001
0000
0100
0000
0010
0000
0000
0000
0100
0000
0000
0000
0000
,
0001
0000
0000
0010
0000
0000
0001
0000
0000
0000
0000
0000
0000
0100
0000
0000
0000
0000
0001
0000
0000
0000
1000
0000
,
0000
0000
0100
0000
0000
0000
0000
0010
0000
0000
0000
0000
0100
0000
0010
0000
0100
0000
0000
0000
0000
0000
0000
0000
,
0000
0000
0010
0000
1000
0000
0000
0000
0000
0100
0000
0000
1000
0000
0000
0000
0000
0010
0000
0000
0000
0100
0000
0000
,
0010
0000
0000
0100
0000
0000
0000
1000
0000
0000
0001
0000
0000
0000
0000
0000
0000
0000
1001
0000
0000
0000
0000
1001
,
0000
0000
0000
1001
0000
0000
0000
0000
0110
0000
0000
0000
0110
0000
0000
0000
0110
0000
0000
0000
0001
0000
1000
0000
,
0000
0100
0000
0000
0010
0000
0000
1001
0000
0000
0000
0100
0000
0010
0000
0000
0000
0000
0000
0101
0000
0000
0000
0000
,
0000
0000
0000
0000
0101
0000
0000
0000
0000
0000
0000
0000
0000
0101
0000
0000
0000
0000
0000
0001
0000
0010
0100
0000
,
0000
1000
0000
0100
0000
0010
0000
0000
0001
0000
0000
1000
0000
0100
0000
0000
0000
0000
0000
0000
0110
0000
0000
0000
,
0000
0000
0000
0000
0110
0000
0000
0000
0000
0000
0000
0000
0110
0000
0000
0000
0000
1000
0000
0100
0000
0010
0000
0000
,
0001
0000
0000
0010
0000
0100
0000
1000
0000
0000
0100
0010
0000
0000
0000
0000
0000
0000
0101
0000
0000
0000
0000
0000
,
0000
0000
0101
0000
0000
0000
0000
0000
0000
0000
0100
0001
0000
0000
0000
0000
0001
0000
0010
0000
0100
0000
0000
1000
,
0000
0000
0000
0000
0000
0110
0000
0000
0000
0000
0000
0000
0000
0000
0110
0000
0000
0000
0000
0000
0000
0000
0000
1000
,
0001
0000
0000
0000
0000
0000
0000
0000
0000
0000
0010
0000
0000
0010
0000
0100
0000
0010
0000
0000
0010
0000
0000
0000
,
0010
0000
1000
0010
0000
0000
0000
0010
0000
0000
0010
0000
0000
0000
0010
0100
0000
0000
0010
0000
0000
0010
0000
0000
,
0000
0010
0000
0001
0010
0000
0000
0010
0000
0000
0000
0010
0000
0000
0000
0110
0000
0000
0000
0010
0000
0000
0000
0010
,
0000
0000
0010
1000
0000
0000
0000
0000
0000
0000
0000
1000
0001
0000
0000
0100
0000
0010
0000
0000
1000
0000
0000
0001
,
0000
0000
0100
0000
0010
0000
0000
0000
0000
0000
0000
0000
0000
0000
0000
0100
0001
0000
0000
0000
0000
0000
0000
0000
,
0010
0000
0000
0000
0000
0000
0000
1000
0000
0000
0000
0000
0000
0000
0010
0000
0100
0000
0000
0100
0000
0000
0000
0001
,
0000
0000
0010
0100
0000
0000
0000
0000
0101
0000
0000
0010
0000
0000
0000
0000
1000
0000
0000
0100
0000
0010
0000
0000
,
0000
0001
0000
0000
0010
0100
0000
0000
1000
0000
0000
0100
0000
0010
0000
0000
0001
0000
0000
0010
0000
0100
0000
0000
,
1000
0000
0000
0220
0000
0000
0000
0000
0000
0000
0000
0000
0000
0030
0301
0000
1000
0000
0100
0000
0000
0000
1000
0000
,
0000
0001
0000
0000
0000
0010
0000
0000
0000
0000
0000
0000
0000
0000
0101
0000
0000
0000
0000
0000
0000
0101
0000
0000
,
0000
0000
0000
0000
0000
1010
0000
0000
0000
0000
0000
0000
0001
0000
0000
0010
0100
0000
0000
0000
1000
0000
0000
0100
,
0000
0001
0000
0000
0110
0000
0000
0110
,
0000
0000
0000
0000
0000
0110
0000
0000
0000
0000
0000
1000
0000
0000
0010
0000
0000
0000
0000
0001
0000
0000
0000
1010
,
0000
0000
0000
0000
0100
0000
0000
0000
0000
0101
0000
0000
0000
0000
0000
0000
0000
0000
0101
0000
0000
0000
0000
0000
,
0000
0000
0100
0001
0000
0000
0000
1000
0000
0000
0100
0000
0000
0000
1000
0000
0000
0010
0000
0100
0000
0001
0000
0000
,
0010
0000
0000
0000
0000
0000
0000
0000
0000
0110
0000
0000
0000
0000
0000
0000
0000
0110
0000
0000
0000
0000
0000
0000
,
0100
0010
0000
0000
0000
0000
0001
0000
0000
0010
0000
0100
0000
0000
1000
0000
0100
0000
0020
0000
0000
0000
0000
0000
,
0000
0000
0000
0000
0000
0000
0000
0000
0100
0000
0000
0000
0000
0000
0000
0000
0000
0000
0000
1000
0000
0000
0000
0000
,
0000
0000
0000
0000
0000
0000
0000
0100
0000
0000
0000
0000
0001
0000
0000
0000
0100
0000
0000
1000
0000
0000
0001
0000
,
0000
0000
0000
0100
0000
1000
0000
0000
0001
0000
0000
0000
0000
0000
0100
0000
0000
1000
0000
0001
0000
0000
0000
0030
,
0000
0000
0000
0110
0000
0000
0000
0000
0011
0000
0000
0000
,
0000
0000
0000
0000
1100
0000
0000
0000
0000
0000
0000
0000
0000
0001
0000
0000
0010
0000
0100
0000
1000
0000
0000
0000
,
0100
0000
0010
0000
0000
0000
0001
0000
0100
0000
0000
0000
0000
0010
0000
0000
0000
0100
0000
0000
0000
0000
0000
0001
,
0000
0000
0010
0000
0000
0000
0000
0001
0000
0000
0000
0000
,
0000
0000
0000
0110
0000
0000
0000
1001
0000
0000
0000
0110
0000
0000
0000
1001
0000
0000
0000
0110
0000
0000
0000
0000
,
0000
1000
0001
0000
0000
0000
0000
1000
0000
0000
0001
0000
0000
0000
0000
0000
0000
0000
0000
1001
0000
0000
0000
0000
,
0000
0000
1000
0000
0010
0000
0000
0100
0000
0000
0001
0000
0000
0100
0000
0000
0000
0000
0000
0001
0000
0000
0000
0000
,
0110
0000
0000
0000
0000
0000
1000
0000
0000
0010
0000
0000
1000
0000
0000
0010
0000
0000
0000
0000
0000
0000
1000
0000
,
0100
0010
0000
0000
0001
0000
0000
0110
0000
0000
1000
0000
0100
0000
0010
0000
0001
0000
0000
0000
0000
0000
0000
0000
,
0110
0000
0110
0000
1001
0000
0010
0100
,
1000
0000
0000
0100
0000
0010
0000
0000
0001
0000
0010
0000
0000
0000
0000
1010
0000
0000
0000
0000
0000
0000
0000
0000
,
0000
0000
0110
0000
0000
0000
0000
0000
0000
0110
0000
0000
0000
0000
1001
0000
0000
0000
0000
0000
0000
0000
0000
0000
,
0000
0000
0110
0000
0000
0000
0000
0000
0000
0000
0000
0000
0000
0000
1000
0001
0000
0000
0000
0000
0000
0000
0000
0000
,
0000
0000
1010
0000
0000
0000
0000
0000
0000
0000
0000
0000
0000
0101
0000
0000
0000
0000
0000
0000
0000
0000
0000
0000
,
0000
1010
0000
0000
0000
0000
0000
0000
0000
0000
0000
0000
0010
0000
0100
0000
1000
0000
0000
0000
0000
0000
0000
0000
,
0110
0000
0000
0000
0000
0000
0000
0000
0000
0000
0000
0110
0000
0000
0000
0000
0000
0000
0000
0000
0000
0000
0000
0100
,
0010
0000
0000
0000
0001
0000
0000
0000
0000
0000
1000
0000
0100
0000
0010
0000
0000
0001
0000
0000
0000
1000
0100
0000
,
0000
1000
0000
0000
0100
0000
0010
0000
0000
0001
0000
1000
0000
0100
0000
0000
0000
0000
0000
0010
0000
1000
0000
0000
,
0000
0100
0000
0000
0000
0000
0000
0000
1100
0000
0000
0000
0001
0000
0000
0000
0000
0000
0000
0000
0202
0000
0000
0000
,
0000
0000
0000
0000
0000
0300
0000
0013
0000
0100
0000
1000
0000
0000
0010
0000
0000
0100
0000
0000
0001
0000
0100
0000
,
0010
0000
0101
0000
0000
0000
0011
0000
0000
0000
0101
0000
,
0000
1000
0000
0000
0100
0000
0010
0000
0001
0000
0000
0010
0100
0000
1000
0000
0100
0010
0000
0000
0001
0000
0000
0000
,
0000
0101
0000
0000
0000
0000
0000
0000
0101
0000
0000
0000
0000
0000
0000
0000
0100
0001
0000
0000
0000
0010
0000
1000
,
0000
0000
0100
0001
0000
0000
0100
0000
0010
0000
0000
0101
0000
0000
0000
0000
0000
0000
0000
0000
0000
1010
0000
0000
,
0000
0000
0000
0000
0000
1010
0000
0000
0000
0000
0000
0000
0000
1010
0000
0000
0000
0000
0100
0000
0000
0000
0000
0010
,
0000
0000
0001
0000
1000
0000
0010
0000
0000
0100
0000
0000
0000
0000
0000
0000
0000
0000
0101
0000
0000
0000
0000
0000
,
0000
0101
0000
0000
0000
0000
0000
0000
0000
0100
0001
0000
0000
0000
0000
0001
0000
0100
0000
0010
0000
0000
0000
0000
,
1000
0000
0001
0000
0000
0000
0010
0000
0100
0000
0000
1000
0000
0001
0000
0000
0000
0010
0100
0000
0000
0000
1000
0001
,
0000
0000
0000
1000
0100
0000
1000
0000
0000
0001
0000
0000
0010
0000
0100
0000
0000
1000
0000
0001
0000
0000
0000
0010
,
0000
0100
0000
0000
0010
0000
0000
0100
0000
0001
0000
0000
1000
0000
0000
0001
0000
0000
1000
0000
0000
0001
0000
0000
,
1000
0000
0000
0000
0000
0000
0100
0000
0000
1000
0000
0001
0000
0100
0000
0000
0000
0010
0000
1000
0000
0000
0001
0000
,
0100
0000
0000
0010
0000
0000
1000
0001
0000
0000
0000
0100
0000
0010
0000
0000
1000
0001
0000
0000
0000
0100
0010
0000
,
0000
0001
0000
0010
0000
1000
0000
0000
0000
0001
0000
0010
0000
0000
0000
0100
0000
0000
1000
0000
0010
0000
0000
0100
,
0000
0001
0000
1000
0000
0000
0000
0110
0000
0000
0000
1000
0000
0100
0000
0000
0001
0000
0000
0100
0000
0000
0000
0000
,
0100
0000
0001
0000
0000
0000
0010
0000
0000
0000
0100
0000
0000
0000
0100
0000
0001
0000
0000
0100
0000
0010
0000
0000
,
0000
1000
0000
0000
0000
0000
0000
0000
0000
0000
1001
0000
0000
0000
0000
0000
0000
1001
0000
0000
0000
0000
0000
0000
,
0010
0000
0100
0000
1000
0000
0000
0010
0000
0100
0000
0000
0000
0100
0000
0001
0000
0000
0000
0000
0000
0101
0000
0000
,
0000
0000
0000
0000
0000
0101
0000
0000
0000
0000
0000
0000
0000
0101
0000
0000
0000
0000
0000
1000
0000
0000
0100
0000
,
0010
0000
0000
0000
0100
0000
0000
1000
0000
0000
0100
0000
0000
0000
0000
0110
0000
0000
0000
0000
0000
0000
0000
1001
,
0000
0000
0000
0000
0000
0000
0000
1010
0000
0000
0000
0000
0000
0010
0100
0000
0000
1000
0000
0000
0001
0000
0100
0000
,
0010
0000
0000
0000
0100
0000
0000
0000
0000
0000
0000
0101
0000
0000
0000
0000
0000
0000
0000
0010
0000
0000
0000
0000
,
0000
0000
0000
0101
0000
0000
0000
0000
0000
0202
0000
0000
0000
0000
0000
0000
0000
0000
0000
0000
0310
0000
0000
0100
,
0000
0000
1000
0000
0000
0000
0000
0010
0003
0100
0000
0000
0000
1000
0000
0000
0000
0010
0000
0000
0100
0000
0000
0000
,
0000
0010
0000
0000
0001
0000
0000
0010
0000
0100
0000
0000
1000
0000
0100
0000
0010
0000
0001
0000
0000
0000
0010
0000
,
0100
0000
0000
0000
1000
0000
0000
0100
0000
0010
0000
0000
0001
0000
0000
0000
0010
0000
0100
0000
0000
1000
0000
0100
,
0000
0000
0010
0000
0001
0000
0000
0000
0000
0000
0000
0100
0000
0000
1000
0000
0000
0100
0000
0000
0010
0000
0000
0000
,
0000
0100
0000
0010
0000
0000
0000
0000
0000
0100
0000
0000
0000
1000
0000
0000
0001
0000
0000
0000
0000
0000
0000
0001
,
0000
0000
1000
0000
0000
0000
0010
0000
0000
0100
0000
0000
0000
1000
0000
0001
0000
0000
0000
0100
0000
0010
0000
0000
,
0100
0000
0001
0000
0000
0100
0000
0000
0000
0010
0000
0100
0000
0010
0000
0000
0000
0010
0000
0000
0000
0000
1000
0000
,
0000
0000
0000
0000
0000
0000
0000
0000
0000
1001
0000
0000
0000
0000
0000
0000
0000
0000
0000
1000
0001
0000
0000
0000
,
0000
1000
0001
0000
0000
0000
0000
1000
0001
0000
0000
0000
0110
0000
0000
0000
0000
0000
0000
0011
0000
0000
0000
0000
,
0000
0011
0000
0000
0000
0000
0000
1100
0000
0000
0000
0000
0000
0011
0000
0000
0000
1100
0000
0000
0000
0000
0000
0011
,
0000
0000
0000
0000
0000
1100
0000
0000
0000
0000
0000
0011
0000
0000
0000
0000
1100
0000
0000
0000
0011
0000
0000
0000
,
1100
0000
0000
0000
0000
0000
0000
1001
0000
0000
0000
0000
0010
0000
0000
0000
0100
0000
0000
0010
0000
0000
0000
0100
,
0000
0000
1001
0000
0000
0000
0000
0110
0000
0000
0000
0000
0000
0000
0000
0011
0000
0000
0000
0000
0011
0000
0000
0000
,
1000
0000
0000
0000
0000
0001
0000
0000
0000
0000
0000
0000
0000
0000
0202
0000
0000
0000
0300
0000
0000
0000
0000
0000
,
0000
1010
0000
0003
1010
0000
0000
0000
0000
2020
0000
0000
0000
0000
0000
0000
0000
0000
0000
0000
0000
0000
0000
0000
,
0030
3000
0001
0000
0000
0010
0100
0000
0000
1000
0000
0100
0000
0010
0000
0000
0001
0000
1000
0000
0000
0100
0000
0010
,
0000
0000
0000
0000
0000
1001
0000
0000
0000
0000
0000
0000
1001
0000
0000
0000
0000
0000
0000
0110
0000
0000
0000
0000
,
0000
2002
0000
0000
0000
0000
0000
0000
0000
0000
0000
0000
0000
0000
0000
0000
0000
0000
0000
3000
0003
0000
0000
0000
;
