#TITLE:Under the Waves;
#SUBTITLE:;
#ARTIST:Pendulum;
#TITLETRANSLIT:;
#SUBTITLETRANSLIT:;
#ARTISTTRANSLIT:;
#CREDIT:;
#BANNER:underthewavesbn.png;
#BACKGROUND:underthewavesbg.png;
#LYRICSPATH:;
#CDTITLE:;
#MUSIC:underthewaves.ogg;
#OFFSET:0.040;
#SAMPLESTART:124.105;
#SAMPLELENGTH:22.070;
#SELECTABLE:YES;
#DISPLAYBPM:174.000;
#BPMS:0.000=174.000,144.000=87.000,172.000=174.000,180.000=87.000,196.000=174.000,516.000=87.000,544.000=174.000,552.000=87.000,584.000=174.000;
#STOPS:;
#BGCHANGES:;
// cache tags:
#FIRSTBEAT:16.000;
#LASTBEAT:736.000;
#SONGFILENAME:Songs/Pendulum/Under the Waves/underthewaves.sm;
#HASMUSIC:1;
#HASBANNER:1;
#MUSICLENGTH:294.000;
// end cache tags

//---------------dance-single - I. Pyles----------------
#NOTES:
     dance-single:
     I. Pyles:
     Challenge:
     13:
     0.934,1.000,0.320,0.051,1.000,1813.000,94.000,15.000,242.000,0.000:

0000
0000
0000
0000
,
0000
0000
0000
0000
,
0000
0000
0000
0000
,
0000
0000
0000
0000
,
1001
1000
0001
0010
0000
1000
0001
0010
,
0000
1000
0001
0010
0000
1000
0001
0010
,
0110
0100
1000
0001
0000
0100
1000
0001
,
0000
0100
1000
0001
0000
0100
1000
0001
,
1001
0001
1000
0010
0000
0001
1000
0010
,
0000
0001
1000
0010
0000
0001
1000
0010
,
0110
0100
0001
1000
0000
0100
0001
1000
,
0000
0100
0001
1000
0000
0100
0001
1000
,
1001
1000
0001
0100
0000
1000
0001
0100
,
0000
1000
0001
0100
0000
1000
0001
0100
,
0110
0010
1000
0001
0000
0010
1000
0001
,
0000
0010
1000
0001
0000
0010
1000
0001
,
1001
0001
1000
0100
0000
0001
1000
0100
,
0000
0001
1000
0100
0000
0001
1000
0100
,
0110
0010
0001
1000
0000
0010
0001
1000
,
0000
0010
0001
1000
0000
0010
0001
1000
,
1001
0000
1000
0000
0001
0000
0020
0000
0000
0030
0010
0000
0001
0000
1000
0000
,
0000
0000
0010
0000
0001
0000
2000
0000
0000
3000
1000
0000
0001
0000
0100
0000
,
0110
0000
0010
0000
1000
0000
0002
0000
0000
0003
0001
0000
1000
0000
0100
0000
,
0000
0000
0001
0000
1000
0000
0200
0000
0000
0300
0100
0000
1000
0000
0001
0000
,
1001
0000
0001
0000
1000
0000
0020
0000
0000
0030
0010
0000
1000
0000
0001
0000
,
0000
0000
0010
0000
1000
0000
0002
0000
0000
0003
0001
0000
1000
0000
0010
0000
,
0110
0000
0100
0000
0001
0000
2000
0000
0000
3000
1000
0000
0001
0000
0100
0000
,
0000
0000
1000
0000
0001
0000
0200
0000
0000
0300
0100
0000
0001
0000
1000
0000
,
1001
0000
0000
0000
1000
0000
0010
0100
0010
0000
1000
0000
0001
0000
0000
0000
,
1000
0000
0001
0000
0010
0100
0010
0100
1000
0000
0001
0000
1001
0000
0001
0000
,
1001
0000
0000
0000
0001
0000
0010
0100
0010
0000
0001
0000
1000
0000
0000
0000
,
0001
0000
1000
0000
0010
0100
0010
0100
0001
0000
1000
0000
1001
0000
1000
0000
,
1001
0000
0000
0000
1000
0000
0100
0010
0100
0000
1000
0000
0001
0000
0000
0000
,
1000
0000
0001
0000
0100
0010
0100
0010
1000
0000
0001
0000
1001
0000
0001
0000
,
1001
0000
1000
0000
0001
0000
0100
0010
0100
0000
0001
0000
1000
0000
0001
0000
,
1000
0000
0001
0000
0010
0100
0010
0100
1000
0000
0001
0000
0101
0000
0110
0000
,
1001
0000
0000
0100
M00M
0010
M00M
0000
M00M
0000
M00M
0100
M00M
0010
0000
1000
,
0010
0000
0M0M
1000
0M0M
0010
0M0M
0000
0M0M
0000
0M0M
1000
0M0M
0010
0000
0100
,
0001
0000
M0M0
0100
M0M0
0001
M0M0
0000
M0M0
0000
M0M0
0100
M0M0
0001
0000
0010
,
0100
0000
M00M
0010
M00M
0100
M00M
0000
M00M
0000
M00M
0010
M00M
0100
0000
1000
,
0001
0000
0MM0
1000
0MM0
0001
0MM0
0000
0MM0
0000
0MM0
1000
0MM0
0001
0000
1000
,
0100
0000
00MM
1000
00MM
0100
00MM
0000
00MM
0000
00MM
1000
00MM
0100
0000
0010
,
0001
0000
MM00
0010
MM00
0001
MM00
0000
MM00
0000
MM00
0010
MM00
0001
MM00
0010
,
0001
0100
0001
1000
0010
0100
0001
1000
,
0100
0010
0001
1000
0100
0110
0100
1100
,
1001
0M00
00M0
0M00
00M0
0M00
00M0
0M00
,
00M0
0M00
00M0
0M00
00M0
0M00
00M0
0M00
,
00M0
0M00
00M0
0M00
00M0
0M00
00M0
0M00
,
1000
0000
0001
0000
1000
0000
0001
0000
1000
0000
0001
0000
1000
0000
0001
0000
1000
0000
0001
0000
1000
0000
0001
0000
1000
0000
0100
0000
0010
0100
1000
0000
,
0001
0100
0001
0100
0010
0000
0100
0001
1000
0001
1000
0100
0010
0000
0100
0000
,
0010
0001
1000
0100
0010
0001
1000
0010
1000
0010
0100
0001
1000
0100
1000
0100
,
0010
0001
1000
0001
1000
0000
0001
0010
0001
0010
0100
1000
0001
0000
0100
0000
,
0010
1000
0001
1000
0010
1000
0001
0100
0010
0100
0001
0100
0010
1000
0001
0010
,
0100
1000
0001
1000
0001
0000
1000
0100
1000
0100
0010
0001
1000
0000
0010
0000
,
0100
0001
1000
0010
0100
0001
1000
0100
1000
0100
0010
0001
1000
0010
1000
0010
,
0100
0001
1000
0001
1000
0000
0001
0100
0001
0100
0010
1000
0001
0000
0010
0000
,
0100
1000
0001
1000
0100
1000
0010
0100
0001
0100
0010
1000
0001
1000
0010
0100
,
0001
0010
0001
0010
0100
0000
0010
0001
1000
0001
1000
0010
0100
0000
0010
0000
,
0100
0001
1000
0010
0100
0001
1000
0100
1000
0100
0010
0001
1000
0010
1000
0010
,
0100
0001
1000
0001
1000
0000
0001
0100
0001
0100
0010
1000
0001
0000
0010
0000
,
0100
1000
0001
1000
0100
1000
0001
0010
0100
0010
0001
0010
0100
1000
0001
0100
,
0010
1000
0001
1000
0001
0000
1000
0010
1000
0010
0100
0001
1000
0000
0100
0000
,
0010
0001
1000
0100
0010
0001
1000
0010
1000
0010
0100
0001
1000
0100
1000
0100
,
0010
0001
1000
0001
1000
0000
0001
0010
0001
0010
0100
1000
0001
0000
0100
0000
,
0010
1000
0001
1000
0010
1000
0100
0010
0001
0010
0100
1000
0001
1000
0100
0010
,
0001
0011
0010
0110
,
0010
0010
0011
0000
0001
0000
1001
0000
,
1000
1010
0010
0110
,
0010
0010
1010
0000
1000
0000
1001
0000
,
0001
0101
0100
0110
,
0100
0100
0101
0000
0001
0000
1001
0000
,
1000
1100
0100
0110
,
0100
0100
1100
1000
0001
0000
0110
0000
,
1000
1100
0100
0110
,
0100
0100
1100
0000
1000
0000
1001
0000
,
0001
0101
0100
0110
,
0100
0100
0101
0000
0001
0000
1001
0000
,
1000
1010
0010
0110
,
0010
0010
1010
0000
1000
0000
1001
0000
,
0001
0011
0010
0110
,
0010
0010
0011
0001
1000
0001
1001
0001
,
1000
0001
0100
0010
1000
0001
0100
0010
0100
0010
1000
0010
1000
0010
0100
0001
,
1000
0100
1000
0100
0010
0001
0010
0001
1000
0010
1000
0010
0100
0001
0100
0001
,
1000
0001
0010
0100
1000
0001
0100
0010
0100
0010
1000
0010
1000
0010
0100
0001
,
1000
0010
1000
0010
0100
0001
0100
0001
1000
0100
1000
0100
0010
0001
0010
0001
,
1000
0001
0100
0010
1000
0001
0100
0010
0100
0010
1000
0010
1000
0010
0100
0001
,
1000
0100
1000
0100
0010
0001
0010
0001
1000
0010
1000
0010
0100
0001
0100
0001
,
1000
0001
0010
0100
1000
0001
0100
0010
0100
0010
1000
0010
1000
0010
0100
0001
,
1000
0010
1000
0010
0100
0001
0100
0001
1000
0100
1000
0100
0010
0001
0010
0001
,
1000
0001
0100
0010
1000
0001
0100
0010
0100
0010
1000
0010
1000
0010
0100
0001
,
1000
0100
1000
0100
0010
0001
0010
0001
1000
0010
1000
0010
0100
0001
0100
0001
,
1000
0001
0010
0100
1000
0001
0100
0010
0100
0010
1000
0010
1000
0010
0100
0001
,
1000
0010
1000
0010
0100
0001
0100
0001
1000
0100
1000
0100
0010
0001
0010
0001
,
1000
0001
0100
0010
1000
0001
0100
0010
0100
0010
1000
0010
1000
0010
0100
0001
,
1000
0100
1000
0100
0010
0001
0010
0001
1000
0010
1000
0010
0100
0001
0100
0001
,
1000
0001
0010
0100
1000
0001
0100
0010
0100
0010
1000
0010
1000
0010
0100
0001
,
1000
0100
0010
0001
1000
0100
1000
0100
0010
0001
1000
0010
1000
0010
0100
0001
,
1000
0010
1000
0010
0100
0000
0010
1000
0001
1000
0001
0010
0100
0000
0010
0000
,
0100
1000
0001
0010
0100
1000
0001
0100
0001
0100
0010
1000
0001
0010
0001
0010
,
0100
1000
0001
1000
0001
0000
1000
0100
1000
0100
0010
0001
1000
0000
0010
0000
,
0100
0001
1000
0001
0100
0001
1000
0010
0100
0010
1000
0010
0100
0001
1000
0100
,
0010
0001
1000
0001
1000
0000
0001
0010
0001
0010
0100
1000
0001
0000
0100
0000
,
0010
1000
0001
0100
0010
1000
0001
0010
0001
0010
0100
1000
0001
0100
0001
0100
,
0010
1000
0001
1000
0001
0000
1000
0010
1000
0010
0100
0001
1000
0000
0100
0000
,
0010
0001
1000
0001
0010
0001
0100
0010
1000
0010
0100
0001
1000
0001
0100
0010
,
1000
0100
1000
0100
0010
0000
0100
1000
0001
1000
0001
0100
0010
0000
0100
0000
,
0010
1000
0001
0100
0010
1000
0001
0010
0001
0010
0100
1000
0001
0100
0001
0100
,
0010
1000
0001
1000
0001
0000
1000
0010
1000
0010
0100
0001
1000
0000
0100
0000
,
0010
0001
1000
0001
0010
0001
1000
0100
0010
0100
1000
0100
0010
0001
1000
0010
,
0100
0001
1000
0001
1000
0000
0001
0100
0001
0100
0010
1000
0001
0000
0010
0000
,
0100
1000
0001
0010
0100
1000
0001
0100
0001
0100
0010
1000
0001
0010
0001
0010
,
0100
1000
0001
1000
0001
0000
1000
0100
1000
0100
0010
0001
1000
0000
0010
0000
,
0100
0001
1000
0001
0100
0001
0010
0100
1000
0100
0010
0001
1000
0001
0010
0100
,
1000
1100
0100
0110
,
0100
0100
1100
0000
1000
0000
1001
0000
,
0001
0101
0100
0110
,
0100
0100
0101
0000
0001
0000
1001
0000
,
1000
1010
0010
0110
,
0010
0010
1010
0000
1000
0000
1001
0000
,
0001
0011
0010
0110
,
0010
0010
0011
0001
1000
0000
0110
0000
,
0001
0011
0010
0110
,
0010
0010
0011
0000
0001
0000
1001
0000
,
1000
1010
0010
0110
,
0010
0010
1010
0000
1000
0000
1001
0000
,
0001
0101
0100
0110
,
0100
0100
0101
0000
0001
0000
1001
0000
,
1000
1100
0100
0110
,
0100
0100
1100
1000
0001
1000
1010
0110
,
1001
0000
0000
0010
M00M
0100
M00M
0000
M00M
0000
M00M
0010
M00M
0100
0000
0001
,
0100
0000
M0M0
0001
M0M0
0100
M0M0
0000
M0M0
0000
M0M0
0001
M0M0
0100
0000
0010
,
1000
0000
0M0M
0010
0M0M
1000
0M0M
0000
0M0M
0000
0M0M
0010
0M0M
1000
0000
0100
,
0010
0000
M00M
0100
M00M
0010
M00M
0000
M00M
0000
M00M
0100
M00M
0010
0000
0001
,
1000
0000
0MM0
0001
0MM0
1000
0MM0
0000
0MM0
0000
0MM0
0001
0MM0
1000
0000
0001
,
0010
0000
MM00
0001
MM00
0010
MM00
0000
MM00
0000
MM00
0001
MM00
0010
0000
0100
,
1000
0000
00MM
0100
00MM
1000
00MM
0000
00MM
0000
00MM
0100
00MM
1000
00MM
0100
,
1000
0010
1000
0001
0100
0010
1000
0001
,
0010
0100
1000
0001
0100
0110
0100
0101
,
1001
M000
0M00
M000
0M00
M000
0M00
M000
,
0M00
M000
0M00
M000
0M00
M000
0M00
M000
,
0M00
M000
0M00
M000
0M00
M000
0M00
M000
,
0M00
M000
0M00
M000
0M00
M000
0M00
M000
,
0001
0000
0000
0000
1000
0000
0000
0000
0010
0000
0100
0000
0010
0000
0000
0000
1000
0000
0000
0000
0002
0000
0000
0000
0000
0000
0000
0003
0001
0000
0000
0000
1000
0000
0000
0000
0010
0000
0000
0000
0100
0000
0001
0000
0100
0000
0000
0000
0010
0000
0000
0000
2000
0000
0000
0000
0000
0000
0000
3000
1000
0000
0000
0000
,
0001
0000
0000
0000
0100
0000
0000
0000
0010
0000
1000
0000
0010
0000
0000
0000
0100
0000
0000
0000
0002
0000
0000
0000
0000
0000
0000
0003
0001
0000
0000
0000
1000
0000
0000
0000
0100
0000
0000
0000
0010
0000
0001
0000
0010
0000
0000
0000
0100
0000
0000
0000
2000
0000
0000
0000
0000
0000
0000
3000
1000
0000
0000
0000
,
0001
0000
0000
0000
0010
0000
0000
0000
0100
0000
1000
0000
0100
0000
0000
0000
0010
0000
0000
0000
0002
0000
0000
0000
0000
0000
0000
0003
0001
0000
0000
0000
1000
0000
0000
0000
0001
0000
0000
0000
1000
0000
0000
0000
0001
0000
0000
0000
1000
0000
0000
0000
0001
0000
0000
0000
1000
0000
0000
0000
0001
0000
0000
0000
,
1000
0000
0001
0000
1000
0100
1000
0000
0001
0000
1000
0000
0001
0000
1000
0000
0001
0100
0001
0000
1000
0100
1000
0000
0001
0010
0001
0000
2000
0000
3000
0000
,
0001
0010
0100
0010
0001
1000
0001
1000
0100
0010
0100
1000
0010
0100
0010
1000
,
0010
0100
0001
0100
0010
1000
0001
0010
0001
0010
0100
1000
0001
0100
0001
0100
,
0001
0010
0100
0010
0001
1000
0001
1000
0100
0010
0100
1000
0010
0100
0010
1000
,
0100
1000
0001
1000
0100
1000
0001
0010
0100
0010
0001
0010
0100
1000
0001
0100
,
0001
0010
0100
0010
0001
1000
0001
1000
0100
0010
0100
1000
0010
0100
0010
1000
,
0010
0100
0001
0100
0010
1000
0001
0010
0001
0010
0100
1000
0001
0100
0001
0100
,
0001
0010
0100
0010
0001
1000
0001
1000
0100
0010
0100
1000
0010
0100
0010
1000
,
0100
1000
0001
1000
0100
1000
0010
0100
0001
0100
0010
1000
0001
1000
0010
1000
,
0001
0100
0010
0100
0001
1000
0001
1000
0010
0100
0010
1000
0100
0010
0100
1000
,
0100
0010
0001
0010
0100
1000
0001
0100
0001
0100
0010
1000
0001
0010
0001
0010
,
0001
0100
0010
0100
0001
1000
0001
1000
0010
0100
0010
1000
0100
0010
0100
1000
,
0010
1000
0001
1000
0010
1000
0001
0100
0010
0100
0001
0100
0010
1000
0001
0010
,
0001
0100
0010
0100
0001
1000
0001
1000
0010
0100
0010
1000
0100
0010
0100
1000
,
0100
0010
0001
0010
0100
1000
0001
0100
0001
0100
0010
1000
0001
0010
0001
0010
,
0001
0100
0010
0100
0001
1000
0001
1000
0010
0100
0010
1000
0100
0010
0100
1000
,
0010
1000
0001
1000
0010
1000
0100
0010
0001
0010
0100
1000
0001
1000
0100
0010
,
0001
1000
0010
1000
0010
1000
0010
1000
0010
1000
0001
0100
0010
1000
0001
0010
,
0100
1000
0100
1000
0100
1000
0100
1000
0100
1000
0001
0100
0010
1000
0001
1000
,
0100
0010
0100
0010
0100
0010
0100
0010
0100
0010
0001
1000
0100
0010
0001
1000
,
0010
1000
0010
1000
0010
1000
0010
1000
0010
1000
0001
0100
0010
1000
0001
0010
,
0100
1000
0100
1000
0100
1000
0100
1000
0100
1000
0001
0100
0010
1000
0001
1000
,
0100
0010
0100
0010
0100
0010
0100
0010
0100
0010
0001
1000
0010
0100
0001
1000
,
0100
1000
0100
1000
0100
1000
0100
1000
0100
1000
0001
0010
0100
1000
0001
0100
,
0010
1000
0010
1000
0010
1000
0010
1000
0010
1000
0001
0010
0100
1000
0001
1000
,
0010
0100
0010
0100
0010
0100
0010
0100
0010
0100
0001
1000
0100
0010
0001
1000
,
0010
1000
0010
1000
0010
1000
0010
1000
0010
1000
0001
0100
0010
1000
0001
0010
,
0100
1000
0100
1000
0100
1000
0100
1000
0100
1000
0001
0100
0010
1000
0001
1000
,
0100
0010
0100
0010
0100
0010
0100
0010
0100
0010
0001
1000
0100
0010
0001
1000
,
0010
1000
0010
1000
0010
1000
0010
1000
0010
1000
0001
0100
0010
1000
0001
0010
,
0100
1000
0100
1000
0100
1000
0100
1000
0100
1000
0001
0100
0010
1000
0001
1000
,
0100
0010
0100
0010
0100
0010
0100
0010
0100
0010
0001
1000
0010
0100
0001
1000
,
0100
1000
0100
1000
0100
1000
0100
1000
0100
1000
0001
0010
0100
1000
0001
0100
,
0020
0000
0000
0000
,
MM0M
0000
0000
0000
,
MM0M
0000
0000
0000
,
MM0M
0000
0000
0000
,
MM3M
0000
0000
0000
,
MMMM
0000
0000
0000
,
MMMM
0000
0000
0000
;

//---------------dance-single - I. Pyles----------------
#NOTES:
     dance-single:
     I. Pyles:
     Hard:
     12:
     0.759,1.000,0.374,0.051,0.794,1413.000,110.000,15.000,242.000,0.000:
0000
0000
0000
0000
,
0000
0000
0000
0000
,
0000
0000
0000
0000
,
0000
0000
0000
0000
,
1001
1000
0001
0010
0000
1000
0001
0010
,
0000
1000
0001
0010
0000
1000
0001
0010
,
0110
0100
1000
0001
0000
0100
1000
0001
,
0000
0100
1000
0001
0000
0100
1000
0001
,
1001
0001
1000
0010
0000
0001
1000
0010
,
0000
0001
1000
0010
0000
0001
1000
0010
,
0110
0100
0001
1000
0000
0100
0001
1000
,
0000
0100
0001
1000
0000
0100
0001
1000
,
1001
1000
0001
0100
0000
1000
0001
0100
,
0000
1000
0001
0100
0000
1000
0001
0100
,
0110
0010
1000
0001
0000
0010
1000
0001
,
0000
0010
1000
0001
0000
0010
1000
0001
,
1001
0001
1000
0100
0000
0001
1000
0100
,
0000
0001
1000
0100
0000
0001
1000
0100
,
0110
0010
0001
1000
0000
0010
0001
1000
,
0000
0010
0001
1000
0000
0010
0001
1000
,
1001
0000
1000
0000
0001
0000
0020
0000
0000
0030
0010
0000
0001
0000
1000
0000
,
0000
0000
0010
0000
0001
0000
2000
0000
0000
3000
1000
0000
0001
0000
0100
0000
,
0110
0000
0010
0000
1000
0000
0002
0000
0000
0003
0001
0000
1000
0000
0100
0000
,
0000
0000
0001
0000
1000
0000
0200
0000
0000
0300
0100
0000
1000
0000
0001
0000
,
1001
0000
0001
0000
1000
0000
0020
0000
0000
0030
0010
0000
1000
0000
0001
0000
,
0000
0000
0010
0000
1000
0000
0002
0000
0000
0003
0001
0000
1000
0000
0010
0000
,
0110
0000
0100
0000
0001
0000
2000
0000
0000
3000
1000
0000
0001
0000
0100
0000
,
0000
0000
1000
0000
0001
0000
0200
0000
0000
0300
0100
0000
0001
0000
1000
0000
,
1001
0000
0000
0000
1000
0000
0010
0100
0010
0000
1000
0000
0001
0000
0000
0000
,
1000
0000
0001
0000
0010
0100
0010
0100
1000
0000
0001
0000
1001
0000
0001
0000
,
1001
0000
0000
0000
0001
0000
0010
0100
0010
0000
0001
0000
1000
0000
0000
0000
,
0001
0000
1000
0000
0010
0100
0010
0100
0001
0000
1000
0000
1001
0000
1000
0000
,
1001
0000
0000
0000
1000
0000
0100
0010
0100
0000
1000
0000
0001
0000
0000
0000
,
1000
0000
0001
0000
0100
0010
0100
0010
1000
0000
0001
0000
1001
0000
0001
0000
,
1001
0000
1000
0000
0001
0000
0100
0010
0100
0000
0001
0000
1000
0000
0001
0000
,
1000
0000
0001
0000
0010
0100
0010
0100
1000
0000
0001
0000
0101
0000
0110
0000
,
1001
0000
0000
0100
M00M
0010
M00M
0000
M00M
0000
M00M
0100
M00M
0010
0000
1000
,
0010
0000
0M0M
1000
0M0M
0010
0M0M
0000
0M0M
0000
0M0M
1000
0M0M
0010
0000
0100
,
0001
0000
M0M0
0100
M0M0
0001
M0M0
0000
M0M0
0000
M0M0
0100
M0M0
0001
0000
0010
,
0100
0000
M00M
0010
M00M
0100
M00M
0000
M00M
0000
M00M
0010
M00M
0100
0000
1000
,
0001
0000
0MM0
1000
0MM0
0001
0MM0
0000
0MM0
0000
0MM0
1000
0MM0
0001
0000
1000
,
0100
0000
00MM
1000
00MM
0100
00MM
0000
00MM
0000
00MM
1000
00MM
0100
0000
0010
,
0001
0000
MM00
0010
MM00
0001
MM00
0000
MM00
0000
MM00
0010
MM00
0001
MM00
0010
,
0001
0100
0001
1000
0010
0100
0001
1000
,
0100
0010
0001
1000
0100
0110
0100
1100
,
1001
0M00
00M0
0M00
00M0
0M00
00M0
0M00
,
00M0
0M00
00M0
0M00
00M0
0M00
00M0
0M00
,
00M0
0M00
00M0
0M00
00M0
0M00
00M0
0M00
,
1000
0000
0001
0000
1000
0000
0001
0000
1000
0000
0001
0000
1000
0000
0001
0000
1000
0000
0001
0000
1000
0000
0001
0000
1000
0000
0100
0000
0010
0100
1000
0000
,
0001
0100
0001
0100
0010
0000
0100
0001
1000
0001
1000
0100
0010
0000
0100
0000
,
0010
0001
1000
0100
0010
0001
1000
0010
1000
0010
0100
0001
1000
0100
1000
0100
,
0010
0001
1000
0001
1000
0000
0001
0010
0001
0010
0100
1000
0001
0000
0100
0000
,
0010
1000
0001
1000
0010
1000
0001
0100
0010
0100
0001
0100
0010
1000
0001
0010
,
0100
1000
0001
1000
0001
0000
1000
0100
1000
0100
0010
0001
1000
0000
0010
0000
,
0100
0001
1000
0010
0100
0001
1000
0100
1000
0100
0010
0001
1000
0010
1000
0010
,
0100
0001
1000
0001
1000
0000
0001
0100
0001
0100
0010
1000
0001
0000
0010
0000
,
0100
1000
0001
1000
0100
1000
0010
0100
0001
0100
0010
1000
0001
1000
0010
0100
,
0001
0010
0001
0010
0100
0000
0010
0001
1000
0001
1000
0010
0100
0000
0010
0000
,
0100
0001
1000
0010
0100
0001
1000
0100
1000
0100
0010
0001
1000
0010
1000
0010
,
0100
0001
1000
0001
1000
0000
0001
0100
0001
0100
0010
1000
0001
0000
0010
0000
,
0100
1000
0001
1000
0100
1000
0001
0010
0100
0010
0001
0010
0100
1000
0001
0100
,
0010
1000
0001
1000
0001
0000
1000
0010
1000
0010
0100
0001
1000
0000
0100
0000
,
0010
0001
1000
0100
0010
0001
1000
0010
1000
0010
0100
0001
1000
0100
1000
0100
,
0010
0001
1000
0001
1000
0000
0001
0010
0001
0010
0100
1000
0001
0000
0100
0000
,
0010
1000
0001
1000
0010
1000
0100
0010
0001
0010
0100
1000
0001
1000
0100
0010
,
0001
0011
0010
0110
,
0010
0010
0011
0000
0001
0000
1001
0000
,
1000
1010
0010
0110
,
0010
0010
1010
0000
1000
0000
1001
0000
,
0001
0101
0100
0110
,
0100
0100
0101
0000
0001
0000
1001
0000
,
1000
1100
0100
0110
,
0100
0100
1100
1000
0001
0000
0110
0000
,
1000
1100
0100
0110
,
0100
0100
1100
0000
1000
0000
1001
0000
,
0001
0101
0100
0110
,
0100
0100
0101
0000
0001
0000
1001
0000
,
1000
1010
0010
0110
,
0010
0010
1010
0000
1000
0000
1001
0000
,
0001
0011
0010
0110
,
0010
0010
0011
0001
1000
0001
1001
0001
,
1000
1000
0100
0010
0000
0100
0000
1000
,
0001
0001
0100
0000
0010
0000
1000
0000
,
0001
0001
0010
0100
0000
0010
0000
0001
,
1000
1000
0010
0000
0100
0000
0001
0000
,
1000
1000
0010
0100
0000
0010
0000
1000
,
0001
0001
0010
0000
0100
0000
1000
0000
,
0001
0001
0100
0010
0000
0100
0000
0001
,
1000
1000
0100
0000
0010
0000
0001
0000
,
1000
1000
0100
0010
0000
0100
0000
1000
,
0001
0001
0100
0000
0010
0000
1000
0000
,
0001
0001
0010
0100
0000
0010
0000
0001
,
1000
1000
0010
0000
0100
0000
0001
0000
,
1000
1000
0010
0100
0000
0010
0000
1000
,
0001
0001
0010
0000
0100
0000
1000
0000
,
0001
0001
0100
0010
0000
0100
0000
0001
,
1000
1000
0100
0000
0010
0000
0001
0000
,
1000
0010
1000
0010
0100
0000
0010
1000
0001
1000
0001
0010
0100
0000
0010
0000
,
0100
1000
0001
0010
0100
1000
0001
0100
0001
0100
0010
1000
0001
0010
0001
0010
,
0100
1000
0001
1000
0001
0000
1000
0100
1000
0100
0010
0001
1000
0000
0010
0000
,
0100
0001
1000
0001
0100
0001
1000
0010
0100
0010
1000
0010
0100
0001
1000
0100
,
0010
0001
1000
0001
1000
0000
0001
0010
0001
0010
0100
1000
0001
0000
0100
0000
,
0010
1000
0001
0100
0010
1000
0001
0010
0001
0010
0100
1000
0001
0100
0001
0100
,
0010
1000
0001
1000
0001
0000
1000
0010
1000
0010
0100
0001
1000
0000
0100
0000
,
0010
0001
1000
0001
0010
0001
0100
0010
1000
0010
0100
0001
1000
0001
0100
0010
,
1000
0100
1000
0100
0010
0000
0100
1000
0001
1000
0001
0100
0010
0000
0100
0000
,
0010
1000
0001
0100
0010
1000
0001
0010
0001
0010
0100
1000
0001
0100
0001
0100
,
0010
1000
0001
1000
0001
0000
1000
0010
1000
0010
0100
0001
1000
0000
0100
0000
,
0010
0001
1000
0001
0010
0001
1000
0100
0010
0100
1000
0100
0010
0001
1000
0010
,
0100
0001
1000
0001
1000
0000
0001
0100
0001
0100
0010
1000
0001
0000
0010
0000
,
0100
1000
0001
0010
0100
1000
0001
0100
0001
0100
0010
1000
0001
0010
0001
0010
,
0100
1000
0001
1000
0001
0000
1000
0100
1000
0100
0010
0001
1000
0000
0010
0000
,
0100
0001
1000
0001
0100
0001
0010
0100
1000
0100
0010
0001
1000
0001
0010
0100
,
1000
1100
0100
0110
,
0100
0100
1100
0000
1000
0000
1001
0000
,
0001
0101
0100
0110
,
0100
0100
0101
0000
0001
0000
1001
0000
,
1000
1010
0010
0110
,
0010
0010
1010
0000
1000
0000
1001
0000
,
0001
0011
0010
0110
,
0010
0010
0011
0001
1000
0000
0110
0000
,
0001
0011
0010
0110
,
0010
0010
0011
0000
0001
0000
1001
0000
,
1000
1010
0010
0110
,
0010
0010
1010
0000
1000
0000
1001
0000
,
0001
0101
0100
0110
,
0100
0100
0101
0000
0001
0000
1001
0000
,
1000
1100
0100
0110
,
0100
0100
1100
1000
0001
1000
1010
0110
,
1001
0000
0000
0010
M00M
0100
M00M
0000
M00M
0000
M00M
0010
M00M
0100
0000
0001
,
0100
0000
M0M0
0001
M0M0
0100
M0M0
0000
M0M0
0000
M0M0
0001
M0M0
0100
0000
0010
,
1000
0000
0M0M
0010
0M0M
1000
0M0M
0000
0M0M
0000
0M0M
0010
0M0M
1000
0000
0100
,
0010
0000
M00M
0100
M00M
0010
M00M
0000
M00M
0000
M00M
0100
M00M
0010
0000
0001
,
1000
0000
0MM0
0001
0MM0
1000
0MM0
0000
0MM0
0000
0MM0
0001
0MM0
1000
0000
0001
,
0010
0000
MM00
0001
MM00
0010
MM00
0000
MM00
0000
MM00
0001
MM00
0010
0000
0100
,
1000
0000
00MM
0100
00MM
1000
00MM
0000
00MM
0000
00MM
0100
00MM
1000
00MM
0100
,
1000
0010
1000
0001
0100
0010
1000
0001
,
0010
0100
1000
0001
0100
0110
0100
0101
,
1001
M000
0M00
M000
0M00
M000
0M00
M000
,
0M00
M000
0M00
M000
0M00
M000
0M00
M000
,
0M00
M000
0M00
M000
0M00
M000
0M00
M000
,
0M00
M000
0M00
M000
0M00
M000
0M00
M000
,
0001
0000
0000
0000
1000
0000
0000
0000
0010
0000
0100
0000
0010
0000
0000
0000
1000
0000
0000
0000
0002
0000
0000
0000
0000
0000
0000
0003
0001
0000
0000
0000
1000
0000
0000
0000
0010
0000
0000
0000
0100
0000
0001
0000
0100
0000
0000
0000
0010
0000
0000
0000
2000
0000
0000
0000
0000
0000
0000
3000
1000
0000
0000
0000
,
0001
0000
0000
0000
0100
0000
0000
0000
0010
0000
1000
0000
0010
0000
0000
0000
0100
0000
0000
0000
0002
0000
0000
0000
0000
0000
0000
0003
0001
0000
0000
0000
1000
0000
0000
0000
0100
0000
0000
0000
0010
0000
0001
0000
0010
0000
0000
0000
0100
0000
0000
0000
2000
0000
0000
0000
0000
0000
0000
3000
1000
0000
0000
0000
,
0001
0000
0000
0000
0010
0000
0000
0000
0100
0000
1000
0000
0100
0000
0000
0000
0010
0000
0000
0000
0002
0000
0000
0000
0000
0000
0000
0003
0001
0000
0000
0000
1000
0000
0000
0000
0001
0000
0000
0000
1000
0000
0000
0000
0001
0000
0000
0000
1000
0000
0000
0000
0001
0000
0000
0000
1000
0000
0000
0000
0001
0000
0000
0000
,
1000
0000
0001
0000
1000
0100
1000
0000
0001
0000
1000
0000
0001
0000
1000
0000
0001
0100
0001
0000
1000
0100
1000
0000
0001
0010
0001
0000
2000
0000
3000
0000
,
0004
4003
3040
0430
,
0301
1000
0001
0100
0010
1000
0001
0010
0001
0010
0100
1000
0001
0100
0001
0100
,
0004
4003
3400
0340
,
0031
0010
0001
1000
0100
1000
0001
0010
0100
0010
0001
0010
0100
1000
0001
0100
,
0004
4003
3040
0430
,
0301
1000
0001
0100
0010
1000
0001
0010
0001
0010
0100
1000
0001
0100
0001
0100
,
0004
4003
3400
0340
,
0031
0010
0001
1000
0100
1000
0010
0100
0001
0100
0010
1000
0001
1000
0010
1000
,
0004
4003
3400
0340
,
0031
1000
0001
0010
0100
1000
0001
0100
0001
0100
0010
1000
0001
0010
0001
0010
,
0004
4003
3040
0430
,
0301
0100
0001
1000
0010
1000
0001
0100
0010
0100
0001
0100
0010
1000
0001
0010
,
0004
4003
3400
0340
,
0031
1000
0001
0010
0100
1000
0001
0100
0001
0100
0010
1000
0001
0010
0001
0010
,
0004
4003
3040
0430
,
0301
0100
0001
1000
0010
1000
0100
0010
0001
0010
0100
1000
0001
1000
0100
0010
,
0004
0000
0000
0000
0000
1003
0100
0010
,
0004
0000
0000
0000
0000
1003
0010
0100
,
0004
0000
0000
0000
0000
1003
0100
0010
,
0004
0000
0000
0000
0000
1003
0010
0100
,
0004
0000
0000
0000
0000
0013
0100
1000
,
0040
0000
0000
0000
0000
0130
0001
0010
,
0400
0000
0000
0000
0000
0310
0001
0100
,
0040
0000
0000
0000
0000
1030
0100
0010
,
0001
0010
0100
0010
0100
0010
0100
0010
0100
0010
0001
1000
0010
0100
0001
1000
,
0100
1000
0100
1000
0100
1000
0100
1000
0100
1000
0001
0010
0100
1000
0001
0100
,
0010
1000
0010
1000
0010
1000
0010
1000
0010
1000
0001
0010
0100
1000
0001
1000
,
0010
0100
0010
0100
0010
0100
0010
0100
0010
0100
0001
1000
0010
0100
0001
1000
,
0100
1000
0100
1000
0100
1000
0100
1000
0100
1000
0001
0010
0100
1000
0001
0100
,
0010
1000
0010
1000
0010
1000
0010
1000
0010
1000
0001
0010
0100
1000
0001
1000
,
0010
0100
0010
0100
0010
0100
0010
0100
0010
0100
0001
1000
0100
0010
0001
1000
,
0010
1000
0010
1000
0010
1000
0010
1000
0010
1000
0001
0100
0010
1000
0001
0010
,
0200
0000
0000
0000
,
M0MM
0000
0000
0000
,
M0MM
0000
0000
0000
,
M0MM
0000
0000
0000
,
M3MM
0000
0000
0000
,
MMMM
0000
0000
0000
,
MMMM
0000
0000
0000
;

//---------------dance-single - I. Pyles----------------
#NOTES:
     dance-single:
     I. Pyles:
     Medium:
     11:
     0.662,1.000,0.401,0.296,0.468,1133.000,118.000,87.000,242.000,0.000:
0000
0000
0000
0000
,
0000
0000
0000
0000
,
0000
0000
0000
0000
,
0000
0000
0000
0000
,
1001
1000
0001
0010
0000
1000
0001
0010
,
0000
1000
0001
0010
0000
1000
0001
0010
,
0110
0100
1000
0001
0000
0100
1000
0001
,
0000
0100
1000
0001
0000
0100
1000
0001
,
1001
0001
1000
0010
0000
0001
1000
0010
,
0000
0001
1000
0010
0000
0001
1000
0010
,
0110
0100
0001
1000
0000
0100
0001
1000
,
0000
0100
0001
1000
0000
0100
0001
1000
,
1001
1000
0001
0100
0000
1000
0001
0100
,
0000
1000
0001
0100
0000
1000
0001
0100
,
0110
0010
1000
0001
0000
0010
1000
0001
,
0000
0010
1000
0001
0000
0010
1000
0001
,
1001
0001
1000
0100
0000
0001
1000
0100
,
0000
0001
1000
0100
0000
0001
1000
0100
,
0110
0010
0001
1000
0000
0010
0001
1000
,
0000
0010
0001
1000
0000
0010
0001
1000
,
1001
0000
1000
0000
0001
0000
0020
0000
0000
0030
0010
0000
0001
0000
1000
0000
,
0000
0000
0010
0000
0001
0000
2000
0000
0000
3000
1000
0000
0001
0000
0100
0000
,
0110
0000
0010
0000
1000
0000
0002
0000
0000
0003
0001
0000
1000
0000
0100
0000
,
0000
0000
0001
0000
1000
0000
0200
0000
0000
0300
0100
0000
1000
0000
0001
0000
,
1001
0000
0001
0000
1000
0000
0020
0000
0000
0030
0010
0000
1000
0000
0001
0000
,
0000
0000
0010
0000
1000
0000
0002
0000
0000
0003
0001
0000
1000
0000
0010
0000
,
0110
0000
0100
0000
0001
0000
2000
0000
0000
3000
1000
0000
0001
0000
0100
0000
,
0000
0000
1000
0000
0001
0000
0200
0000
0000
0300
0100
0000
0001
0000
1000
0000
,
1001
0000
0000
0000
1000
0000
0010
0100
0010
0000
1000
0000
0001
0000
0000
0000
,
1000
0000
0001
0000
0010
0100
0010
0100
1000
0000
0001
0000
1001
0000
0001
0000
,
1001
0000
0000
0000
0001
0000
0010
0100
0010
0000
0001
0000
1000
0000
0000
0000
,
0001
0000
1000
0000
0010
0100
0010
0100
0001
0000
1000
0000
1001
0000
1000
0000
,
1001
0000
0000
0000
1000
0000
0100
0010
0100
0000
1000
0000
0001
0000
0000
0000
,
1000
0000
0001
0000
0100
0010
0100
0010
1000
0000
0001
0000
1001
0000
0001
0000
,
1001
0000
1000
0000
0001
0000
0100
0010
0100
0000
0001
0000
1000
0000
0001
0000
,
1000
0000
0001
0000
0010
0100
0010
0100
1000
0000
0001
0000
0101
0000
0110
0000
,
1001
0000
0000
0100
M00M
0010
M00M
0000
M00M
0000
M00M
0100
M00M
0010
0000
1000
,
0010
0000
0M0M
1000
0M0M
0010
0M0M
0000
0M0M
0000
0M0M
1000
0M0M
0010
0000
0100
,
0001
0000
M0M0
0100
M0M0
0001
M0M0
0000
M0M0
0000
M0M0
0100
M0M0
0001
0000
0010
,
0100
0000
M00M
0010
M00M
0100
M00M
0000
M00M
0000
M00M
0010
M00M
0100
0000
1000
,
0001
0000
0MM0
1000
0MM0
0001
0MM0
0000
0MM0
0000
0MM0
1000
0MM0
0001
0000
1000
,
0100
0000
00MM
1000
00MM
0100
00MM
0000
00MM
0000
00MM
1000
00MM
0100
0000
0010
,
0001
0000
MM00
0010
MM00
0001
MM00
0000
MM00
0000
MM00
0010
MM00
0001
MM00
0010
,
0001
0100
0001
1000
0010
0100
0001
1000
,
0100
0010
0001
1000
0100
0110
0100
1100
,
1001
0M00
00M0
0M00
00M0
0M00
00M0
0M00
,
00M0
0M00
00M0
0M00
00M0
0M00
00M0
0M00
,
00M0
0M00
00M0
0M00
00M0
0M00
00M0
0M00
,
1000
0000
0001
0000
1000
0000
0001
0000
1000
0000
0001
0000
1000
0000
0001
0000
1000
0000
0001
0000
1000
0000
0001
0000
1000
0000
0100
0000
0010
0100
1000
0000
,
0001
0100
0001
0100
0010
0000
0100
0001
1000
0001
1000
0100
0010
0000
0100
0000
,
0020
0032
0203
0320
0000
0130
0002
0000
,
1003
0001
1000
0001
1000
0000
0001
0010
0001
0010
0100
1000
0001
0000
0100
0000
,
0020
0000
0000
2030
0000
0000
3002
0023
,
0031
1000
0001
1000
0001
0000
1000
0100
1000
0100
0010
0001
1000
0000
0010
0000
,
0200
0302
0023
0230
0000
0310
0002
0000
,
1003
0001
1000
0001
1000
0000
0001
0100
0001
0100
0010
1000
0001
0000
0010
0000
,
0200
0000
0000
0000
0000
0000
0000
0000
0000
0000
0000
0000
2300
0000
0000
0000
0000
0000
0000
0000
3020
0000
0000
0000
0000
0000
0000
0030
0020
0000
0000
0000
,
1030
0010
1000
0010
0100
0000
0010
1000
0001
1000
0001
0010
0100
0000
0010
0000
,
0200
2300
3020
0230
0000
0310
2000
0000
,
3001
1000
0001
1000
0001
0000
1000
0100
1000
0100
0010
0001
1000
0000
0010
0000
,
0200
0000
0000
0302
0000
0000
2003
3200
,
1300
0001
1000
0001
1000
0000
0001
0010
0001
0010
0100
1000
0001
0000
0100
0000
,
0020
2030
3200
0320
0000
0130
2000
0000
,
3001
1000
0001
1000
0001
0000
1000
0010
1000
0010
0100
0001
1000
0000
0100
0000
,
0020
0000
0000
0000
0000
0000
0000
0000
0000
0000
0000
0000
0032
0000
0000
0000
0000
0000
0000
0000
0203
0000
0000
0000
0000
0000
0000
0300
0200
0000
0000
0000
,
0301
0011
0010
0110
,
0010
0010
0011
0000
0001
0000
1001
0000
,
1000
1010
0010
0110
,
0010
0010
1010
0000
1000
0000
1001
0000
,
0001
0101
0100
0110
,
0100
0100
0101
0000
0001
0000
1001
0000
,
1000
1100
0100
0110
,
0100
0100
1100
1000
0001
0000
0110
0000
,
1000
1100
0100
0110
,
0100
0100
1100
0000
1000
0000
1001
0000
,
0001
0101
0100
0110
,
0100
0100
0101
0000
0001
0000
1001
0000
,
1000
1010
0010
0110
,
0010
0010
1010
0000
1000
0000
1001
0000
,
0001
0011
0010
0110
,
0010
0010
0011
0001
1000
0001
1001
0001
,
1000
1000
0100
0010
0000
0100
0000
1000
,
0001
0001
0100
0000
0010
0000
1000
0000
,
0001
0001
0010
0100
0000
0010
0000
0001
,
1000
1000
0010
0000
0100
0000
0001
0000
,
1000
1000
0010
0100
0000
0010
0000
1000
,
0001
0001
0010
0000
0100
0000
1000
0000
,
0001
0001
0100
0010
0000
0100
0000
0001
,
1000
1000
0100
0000
0010
0000
0001
0000
,
1000
1000
0100
0010
0000
0100
0000
1000
,
0001
0001
0100
0000
0010
0000
1000
0000
,
0001
0001
0010
0100
0000
0010
0000
0001
,
1000
1000
0010
0000
0100
0000
0001
0000
,
1000
1000
0010
0100
0000
0010
0000
1000
,
0001
0001
0010
0000
0100
0000
1000
0000
,
0001
0001
0100
0010
0000
0100
0000
0001
,
1000
1000
0100
0000
0010
0000
0001
0000
,
1000
0010
1000
0010
0100
0000
0010
1000
0001
1000
0001
0010
0100
0000
0010
0000
,
0200
2300
3020
0230
0000
0310
2000
0000
,
3001
1000
0001
1000
0001
0000
1000
0100
1000
0100
0010
0001
1000
0000
0010
0000
,
0200
0000
0000
0302
0000
0000
2003
3200
,
1300
0001
1000
0001
1000
0000
0001
0010
0001
0010
0100
1000
0001
0000
0100
0000
,
0020
2030
3200
0320
0000
0130
2000
0000
,
3001
1000
0001
1000
0001
0000
1000
0010
1000
0010
0100
0001
1000
0000
0100
0000
,
0020
0000
0000
0000
0000
0000
0000
0000
0000
0000
0000
0000
0032
0000
0000
0000
0000
0000
0000
0000
0203
0000
0000
0000
0000
0000
0000
0300
0200
0000
0000
0000
,
0301
0100
0001
0100
0010
0000
0100
0001
1000
0001
1000
0100
0010
0000
0100
0000
,
0020
0032
0203
0320
0000
0130
0002
0000
,
1003
0001
1000
0001
1000
0000
0001
0010
0001
0010
0100
1000
0001
0000
0100
0000
,
0020
0000
0000
2030
0000
0000
3002
0023
,
0031
1000
0001
1000
0001
0000
1000
0100
1000
0100
0010
0001
1000
0000
0010
0000
,
0200
0302
0023
0230
0000
0310
0002
0000
,
1003
0001
1000
0001
1000
0000
0001
0100
0001
0100
0010
1000
0001
0000
0010
0000
,
0200
0000
0000
0000
0000
0000
0000
0000
0000
0000
0000
0000
2300
0000
0000
0000
0000
0000
0000
0000
3020
0000
0000
0000
0000
0000
0000
0030
0020
0000
0000
0000
,
1030
1100
0100
0110
,
0100
0100
1100
0000
1000
0000
1001
0000
,
0001
0101
0100
0110
,
0100
0100
0101
0000
0001
0000
1001
0000
,
1000
1010
0010
0110
,
0010
0010
1010
0000
1000
0000
1001
0000
,
0001
0011
0010
0110
,
0010
0010
0011
0001
1000
0000
0110
0000
,
0001
0011
0010
0110
,
0010
0010
0011
0000
0001
0000
1001
0000
,
1000
1010
0010
0110
,
0010
0010
1010
0000
1000
0000
1001
0000
,
0001
0101
0100
0110
,
0100
0100
0101
0000
0001
0000
1001
0000
,
1000
1100
0100
0110
,
0100
0100
1100
1000
0001
1000
1010
0110
,
1001
0000
0000
0010
M00M
0100
M00M
0000
M00M
0000
M00M
0010
M00M
0100
0000
0001
,
0100
0000
M0M0
0001
M0M0
0100
M0M0
0000
M0M0
0000
M0M0
0001
M0M0
0100
0000
0010
,
1000
0000
0M0M
0010
0M0M
1000
0M0M
0000
0M0M
0000
0M0M
0010
0M0M
1000
0000
0100
,
0010
0000
M00M
0100
M00M
0010
M00M
0000
M00M
0000
M00M
0100
M00M
0010
0000
0001
,
1000
0000
0MM0
0001
0MM0
1000
0MM0
0000
0MM0
0000
0MM0
0001
0MM0
1000
0000
0001
,
0010
0000
MM00
0001
MM00
0010
MM00
0000
MM00
0000
MM00
0001
MM00
0010
0000
0100
,
1000
0000
00MM
0100
00MM
1000
00MM
0000
00MM
0000
00MM
0100
00MM
1000
00MM
0100
,
1000
0010
1000
0001
0100
0010
1000
0001
,
0010
0100
1000
0001
0100
0110
0100
0101
,
1001
M000
0M00
M000
0M00
M000
0M00
M000
,
0M00
M000
0M00
M000
0M00
M000
0M00
M000
,
0M00
M000
0M00
M000
0M00
M000
0M00
M000
,
0M00
M000
0M00
M000
0M00
M000
0M00
M000
,
0001
0000
0000
0000
1000
0000
0000
0000
0010
0000
0100
0000
0010
0000
0000
0000
1000
0000
0000
0000
0002
0000
0000
0000
0000
0000
0000
0003
0001
0000
0000
0000
1000
0000
0000
0000
0010
0000
0000
0000
0100
0000
0001
0000
0100
0000
0000
0000
0010
0000
0000
0000
2000
0000
0000
0000
0000
0000
0000
3000
1000
0000
0000
0000
,
0001
0000
0000
0000
0100
0000
0000
0000
0010
0000
1000
0000
0010
0000
0000
0000
0100
0000
0000
0000
0002
0000
0000
0000
0000
0000
0000
0003
0001
0000
0000
0000
1000
0000
0000
0000
0100
0000
0000
0000
0010
0000
0001
0000
0010
0000
0000
0000
0100
0000
0000
0000
2000
0000
0000
0000
0000
0000
0000
3000
1000
0000
0000
0000
,
0001
0000
0000
0000
0010
0000
0000
0000
0100
0000
1000
0000
0100
0000
0000
0000
0010
0000
0000
0000
0002
0000
0000
0000
0000
0000
0000
0003
0001
0000
0000
0000
1000
0000
0000
0000
0001
0000
0000
0000
1000
0000
0000
0000
0001
0000
0000
0000
1000
0000
0000
0000
0001
0000
0000
0000
1000
0000
0000
0000
0001
0000
0000
0000
,
1000
0000
0001
0000
1000
0100
1000
0000
0001
0000
1000
0000
0001
0000
1000
0000
0001
0100
0001
0000
1000
0100
1000
0000
0001
0010
0001
0000
2000
0000
3000
0000
,
0004
4003
3040
0430
,
0301
1000
0001
0100
0010
1000
0001
0010
0001
0010
0100
1000
0001
0100
0001
0100
,
0004
4003
3400
0340
,
0031
0010
0001
1000
0100
1000
0001
0010
0100
0010
0001
0010
0100
1000
0001
0100
,
0004
4003
3040
0430
,
0301
1000
0001
0100
0010
1000
0001
0010
0001
0010
0100
1000
0001
0100
0001
0100
,
0004
4003
3400
0340
,
0031
0010
0001
1000
0100
1000
0010
0100
0001
0100
0010
1000
0001
1000
0010
1000
,
0004
4003
3400
0340
,
0031
1000
0001
0010
0100
1000
0001
0100
0001
0100
0010
1000
0001
0010
0001
0010
,
0004
4003
3040
0430
,
0301
0100
0001
1000
0010
1000
0001
0100
0010
0100
0001
0100
0010
1000
0001
0010
,
0004
4003
3400
0340
,
0031
1000
0001
0010
0100
1000
0001
0100
0001
0100
0010
1000
0001
0010
0001
0010
,
0004
4003
3040
0430
,
0301
0100
0001
1000
0010
1000
0100
0010
0001
0010
0100
1000
0001
1000
0100
0010
,
0004
0000
0000
0000
0000
1003
0100
0010
,
0004
0000
0000
0000
0000
1003
0010
0100
,
0004
0000
0000
0000
0000
1003
0100
0010
,
0004
0000
0000
0000
0000
1003
0010
0100
,
0004
0000
0000
0000
0000
0013
0100
1000
,
0040
0000
0000
0000
0000
0130
0001
0010
,
0400
0000
0000
0000
0000
0310
0001
0100
,
0040
0000
0000
0000
0000
1030
0100
0010
,
0004
0000
0000
0000
0000
1003
0010
0100
,
0004
0000
0000
0000
0000
1003
0100
0010
,
0004
0000
0000
0000
0000
1003
0010
0100
,
0004
0000
0000
0000
0000
1003
0100
0010
,
0004
0000
0000
0000
0000
0103
0010
1000
,
0400
0000
0000
0000
0000
0310
0001
0100
,
0040
0000
0000
0000
0000
0130
0001
0010
,
0400
0000
0000
0000
0000
1300
0001
0100
,
0020
0000
0000
0000
,
MM0M
0000
0000
0000
,
MM0M
0000
0000
0000
,
MM0M
0000
0000
0000
,
MM3M
0000
0000
0000
,
MMMM
0000
0000
0000
,
MMMM
0000
0000
0000
;

//---------------dance-single - I. Pyles----------------
#NOTES:
     dance-single:
     I. Pyles:
     Easy:
     9:
     0.556,1.000,0.391,0.418,0.223,835.000,115.000,123.000,242.000,0.000:
0000
0000
0000
0000
,
0000
0000
0000
0000
,
0000
0000
0000
0000
,
0000
0000
0000
0000
,
0001
1000
0001
0010
0000
0001
1000
0010
,
0000
1000
0001
0010
0000
0001
1000
0010
,
0100
0010
1000
0001
0000
0100
0001
1000
,
0000
0100
1000
0001
0000
0100
0001
1000
,
0001
1000
0001
0010
0000
0001
1000
0010
,
0000
1000
0001
0010
0000
0001
1000
0010
,
0100
0010
1000
0001
0000
0100
0001
1000
,
0000
0100
1000
0001
0000
0100
0001
1000
,
0001
1000
0001
0100
0000
0001
1000
0100
,
0000
1000
0001
0100
0000
0001
1000
0100
,
0010
0100
1000
0001
0000
0010
0001
1000
,
0000
0010
1000
0001
0000
0010
0001
1000
,
0001
1000
0001
0100
0000
0001
1000
0100
,
0000
1000
0001
0100
0000
0001
1000
0100
,
0010
0100
1000
0001
0000
0010
0001
1000
,
0000
0010
1000
0001
0000
0010
0001
1000
,
0001
0000
1000
0000
0001
0000
0020
0000
0000
0030
0010
0000
0001
0000
1000
0000
,
0000
0000
0010
0000
1000
0000
0002
0000
0000
0003
0001
0000
1000
0000
0100
0000
,
0010
0000
0100
0000
1000
0000
0002
0000
0000
0003
0001
0000
1000
0000
0100
0000
,
0000
0000
1000
0000
0001
0000
0200
0000
0000
0300
0100
0000
0001
0000
1000
0000
,
0001
0000
1000
0000
0001
0000
0020
0000
0000
0030
0010
0000
0001
0000
1000
0000
,
0000
0000
0010
0000
1000
0000
0002
0000
0000
0003
0001
0000
1000
0000
0010
0000
,
0100
0000
0010
0000
1000
0000
0002
0000
0000
0003
0001
0000
1000
0000
0100
0000
,
0000
0000
1000
0000
0001
0000
0200
0000
0000
0300
0100
0000
0001
0000
1000
0000
,
0001
0000
0000
0000
1000
0000
0010
0100
0010
0000
1000
0000
0001
0000
0000
0000
,
1000
0000
0001
0000
1000
0100
1000
0100
1000
0000
0001
0000
0100
0000
0001
0000
,
0100
0000
0000
0000
0001
0000
0010
0100
0010
0000
0001
0000
1000
0000
0000
0000
,
0001
0000
1000
0000
0001
0100
0001
0100
0001
0000
1000
0000
0100
0000
1000
0000
,
0100
0000
0000
0000
1000
0000
0100
0010
0100
0000
1000
0000
0001
0000
0000
0000
,
1000
0000
0001
0000
1000
0010
1000
0010
1000
0000
0001
0000
0010
0000
0001
0000
,
0010
0000
0000
0000
0001
0000
0100
0010
0100
0000
0001
0000
1000
0000
0000
0000
,
0001
0000
1000
0000
0001
0010
0001
0010
0001
0000
1000
0000
1100
0000
0110
0000
,
1001
0000
0000
0100
M00M
0010
M00M
0000
M00M
0000
M00M
0100
M00M
0010
0000
1000
,
0010
0000
0M0M
1000
0M0M
0010
0M0M
0000
0M0M
0000
0M0M
1000
0M0M
0010
0000
0100
,
0001
0000
M0M0
0100
M0M0
0001
M0M0
0000
M0M0
0000
M0M0
0100
M0M0
0001
0000
0010
,
0100
0000
M00M
0010
M00M
0100
M00M
0000
M00M
0000
M00M
0010
M00M
0100
0000
1000
,
0001
0000
0MM0
1000
0MM0
0001
0MM0
0000
0MM0
0000
0MM0
1000
0MM0
0001
0000
1000
,
0100
0000
00MM
1000
00MM
0100
00MM
0000
00MM
0000
00MM
1000
00MM
0100
0000
0010
,
0001
0000
MM00
0010
MM00
0001
MM00
0000
MM00
0000
MM00
0010
MM00
0001
MM00
0010
,
0001
0100
0001
1000
0010
0100
0001
1000
,
0100
0010
0001
1000
0100
0110
0100
1100
,
1001
0M00
00M0
0M00
00M0
0M00
00M0
0M00
,
00M0
0M00
00M0
0M00
00M0
0M00
00M0
0M00
,
00M0
0M00
00M0
0M00
00M0
0M00
00M0
0M00
,
1000
0000
0001
0000
1000
0000
0001
0000
1000
0000
0001
0000
1000
0000
0001
0000
1000
0000
0001
0000
1000
0000
0001
0000
1000
0000
0100
0000
0010
0100
1000
0000
,
0004
4003
3004
4003
,
3200
2300
3020
0230
0000
0310
2000
0000
,
3004
0403
0304
0403
,
0320
0000
0000
2030
0000
0000
3002
0023
,
0034
4003
3004
4003
,
3020
2030
3200
0320
0000
0130
2000
0000
,
3004
0043
0034
0043
,
0230
0000
0000
0000
0000
0000
0000
0000
0000
0000
0000
0000
2300
0000
0000
0000
0000
0000
0000
0000
3020
0000
0000
0000
0000
0000
0000
0030
0020
0000
0000
0000
,
4030
3004
4003
3004
,
0023
0032
0203
0320
0000
0130
0002
0000
,
4003
3040
4030
3040
,
0230
0000
0000
0302
0000
0000
2003
3200
,
4300
3004
4003
3004
,
0203
0302
0023
0230
0000
0310
0002
0000
,
4003
3400
4300
3400
,
0320
0000
0000
0000
0000
0000
0000
0000
0000
0000
0000
0000
0032
0000
0000
0000
0000
0000
0000
0000
0203
0000
0000
0000
0000
0000
0000
0300
0200
0000
0000
0000
,
0301
0011
0010
0110
,
0010
0010
0011
0000
0001
0000
1001
0000
,
1000
1010
0010
0110
,
0010
0010
1010
0000
1000
0000
1001
0000
,
0001
0101
0100
0110
,
0100
0100
0101
0000
0001
0000
1001
0000
,
1000
1100
0100
0110
,
0100
0100
1100
1000
0001
0000
0110
0000
,
1000
1100
0100
0110
,
0100
0100
1100
0000
1000
0000
1001
0000
,
0001
0101
0100
0110
,
0100
0100
0101
0000
0001
0000
1001
0000
,
1000
1010
0010
0110
,
0010
0010
1010
0000
1000
0000
1001
0000
,
0001
0011
0010
0110
,
0010
0010
0011
0001
1000
0001
1001
0001
,
1000
1000
0100
0010
0000
0100
0000
1000
,
0001
0001
0100
0000
0010
0000
1000
0000
,
0001
0001
0010
0100
0000
0010
0000
0001
,
1000
1000
0010
0000
0100
0000
0001
0000
,
1000
1000
0010
0100
0000
0010
0000
1000
,
0001
0001
0010
0000
0100
0000
1000
0000
,
0001
0001
0100
0010
0000
0100
0000
0001
,
1000
1000
0100
0000
0010
0000
0001
0000
,
1000
1000
0100
0010
0000
0100
0000
1000
,
0001
0001
0100
0000
0010
0000
1000
0000
,
0001
0001
0010
0100
0000
0010
0000
0001
,
1000
1000
0010
0000
0100
0000
0001
0000
,
1000
1000
0010
0100
0000
0010
0000
1000
,
0001
0001
0010
0000
0100
0000
1000
0000
,
0001
0001
0100
0010
0000
0100
0000
0001
,
1000
1000
0100
0000
0010
0000
0001
0000
,
4000
3004
4003
3004
,
0023
0032
0203
0320
0000
0130
0002
0000
,
4003
3040
4030
3040
,
0230
0000
0000
0302
0000
0000
2003
3200
,
4300
3004
4003
3004
,
0203
0302
0023
0230
0000
0310
0002
0000
,
4003
3400
4300
3400
,
0320
0000
0000
0000
0000
0000
0000
0000
0000
0000
0000
0000
0032
0000
0000
0000
0000
0000
0000
0000
0203
0000
0000
0000
0000
0000
0000
0300
0200
0000
0000
0000
,
0304
4003
3004
4003
,
3200
2300
3020
0230
0000
0310
2000
0000
,
3004
0403
0304
0403
,
0320
0000
0000
2030
0000
0000
3002
0023
,
0034
4003
3004
4003
,
3020
2030
3200
0320
0000
0130
2000
0000
,
3004
0043
0034
0043
,
0230
0000
0000
0000
0000
0000
0000
0000
0000
0000
0000
0000
2300
0000
0000
0000
0000
0000
0000
0000
3020
0000
0000
0000
0000
0000
0000
0030
0020
0000
0000
0000
,
1030
1100
0100
0110
,
0100
0100
1100
0000
1000
0000
1001
0000
,
0001
0101
0100
0110
,
0100
0100
0101
0000
0001
0000
1001
0000
,
1000
1010
0010
0110
,
0010
0010
1010
0000
1000
0000
1001
0000
,
0001
0011
0010
0110
,
0010
0010
0011
0001
1000
0000
0110
0000
,
0001
0011
0010
0110
,
0010
0010
0011
0000
0001
0000
1001
0000
,
1000
1010
0010
0110
,
0010
0010
1010
0000
1000
0000
1001
0000
,
0001
0101
0100
0110
,
0100
0100
0101
0000
0001
0000
1001
0000
,
1000
1100
0100
0110
,
0100
0100
1100
1000
0001
1000
1010
0110
,
1001
0000
0000
0010
M00M
0100
M00M
0000
M00M
0000
M00M
0010
M00M
0100
0000
0001
,
0100
0000
M0M0
0001
M0M0
0100
M0M0
0000
M0M0
0000
M0M0
0001
M0M0
0100
0000
0010
,
1000
0000
0M0M
0010
0M0M
1000
0M0M
0000
0M0M
0000
0M0M
0010
0M0M
1000
0000
0100
,
0010
0000
M00M
0100
M00M
0010
M00M
0000
M00M
0000
M00M
0100
M00M
0010
0000
0001
,
1000
0000
0MM0
0001
0MM0
1000
0MM0
0000
0MM0
0000
0MM0
0001
0MM0
1000
0000
0001
,
0010
0000
MM00
0001
MM00
0010
MM00
0000
MM00
0000
MM00
0001
MM00
0010
0000
0100
,
1000
0000
00MM
0100
00MM
1000
00MM
0000
00MM
0000
00MM
0100
00MM
1000
00MM
0100
,
1000
0010
1000
0001
0100
0010
1000
0001
,
0010
0100
1000
0001
0100
0110
0100
0101
,
1001
M000
0M00
M000
0M00
M000
0M00
M000
,
0M00
M000
0M00
M000
0M00
M000
0M00
M000
,
0M00
M000
0M00
M000
0M00
M000
0M00
M000
,
0M00
M000
0M00
M000
0M00
M000
0M00
M000
,
0001
0000
0000
0000
1000
0000
0000
0000
0010
0000
0100
0000
0010
0000
0000
0000
1000
0000
0000
0000
0002
0000
0000
0000
0000
0000
0000
0003
0001
0000
0000
0000
1000
0000
0000
0000
0010
0000
0000
0000
0100
0000
0001
0000
0100
0000
0000
0000
0010
0000
0000
0000
2000
0000
0000
0000
0000
0000
0000
3000
1000
0000
0000
0000
,
0001
0000
0000
0000
0100
0000
0000
0000
0010
0000
1000
0000
0010
0000
0000
0000
0100
0000
0000
0000
0002
0000
0000
0000
0000
0000
0000
0003
0001
0000
0000
0000
1000
0000
0000
0000
0100
0000
0000
0000
0010
0000
0001
0000
0010
0000
0000
0000
0100
0000
0000
0000
2000
0000
0000
0000
0000
0000
0000
3000
1000
0000
0000
0000
,
0001
0000
0000
0000
0010
0000
0000
0000
0100
0000
1000
0000
0100
0000
0000
0000
0010
0000
0000
0000
0002
0000
0000
0000
0000
0000
0000
0003
0001
0000
0000
0000
1000
0000
0000
0000
0001
0000
0000
0000
1000
0000
0000
0000
0001
0000
0000
0000
1000
0000
0000
0000
0001
0000
0000
0000
1000
0000
0000
0000
0001
0000
0000
0000
,
1000
0000
0001
0000
1000
0100
1000
0000
0001
0000
1000
0000
0001
0000
1000
0000
0001
0100
0001
0000
1000
0100
1000
0000
0001
0010
0001
0000
2000
0000
3000
0000
,
0004
4003
3004
4003
,
3200
2300
3020
0230
0000
0310
2000
0000
,
3004
0403
0304
0403
,
0320
0000
0000
2030
0000
0000
3002
0023
,
0034
4003
3004
4003
,
3020
2030
3200
0320
0000
0130
2000
0000
,
3004
0043
0034
0043
,
0230
0000
0000
0000
0000
0000
0000
0000
0000
0000
0000
0000
2300
0000
0000
0000
0000
0000
0000
0000
3020
0000
0000
0000
0000
0000
0000
0030
0020
0000
0000
0000
,
4030
3004
4003
3004
,
0023
0032
0203
0320
0000
0130
0002
0000
,
4003
3040
4030
3040
,
0230
0000
0000
0302
0000
0000
2003
3200
,
4300
3004
4003
3004
,
0203
0302
0023
0230
0000
0310
0002
0000
,
4003
3400
4300
3400
,
0320
0000
0000
0000
0000
0000
0000
0000
0000
0000
0000
0000
0032
0000
0000
0000
0000
0000
0000
0000
0203
0000
0000
0000
0000
0000
0000
0300
0200
0000
0000
0000
,
0304
0000
0000
0000
0000
1003
0100
0010
,
0004
0000
0000
0000
0000
1003
0010
0100
,
0004
0000
0000
0000
0000
1003
0100
0010
,
0004
0000
0000
0000
0000
1003
0010
0100
,
0004
0000
0000
0000
0000
0013
0100
1000
,
0040
0000
0000
0000
0000
0130
0001
0010
,
0400
0000
0000
0000
0000
0310
0001
0100
,
0040
0000
0000
0000
0000
1030
0100
0010
,
0004
0000
0000
0000
0000
1003
0010
0100
,
0004
0000
0000
0000
0000
1003
0100
0010
,
0004
0000
0000
0000
0000
1003
0010
0100
,
0004
0000
0000
0000
0000
1003
0100
0010
,
0004
0000
0000
0000
0000
0103
0010
1000
,
0400
0000
0000
0000
0000
0310
0001
0100
,
0040
0000
0000
0000
0000
0130
0001
0010
,
0400
0000
0000
0000
0000
1300
0001
0100
,
0020
0000
0000
0000
,
MM0M
0000
0000
0000
,
MM0M
0000
0000
0000
,
MM0M
0000
0000
0000
,
MM3M
0000
0000
0000
,
MMMM
0000
0000
0000
,
MMMM
0000
0000
0000
;

//---------------dance-single - I. Pyles----------------
#NOTES:
     dance-single:
     I. Pyles:
     Beginner:
     1:
     0.026,0.061,0.000,0.000,0.000,53.000,0.000,0.000,0.000,0.000:
0000
0000
0000
0000
,
0000
0000
0000
0000
,
0000
0000
0000
0000
,
0000
0000
0000
0000
,
1000
0000
0000
0000
,
0000
0000
0000
0000
,
0000
0000
0000
0000
,
0000
0000
0000
0000
,
1000
0000
0000
0000
,
0000
0000
0000
0000
,
0000
0000
0000
0000
,
0000
0000
0000
0000
,
0010
0000
0000
0000
,
0000
0000
0000
0000
,
0000
0000
0000
0000
,
0000
0000
0000
0000
,
1000
0000
0000
0000
,
0000
0000
0000
0000
,
0000
0000
0000
0000
,
0000
0000
0000
0000
,
0100
0000
0000
0000
,
0000
0000
0000
0000
,
0000
0000
0000
0000
,
0000
0000
0000
0000
,
0100
0000
0000
0000
,
0000
0000
0000
0000
,
0000
0000
0000
0000
,
0000
0000
0000
0000
,
1000
0000
0000
0000
,
0000
0000
0000
0000
,
0000
0000
0000
0000
,
0000
0000
0000
0000
,
0010
0000
0000
0000
,
0000
0000
0000
0000
,
0000
0000
0000
0000
,
0000
0000
0000
0000
,
1000
0000
0000
0000
,
0000
0000
0000
0000
,
0010
0000
0000
0000
,
0000
0000
0000
0000
,
0010
0000
0000
0000
,
0000
0000
0000
0000
,
0100
0000
0000
0000
,
0010
0000
0000
0000
,
0000
0000
0000
0000
,
1000
0000
0000
0000
,
0000
0000
0000
0000
,
0100
0000
0000
0000
,
0000
0000
0000
0000
,
0100
0000
0000
0000
,
0000
0000
0000
0000
,
0000
0000
0000
0000
,
0000
0000
0000
0000
,
0100
0000
0000
0000
,
0000
0000
0000
0000
,
0000
0000
0000
0000
,
0000
0000
0000
0000
,
1000
0000
0000
0000
,
0000
0000
0000
0000
,
0000
0000
0000
0000
,
0000
0000
0000
0000
,
1000
0000
0000
0000
,
0000
0000
0000
0000
,
0000
0000
0000
0000
,
0000
0000
0000
0000
,
0100
0000
0000
0000
,
0000
0000
0000
0000
,
0000
0000
0000
0000
,
0000
0000
0000
0000
,
1000
0000
0000
0000
,
0000
0000
0000
0000
,
0000
0000
0000
0000
,
0000
0000
0000
0000
,
0100
0000
0000
0000
,
0000
0000
0000
0000
,
0000
0000
0000
0000
,
0000
0000
0000
0000
,
1000
0000
0000
0000
,
0000
0000
0000
0000
,
0000
0000
0000
0000
,
0000
0000
0000
0000
,
0010
0000
0000
0000
,
0000
0000
0000
0000
,
0000
0000
0000
0000
,
0000
0000
0000
0000
,
1000
0000
0000
0000
,
0000
0000
0000
0000
,
0000
0000
0000
0000
,
0000
0000
0000
0000
,
1000
0000
0000
0000
,
0000
0000
0000
0000
,
0000
0000
0000
0000
,
0000
0000
0000
0000
,
0100
0000
0000
0000
,
0000
0000
0000
0000
,
0000
0000
0000
0000
,
0000
0000
0000
0000
,
0010
0000
0000
0000
,
0000
0000
0000
0000
,
0000
0000
0000
0000
,
0000
0000
0000
0000
,
0010
0000
0000
0000
,
0000
0000
0000
0000
,
0000
0000
0000
0000
,
0000
0000
0000
0000
,
0100
0000
0000
0000
,
0000
0000
0000
0000
,
0000
0000
0000
0000
,
0000
0000
0000
0000
,
0100
0000
0000
0000
,
0000
0000
0000
0000
,
0000
0000
0000
0000
,
0000
0000
0000
0000
,
1000
0000
0000
0000
,
0000
0000
0000
0000
,
0000
0000
0000
0000
,
0000
0000
0000
0000
,
1000
0000
0000
0000
,
0000
0000
0000
0000
,
0000
0000
0000
0000
,
0000
0000
0000
0000
,
0100
0000
0000
0000
,
0000
0000
0000
0000
,
0000
0000
0000
0000
,
0000
0000
0000
0000
,
0100
0000
0000
0000
,
0000
0000
0000
0000
,
0000
0000
0000
0000
,
0000
0000
0000
0000
,
1000
0000
0000
0000
,
0000
0000
0000
0000
,
0001
0000
0000
0000
,
0000
0000
0000
0000
,
0100
0000
0000
0000
,
0000
0000
0000
0000
,
0010
0000
0000
0000
,
1000
0000
0000
0000
,
0000
0000
0000
0000
,
1000
0000
0000
0000
,
0000
0000
0000
0000
,
0100
0000
0000
0000
,
0000
0000
0000
0000
,
1000
0000
0000
0000
,
0000
0000
0000
0000
,
0001
0000
0000
0000
,
0000
0000
0000
0000
,
1000
0000
0000
0000
,
0000
0000
0000
0000
,
0000
0000
0000
0000
,
0000
0000
0000
0000
,
0100
0000
0000
0000
,
0000
0000
0000
0000
,
0000
0000
0000
0000
,
0000
0000
0000
0000
,
0010
0000
0000
0000
,
0000
0000
0000
0000
,
0000
0000
0000
0000
,
0000
0000
0000
0000
,
0100
0000
0000
0000
,
0000
0000
0000
0000
,
0000
0000
0000
0000
,
0000
0000
0000
0000
,
0010
0000
0000
0000
,
0000
0000
0000
0000
,
0000
0000
0000
0000
,
0000
0000
0000
0000
,
0010
0000
0000
0000
,
0000
0000
0000
0000
,
0000
0000
0000
0000
,
0000
0000
0000
0000
,
0100
0000
0000
0000
,
0000
0000
0000
0000
,
0000
0000
0000
0000
,
0000
0000
0000
0000
,
0001
0000
0000
0000
,
0000
0000
0000
0000
,
0000
0000
0000
0000
,
0000
0000
0000
0000
,
1000
0000
0000
0000
;
